#TITLE:Tekno Shok;
#SUBTITLE:;
#ARTIST:Harseniko;
#TITLETRANSLIT:;
#SUBTITLETRANSLIT:;
#ARTISTTRANSLIT:;
#GENRE:;
#CREDIT:;
#BANNER:;
#BACKGROUND:Tekno Shok-bg.jpg;
#LYRICSPATH:;
#CDTITLE:;
#MUSIC:Harseniko - Tekno Shok.ogg;
#OFFSET:-0.023000;
#SAMPLESTART:22.217838;
#SAMPLELENGTH:12.000000;
#SELECTABLE:YES;
#BPMS:0.000000=129.604004
;
#STOPS:
;
#BGCHANGES:;
#KEYSOUNDS:;
#ATTACKS:;

//---------------dance-single - Nifara----------------
#NOTES:
     dance-single:
     Nifara:
     Hard:
     13:
     0.593975,0.649483,0.246249,0.009471,0.620359,439.000000,413.000000,26.000000,1.000000,0.000000,0.000000,0.593975,0.649483,0.246249,0.009471,0.620359,439.000000,413.000000,26.000000,1.000000,0.000000,0.000000:
0000
0000
0000
0000
,
0000
0000
0000
0000
,
0001
0100
0010
1000
,
0100
0000
0001
0000
0100
1000
0010
0000
,
0100
0001
0000
1000
0000
0001
0010
0100
1000
0000
0001
0000
0100
0000
0100
0000
,
0010
0100
0000
0100
0000
0100
0010
1000
0001
0000
1000
0000
0001
0000
0001
0000
,
0100
1000
0000
1000
0000
1000
0001
0010
0100
0000
1000
0000
0010
0000
0010
0000
,
0100
0010
0000
0010
0000
0010
0100
0001
1000
0000
0100
0000
1000
0000
1000
0000
,
0001
0010
0000
0010
0000
0010
0100
1000
0001
0000
1000
0000
0001
0000
0001
0000
,
1000
0010
0000
0010
0000
0010
0100
0001
1000
0000
0100
0000
0010
0000
0010
0000
,
0100
1000
0000
1000
0000
1000
0001
0010
0100
0000
1000
0000
0100
0000
0100
0000
,
0200
0000
0000
0000
1300
0001
0100
0000
,
0100
0001
0000
0000
0001
0000
0010
0001
0000
0000
1000
0000
0000
0000
0100
0000
,
0010
1000
0000
0000
0100
0000
0001
0100
0000
0000
1000
0000
0000
0000
0010
0000
,
0100
0001
0000
0000
0100
0000
1000
0100
0000
0000
0100
0000
0000
0000
0010
0000
,
0100
0001
0000
0000
0001
0000
1000
0001
0000
0000
0100
0000
0100
0000
0100
0000
,
0010
1000
0000
0000
0100
0000
1000
0010
0000
0000
0100
0000
0000
0000
0001
0000
,
0010
0100
0000
0000
1000
0000
0001
0010
0000
0000
0100
0000
0000
0000
1000
0000
,
0010
1000
0000
0000
0100
0000
0001
1000
0000
0000
0100
0000
0000
0000
0010
0000
,
0100
1000
0000
0000
0100
0000
1000
0000
0001
0000
0100
0000
0001
0000
0010
0000
,
0100
1000
0000
1000
0000
1000
0001
0010
0100
1000
0100
0000
1100
0000
0011
0000
,
0001
0100
0000
0100
0000
0100
0010
0100
0001
1000
0010
0000
0010
0000
0010
0000
,
0100
0010
0000
0010
0000
0010
0100
0010
0100
0010
0100
0000
0110
0000
0110
0000
,
0100
0001
0000
0001
0000
0001
1000
0100
0010
0100
1000
0000
1000
0000
0010
0000
,
0100
0001
0000
0001
0000
0001
0010
0100
1000
0100
0010
0000
0101
0000
1100
0000
,
1000
0010
0000
0010
0000
0010
0100
0001
0010
0100
1000
0000
0100
0000
1000
0000
,
0001
1000
0000
1000
0000
1000
0010
0100
0001
1000
0001
0000
1001
0000
1001
0000
,
1000
0001
0000
0001
0000
0001
1000
0001
1000
0001
1000
0000
0100
0000
0100
0000
,
0100
1000
0000
1000
0000
1000
0001
0010
0100
1000
0100
0000
1100
0000
0011
0000
,
0001
0100
0000
0100
0000
0100
0010
0100
0001
1000
0010
0000
0010
0000
0010
0000
,
0100
0010
0000
0010
0000
0010
0100
0010
0100
0010
0100
0000
0110
0000
0110
0000
,
0100
0001
0000
0001
0000
0001
1000
0100
0010
0100
1000
0000
1000
0000
0010
0000
,
0100
0001
0000
0001
0000
0001
0010
0100
1000
0100
0010
0000
0101
0000
1100
0000
,
1000
0010
0000
0010
0000
0010
0100
0001
0010
0100
1000
0000
0100
0000
1000
0000
,
0001
1000
0000
1000
0000
1000
0010
0100
0001
1000
0001
0000
1001
0000
1001
0000
,
1000
0001
0000
0001
0000
0001
1000
0001
1000
0001
1000
0000
0001
0000
0100
0000
,
0100
0010
0000
1000
0000
0001
1000
0100
,
0000
0010
0000
0100
0000
1000
0001
0010
,
0000
0100
0000
1000
0000
0010
0100
0001
,
0000
1000
0001
1000
1001
1001
1001
0000
,
0000
0010
0000
0100
0000
0010
0100
1000
,
0000
0001
0000
0100
0000
0010
1000
0100
,
0000
1000
0000
0001
0000
1000
0100
0001
,
0000
0100
1000
0100
1100
1100
1100
0000
,
0001
0000
0000
0100
0000
0000
0010
0000
0000
0000
1000
0000
0001
0000
1000
0000
,
0001
0000
0000
1000
0000
0000
0010
0000
0000
0000
0100
0000
0001
0000
0100
0000
,
0001
0000
0000
1000
0000
0000
0010
0000
0000
0000
0100
0000
0001
0000
0100
0000
,
0001
0000
0000
1000
0000
0000
0010
0000
0000
0000
0100
0000
0001
0000
0100
0000
,
0001
0000
0000
1000
0000
0000
0001
0000
0000
0000
0100
0000
0010
0000
1000
0000
,
0001
0000
0000
0100
0000
0000
0010
0000
0000
0000
1000
0000
0001
0000
1000
0000
,
0001
0000
0000
0100
0000
0000
0010
0000
0000
0000
1000
0000
0001
0000
1000
0000
,
0001
0000
0000
0100
0000
0000
0010
0000
1000
0000
0010
0000
1000
0000
0010
0000
,
1010
0000
0000
0000
1001
1001
1001
0000
;

//---------------dance-single - Nifara----------------
#NOTES:
     dance-single:
     :
     Medium:
     10:
     0.395082,0.376478,0.303076,0.037885,0.037885,292.000000,260.000000,32.000000,4.000000,0.000000,0.000000,0.395082,0.376478,0.303076,0.037885,0.037885,292.000000,260.000000,32.000000,4.000000,0.000000,0.000000:
0000
0000
0000
0000
,
0000
0000
0000
0000
,
0001
0100
0010
1000
,
0100
0000
0001
0000
0100
1000
0010
0000
,
1000
0000
0101
0000
1000
0001
1000
0000
,
0001
0000
1100
0000
0001
1000
0001
0000
,
1000
0000
0011
0000
1000
0001
1000
0000
,
0001
0000
1010
0000
0001
1000
0001
0000
,
0100
0000
1001
0000
1000
0100
0010
0000
,
0100
0000
1001
0000
0001
0100
0010
0000
,
0010
1001
0100
1001
,
0220
0000
0330
0000
,
1000
0001
1000
0000
0001
1000
0001
0000
,
1000
0001
1000
0000
0001
1000
0001
0000
,
0100
0010
0100
0000
0010
0100
0010
0000
,
0100
0010
0100
0000
0010
0100
0010
0000
,
1000
0100
1000
0000
0100
1000
0100
0000
,
0010
0001
0010
0000
0001
0010
0001
0000
,
1000
0100
1000
0000
0001
0010
0001
0000
,
1000
0100
1000
0100
1000
0100
1000
0000
,
1000
0000
0101
0000
1000
0001
1000
0000
,
0001
0000
1100
0000
0001
1000
0001
0000
,
1000
0000
0011
0000
1000
0001
1000
0000
,
0001
0000
1010
0000
0001
1000
0001
0000
,
0100
0000
1001
0000
1000
0100
0010
0000
,
0100
0000
1001
0000
0001
0100
0010
0000
,
0010
1001
0100
1001
,
0010
1001
0110
1001
,
1000
0000
0101
0000
1000
0001
1000
0000
,
0001
0000
1100
0000
0001
1000
0001
0000
,
1000
0000
0011
0000
1000
0001
1000
0000
,
0001
0000
1010
0000
0001
1000
0001
0000
,
0100
0000
1001
0000
1000
0100
0010
0000
,
0100
0000
1001
0000
0001
0100
0010
0000
,
0010
1001
0100
1001
,
0010
0101
1100
0101
,
0100
0010
0000
1000
0000
0001
1000
0100
,
0000
0010
0000
0100
0000
1000
0001
0010
,
0000
0100
0000
1000
0000
0010
0100
0001
,
0000
1000
0001
1000
0001
1000
0001
0000
,
0000
0010
0000
0100
0000
0010
0100
1000
,
0000
0001
0000
0100
0000
0010
1000
0100
,
0000
1000
0000
0001
0000
1000
0100
0001
,
0000
0100
1000
0100
1000
0100
1000
0000
,
0001
0000
0000
0001
0000
0000
0001
0000
0000
0000
1000
0000
0001
0000
1000
0000
,
1000
0000
0000
1000
0000
0000
1000
0000
0000
0000
0100
0000
0001
0000
0100
0000
,
0010
0000
0000
0010
0000
0000
0010
0000
0000
0000
0100
0000
0001
0000
0100
0000
,
0100
0000
0000
0100
0000
0000
0100
0000
0000
0000
0100
0000
0001
0000
0100
0000
,
0001
0000
0000
0001
0000
0000
0001
0000
0000
0000
0100
0000
0010
0000
1000
0000
,
1000
0000
0000
1000
0000
0000
1000
0000
0000
0000
1000
0000
0001
0000
1000
0000
,
0010
0000
0000
0010
0000
0000
0010
0000
0000
0000
1000
0000
0001
0000
1000
0000
,
0100
0000
0000
0100
0000
0000
0100
0000
0000
0000
1000
0000
0010
0000
0000
0000
,
2002
0000
0000
0000
,
3003
0000
0000
0000
;

//---------------dance-single - Nifara----------------
#NOTES:
     dance-single:
     :
     Easy:
     7:
     0.309841,0.376478,0.312547,0.037885,0.000000,229.000000,196.000000,33.000000,4.000000,0.000000,0.000000,0.309841,0.376478,0.312547,0.037885,0.000000,229.000000,196.000000,33.000000,4.000000,0.000000,0.000000:
0000
0000
0000
0000
,
0000
0000
0000
0000
,
0001
0100
0010
1000
,
0100
0001
0100
0010
,
1000
0101
1000
1000
,
0001
1100
0001
0001
,
1000
0011
1000
1000
,
0001
1010
0001
0001
,
0100
1001
1000
0010
,
0100
1001
0001
0010
,
0010
1001
0100
1001
,
0220
0000
0330
0000
,
1000
1000
0001
0001
,
1000
1000
0001
0001
,
0100
0100
0010
0010
,
0100
0100
0010
0010
,
1000
1000
0100
0100
,
0010
0010
0001
0001
,
1000
1000
0001
0001
,
1000
1000
1000
1001
,
1000
0101
1000
1000
,
0001
1100
0001
0001
,
1000
0011
1000
1000
,
0001
1010
0001
0001
,
0100
1001
1000
0010
,
0100
1001
0001
0010
,
0010
1001
0100
1001
,
0010
1001
0110
1001
,
1000
0101
1000
1000
,
0001
1100
0001
0001
,
1000
0011
1000
1000
,
0001
1010
0001
0001
,
0100
1001
1000
0010
,
0100
1001
0001
0010
,
0010
1001
0100
1001
,
0010
0101
1100
0101
,
0000
0010
0000
1000
0000
0001
0000
0100
,
0000
0010
0000
0100
0000
1000
0000
0010
,
0000
0100
0000
1000
0000
0010
0000
0001
,
0000
1000
0000
1000
0000
1000
0000
0000
,
0000
0010
0000
0100
0000
0010
0000
1000
,
0000
0001
0000
0100
0000
0010
0000
0100
,
0000
1000
0000
0001
0000
1000
0000
0001
,
0000
0100
0000
0100
0000
0100
0000
0000
,
0001
0001
0001
0001
,
1000
1000
1000
0001
,
0010
0010
0010
0001
,
0100
0100
0100
0001
,
0001
1000
1000
0010
,
1000
1000
1000
0001
,
0010
0001
1000
0001
,
0100
0010
1000
0010
,
2002
0000
0000
0000
,
3003
0000
0000
0000
;

//---------------dance-single - Nifara----------------
#NOTES:
     dance-single:
     :
     Beginner:
     4:
     0.139361,0.150591,0.028413,0.028413,0.000000,103.000000,100.000000,3.000000,3.000000,0.000000,0.000000,0.139361,0.150591,0.028413,0.028413,0.000000,103.000000,100.000000,3.000000,3.000000,0.000000,0.000000:
// measure 0
0000
0000
0000
0000
,  // measure 1
0000
0000
0000
0000
,  // measure 2
0001
0000
0010
0000
,  // measure 3
0100
0000
0100
0000
,  // measure 4
1000
0000
1000
0000
,  // measure 5
0001
0000
0001
0000
,  // measure 6
1000
0000
1000
0000
,  // measure 7
0001
0000
0001
0000
,  // measure 8
0100
0000
1000
0000
,  // measure 9
0100
0000
0001
0000
,  // measure 10
0010
0000
0100
0000
,  // measure 11
0200
0000
0300
0000
,  // measure 12
1000
1000
0000
0000
,  // measure 13
1000
1000
0000
0000
,  // measure 14
0100
0100
0000
0000
,  // measure 15
0100
0100
0000
0000
,  // measure 16
0010
0010
0000
0000
,  // measure 17
0010
0010
0000
0000
,  // measure 18
0001
0001
0000
0000
,  // measure 19
0001
0001
0000
0000
,  // measure 20
1000
0000
1000
0000
,  // measure 21
0001
0000
0001
0000
,  // measure 22
1000
0000
1000
0000
,  // measure 23
0001
0000
0001
0000
,  // measure 24
0100
0000
1000
0000
,  // measure 25
0100
0000
0001
0000
,  // measure 26
0010
0000
0100
0000
,  // measure 27
0010
0000
0110
0000
,  // measure 28
1000
0000
1000
0000
,  // measure 29
0001
0000
0001
0000
,  // measure 30
1000
0000
1000
0000
,  // measure 31
0001
0000
0001
0000
,  // measure 32
0100
0000
1000
0000
,  // measure 33
0100
0000
0001
0000
,  // measure 34
0010
0000
0100
0000
,  // measure 35
0010
0000
1001
0000
,  // measure 36
0010
0000
0001
0000
,  // measure 37
0010
0000
1000
0000
,  // measure 38
0100
0000
0010
0000
,  // measure 39
1000
0000
1000
0000
,  // measure 40
0010
0000
0010
0000
,  // measure 41
0001
0000
0010
0000
,  // measure 42
1000
0000
1000
0000
,  // measure 43
0100
0000
0100
0000
,  // measure 44
0001
0001
0000
0000
,  // measure 45
1000
1000
0000
0000
,  // measure 46
0010
0010
0000
0000
,  // measure 47
0100
0100
0000
0000
,  // measure 48
0001
0001
0000
0000
,  // measure 49
1000
1000
0000
0000
,  // measure 50
0010
0010
0000
0000
,  // measure 51
1000
1000
0000
0000
,  // measure 52
2002
0000
0000
0000
,  // measure 53
3003
0000
0000
0000
;
