#VERSION:0.83;
#TITLE:Tekno Shok;
#SUBTITLE:(Y&Co. Remix);
#ARTIST:Harseniko;
#TITLETRANSLIT:;
#SUBTITLETRANSLIT:;
#ARTISTTRANSLIT:;
#GENRE:;
#ORIGIN:;
#CREDIT:;
#BANNER:Tekno Shok (Y&Co. Remix).png;
#BACKGROUND:Tekno Shok (Y&Co. Remix)-bg.png;
#PREVIEWVID:;
#JACKET:Tekno Shok (Y&Co. Remix)-jacket.png;
#CDIMAGE:;
#DISCIMAGE:;
#LYRICSPATH:;
#CDTITLE:;
#MUSIC:Tekno Shok (Y&Co. Remix).ogg;
#OFFSET:-0.392000;
#SAMPLESTART:88.867996;
#SAMPLELENGTH:15.000000;
#SELECTABLE:YES;
#BPMS:0.000=143.042;
#STOPS:15.000=0.105,
15.250=0.210,
15.500=0.105,
33.000=0.105,
33.250=0.105,
36.500=0.105,
36.750=0.105,
40.000=0.105,
40.250=0.105,
43.500=0.105,
43.750=0.105,
63.000=0.105,
63.250=0.105,
75.500=0.210,
76.000=0.210,
76.500=0.210,
77.000=0.105,
77.250=0.105,
77.500=0.105,
89.250=0.315,
89.500=0.315,
89.750=0.315,
90.000=0.105,
90.250=0.105,
102.500=0.105,
102.750=0.105,
103.000=0.105,
103.250=0.105,
103.500=0.210,
105.000=0.052,
105.125=0.052,
106.750=0.052,
106.875=0.052,
108.500=0.052,
108.625=0.052,
112.250=0.052,
112.375=0.052,
114.000=0.052,
114.125=0.052,
115.750=0.052,
115.875=0.052,
119.500=0.052,
119.625=0.052,
121.250=0.052,
121.375=0.052,
123.000=0.052,
123.125=0.052,
126.750=0.052,
126.875=0.052,
128.500=0.052,
128.625=0.052,
130.250=0.052,
130.375=0.052,
133.000=0.052,
133.125=0.052,
133.750=0.052,
133.875=0.052,
135.500=0.052,
135.625=0.052,
137.250=0.052,
137.375=0.052,
139.000=0.052,
139.125=0.052,
140.750=0.052,
140.875=0.052,
142.500=0.052,
142.625=0.052,
144.250=0.105,
144.500=0.105,
144.750=0.105,
145.500=0.105,
145.750=0.105,
146.000=0.105,
146.750=0.052,
146.875=0.052,
148.500=0.052,
148.625=0.052,
150.250=0.052,
150.375=0.052,
152.000=0.052,
152.125=0.052,
153.750=0.052,
153.875=0.052,
155.500=0.052,
155.625=0.052,
157.250=0.105,
157.500=0.105,
157.750=0.105,
163.500=0.105,
163.750=0.105,
167.000=0.105,
167.250=0.105,
170.500=0.105,
170.750=0.105,
171.000=0.105,
171.250=0.210,
171.500=0.105,
177.000=0.105,
177.250=0.105,
180.500=0.105,
180.750=0.105,
183.500=0.052,
183.625=0.210,
183.750=0.105,
183.875=0.052,
195.000=0.105,
195.250=0.105,
202.500=0.105,
202.750=0.105,
210.000=0.105,
210.250=0.105,
214.500=0.210,
215.000=0.210,
215.500=0.210,
216.000=0.105,
216.250=0.105,
216.500=0.105,
217.250=0.210,
217.750=0.210,
218.250=0.210,
218.750=0.210,
219.250=0.210,
219.750=0.210,
220.250=0.210,
220.750=0.210,
221.250=0.210,
221.750=0.210,
222.250=0.210,
222.750=0.210,
223.250=0.210,
223.750=0.210,
224.250=0.105,
225.000=0.210,
225.500=0.210,
226.000=0.210,
226.500=0.210,
227.000=0.210,
227.500=0.210,
228.000=0.210,
228.500=0.210,
229.000=0.210,
229.500=0.210,
230.000=0.210,
230.500=0.210,
231.000=0.105,
231.250=0.105,
231.500=0.105,
231.750=0.105,
232.000=0.105,
233.750=0.105,
234.000=0.105,
234.250=0.105,
234.500=0.105,
234.750=0.105,
236.500=0.105,
236.750=0.105,
237.000=0.105,
237.250=0.105,
237.500=0.105,
239.250=0.105,
239.500=0.105,
239.750=0.105,
240.000=0.105,
240.250=0.105,
242.000=0.105,
242.250=0.105,
242.750=0.105;
#DELAYS:;
#WARPS:;
#TIMESIGNATURES:0.000=4=4;
#TICKCOUNTS:0.000=4;
#COMBOS:0.000=1;
#SPEEDS:0.000=1.000=0.000=0;
#SCROLLS:0.000=1.000;
#FAKES:;
#LABELS:0.000=Song Start;
#BGCHANGES:;
#KEYSOUNDS:;
#ATTACKS:
;

//---------------dance-single - ----------------
#NOTEDATA:;
#CHARTNAME:;
#STEPSTYPE:dance-single;
#DESCRIPTION:;
#CHARTSTYLE:;
#DIFFICULTY:Challenge;
#METER:15;
#RADARVALUES:0.621808,0.696599,0.061740,0.038587,0.852781,564.000000,556.000000,8.000000,5.000000,0.000000,0.000000,0.000000,0.000000,0.000000,0.621808,0.696599,0.061740,0.038587,0.852781,564.000000,556.000000,8.000000,5.000000,0.000000,0.000000,0.000000,0.000000,0.000000;
#CREDIT:;
#NOTES:
// measure 0
0000
0000
0000
0000
,  // measure 1
0000
0000
0000
0000
,  // measure 2
0000
0000
0000
0000
0000
0000
0000
0000
0000
0000
0000
0000
1000
0100
0000
1000
,  // measure 3
0000
0001
1000
0100
0010
0001
1000
0000
0001
0000
0100
0000
1001
1001
1001
0001
,  // measure 4
0000
0100
0000
0100
0010
0000
1000
0000
1000
0001
0000
1000
0000
1000
0010
0100
,  // measure 5
0001
0100
0010
0000
1000
0000
0001
0000
1000
0100
0000
0100
0000
1000
0100
0010
,  // measure 6
0100
1000
0010
0000
0100
0000
0001
0000
1000
0001
0000
0100
0000
0010
0100
0001
,  // measure 7
0100
0010
0100
0000
0001
0000
0010
0000
0100
1000
0000
0100
0000
1000
0010
0100
,  // measure 8
0010
1000
0010
0000
1000
0001
0100
0010
0000
0100
0000
0001
0100
0001
0100
0001
,  // measure 9
0100
0000
0100
0001
1000
0100
0000
1000
0000
0100
1000
0100
1000
0100
1000
0000
,  // measure 10
0100
0100
0010
0001
0000
1000
0000
0001
0010
0001
0010
0001
1000
0000
1000
0010
,  // measure 11
0220
0000
0330
0000
1000
0001
1000
0000
,  // measure 12
1001
0010
1000
0010
0001
0100
0010
1000
,  // measure 13
0001
0000
0000
0001
1000
0000
1000
0001
0000
1000
0001
0000
1000
0000
0001
0000
,  // measure 14
0001
1000
0001
0100
0010
0100
0001
1000
,  // measure 15
0100
0000
1000
0000
0010
0000
1000
0001
0000
1000
0001
0000
1000
0100
1000
0000
,  // measure 16
0010
0100
0001
0100
0010
0100
0001
1000
,  // measure 17
0100
1000
0010
1000
0010
0100
0010
1000
,  // measure 18
0100
0010
0100
1000
0010
0100
0010
1000
,  // measure 19
0001
0000
0001
0000
1000
0001
0001
0000
0000
0100
0000
0000
0000
0001
0000
0000
,  // measure 20
0000
0100
0000
0000
0000
0001
0000
0000
0000
0100
0000
0000
0000
0001
0000
0000
,  // measure 21
0000
0100
0000
0100
0000
0100
0000
0000
0000
1000
0000
0000
0000
0001
0000
0000
,  // measure 22
0000
1000
0000
0000
0000
0001
0100
0001
0010
0010
0011
0000
0000
0000
0010
0000
,  // measure 23
0000
0010
0000
0001
0000
0010
0000
0010
,  // measure 24
0000
0010
0000
0010
0010
0010
0000
0010
,  // measure 25
0000
0000
0100
0000
0000
0000
1000
0000
0000
0000
0001
0001
1000
1000
0001
0010
,  // measure 26
0001
0000
0000
0000
0001
0000
0000
0000
1000
0001
0000
0000
0100
0000
0000
0000
0010
0000
0100
0000
0001
0000
1000
0001
0000
0000
0100
0000
0000
0000
0010
0000
,  // measure 27
1000
0000
0100
0000
0001
0100
0000
0000
0100
0000
0000
0000
0010
0000
0100
0000
1000
0000
0001
0000
0100
0000
1000
0000
0000
0000
0100
0000
0000
0000
0001
0000
,  // measure 28
0000
0000
0100
0010
0000
0000
0100
0000
0000
0000
0001
0000
1000
0000
0010
0000
0100
0001
0000
0000
1000
0000
0000
0000
0001
0000
0100
0000
0001
0000
0100
0010
,  // measure 29
0000
0000
0010
0000
0000
0000
1000
0000
0001
0000
0010
0000
0100
0000
0010
0000
0001
0000
0000
0000
0010
0000
0000
0000
1001
0000
0000
0000
0100
0010
0000
0000
,  // measure 30
1000
0000
0000
0000
0001
0000
1000
0000
0001
0000
0100
0001
0000
0000
1000
0000
0000
0000
1000
0000
0010
0000
1000
0000
0001
0010
0000
0000
0001
0000
0000
0000
,  // measure 31
0100
0000
0001
0000
0100
0000
0010
0000
1000
0000
0010
0000
0000
0000
1000
0000
0000
0000
0010
0000
0000
0000
1000
0100
0000
0000
1000
0000
0000
0000
0010
0000
,  // measure 32
1000
0000
0001
0000
0100
0010
0000
0000
1000
0000
0000
0000
1000
0000
0010
0000
1000
0000
0100
1000
0000
0000
0100
0000
0000
0000
0010
0000
0001
0000
0100
0000
,  // measure 33
0010
0000
0100
0000
0001
0000
0000
0000
1000
0001
1000
0000
0000
0000
0100
1000
0100
0000
0000
0000
1000
0000
0000
0000
0001
0000
0000
0000
0100
0010
0100
0000
,  // measure 34
0000
0000
0001
0000
0000
0000
0100
0000
0000
0000
0010
1000
0010
0000
0000
0000
0100
0000
0000
0000
0001
0000
0000
0000
0100
0010
0100
0000
0000
0000
0001
0000
,  // measure 35
0000
0000
1000
0000
0000
0000
1000
0010
1000
0000
0000
0000
0100
0000
0000
0000
0010
0000
0000
0000
0001
0100
0010
0000
0000
0000
1000
0000
0000
0000
0001
0000
,  // measure 36
0000
0000
0100
0000
0010
0000
0100
0000
0000
0000
0000
0000
0001
0000
0100
0000
0001
0000
0000
0000
0000
0000
0010
0001
0010
0000
0000
0000
0010
0000
0000
0000
,  // measure 37
0010
0000
0000
0000
0001
0100
0001
0000
0000
0000
0001
0000
0000
0000
0001
0000
0000
0000
0100
0001
0100
0000
0000
0000
0100
0000
0000
0000
0100
0000
0000
0000
,  // measure 38
0100
0001
0100
0000
0000
0000
0100
0000
0000
0000
0100
0000
0000
0000
0100
0001
0100
0000
0000
0000
0100
0000
0000
0000
0100
0000
0000
0000
0010
1000
0010
0000
,  // measure 39
0000
0010
0000
0010
0000
0010
0010
0010
0000
0000
0100
0000
0000
0000
0001
0000
,  // measure 40
0000
0000
0100
0000
0000
0000
0001
0000
0000
0000
0100
0000
0000
0000
0001
0100
,  // measure 41
0010
0000
1000
0000
0010
0000
0100
0000
0001
0000
0100
0000
0100
0010
0100
0000
,  // measure 42
0010
0000
1000
0000
0100
0000
0010
0000
0100
0000
0100
1000
0100
0010
0010
0010
,  // measure 43
0000
0010
0000
0010
0001
0000
0010
0000
0001
0000
1000
0000
0001
0000
0010
0000
,  // measure 44
0001
0000
0001
0000
0010
0001
1000
0000
0010
0000
1000
0000
0100
0000
1000
0000
,  // measure 45
1000
0000
0000
0000
0100
0000
0010
0000
0100
0000
0000
0000
1000
0000
0000
0000
0001
0000
0000
0000
0010
0000
0000
0000
0001
0000
0000
0000
1000
0010
0100
0001
,  // measure 46
2000
0000
0000
0000
0001
0001
3001
0000
,  // measure 47
1001
0001
0100
0001
0100
0010
0100
0010
,  // measure 48
1000
0000
0100
0000
1000
0000
0100
0000
1000
0000
0010
0000
0010
0010
0100
0000
,  // measure 49
0001
0100
0010
0100
0001
1000
0100
1000
,  // measure 50
0010
0000
1000
0000
0010
0000
0100
0000
0010
0000
0100
0100
0001
0000
0010
0000
,  // measure 51
0001
1000
0001
1000
0010
1000
0010
1000
,  // measure 52
0100
0000
1000
0000
0100
0000
1000
0000
0100
0010
0001
0000
0100
0000
0010
0000
,  // measure 53
0100
0001
0010
0001
1000
1000
0100
0010
,  // measure 54
0100
0100
0100
0000
0000
0100
0000
0010
0000
0100
0000
0010
0000
0100
0000
0010
,  // measure 55
0000
0100
0000
1000
0000
0010
0000
1000
0000
0001
0000
0100
0000
0001
0000
1000
,  // measure 56
0000
0001
0010
0000
0001
0000
0100
0000
0010
0000
0100
0000
0001
0000
0001
0000
,  // measure 57
0100
0000
0010
0000
1000
0000
0001
0000
1000
0000
0100
0000
1000
0010
1000
0010
,  // measure 58
0010
0000
0100
0010
0000
0100
0000
0100
0001
0100
0010
1000
0000
1000
0001
0000
,  // measure 59
0001
0000
1000
0010
0100
0010
0100
0000
0100
0001
0000
0001
0000
0100
0010
0010
,  // measure 60
0010
0010
0000
0010
1000
0000
0001
0000
0001
0100
0010
0100
0000
0010
0000
0000
,  // measure 61
0100
0010
0000
0100
0000
0000
0020
0000
0000
0200
0000
0000
0000
0000
0000
0000
,  // measure 62
0000
0330
0000
0000
;
