#TITLE:Tear It Up;
#SUBTITLE:;
#ARTIST:KLUTE;
#TITLETRANSLIT:;
#SUBTITLETRANSLIT:;
#ARTISTTRANSLIT:;
#GENRE:;
#CREDIT:;
#BANNER:;
#BACKGROUND:Tear it Up-bg.png;
#LYRICSPATH:;
#CDTITLE:;
#MUSIC:TEAR IT UP.ogg;
#OFFSET:-0.441000;
#SAMPLESTART:43.021000;
#SAMPLELENGTH:13.899000;
#SELECTABLE:YES;
#BPMS:0.000000=135.977997
;
#STOPS:
;
#BGCHANGES:;
#KEYSOUNDS:;
#ATTACKS:;

//---------------dance-single - Nifara----------------
#NOTES:
     dance-single:
     Nifara:
     Beginner:
     2:
     0.151997,0.260567,0.010857,0.000000,0.000000,98.000000,97.000000,1.000000,0.000000,0.000000,0.000000,0.151997,0.260567,0.010857,0.000000,0.000000,98.000000,97.000000,1.000000,0.000000,0.000000,0.000000:
// measure 0
0000
0000
0000
0000
,  // measure 1
0000
0000
0000
0000
,  // measure 2
1000
1000
0000
0000
,  // measure 3
0100
0100
0000
0000
,  // measure 4
0001
0001
0000
0000
,  // measure 5
1000
1000
0000
0000
,  // measure 6
0100
0100
0000
0000
,  // measure 7
0001
0001
0000
0000
,  // measure 8
0010
0001
0000
0000
0000
0000
0000
0000
,  // measure 9
0000
0000
0100
0010
0000
0000
0000
0000
,  // measure 10
0000
0000
1000
0100
0000
0000
0000
0000
,  // measure 11
0000
0000
0100
0001
0000
0000
0000
0000
,  // measure 12
0000
0000
1000
0010
0000
0000
0000
0000
,  // measure 13
0000
0000
0001
1000
0000
0000
0000
0000
,  // measure 14
0000
0000
0001
0100
0000
0000
0000
0000
,  // measure 15
0000
0000
1000
0100
0000
0000
0000
0000
,  // measure 16
0000
0000
0010
1000
0000
0000
0000
0000
,  // measure 17
0000
0000
0001
1000
0000
0000
0000
0000
,  // measure 18
0000
0000
0010
1000
0000
0000
0000
0000
,  // measure 19
0000
0000
0001
1000
0000
0000
0000
0000
,  // measure 20
0000
0000
0100
0001
0000
0000
0000
0000
,  // measure 21
0000
0000
0010
1000
0000
0000
0000
0000
,  // measure 22
0000
0000
0100
0001
0000
0000
0000
0000
,  // measure 23
0000
0000
0001
1000
0000
0000
0000
0000
,  // measure 24
0000
1000
0000
0001
,  // measure 25
0000
0100
0000
1000
,  // measure 26
0000
0001
0000
0010
,  // measure 27
0000
1000
0000
0010
,  // measure 28
0000
1000
0000
0001
,  // measure 29
0000
0010
0000
0100
,  // measure 30
0000
0001
0000
1000
,  // measure 31
0000
0010
0000
0001
,  // measure 32
0000
0000
1000
0100
0000
0000
0000
0000
,  // measure 33
0000
0000
0100
0001
0000
0000
0000
0000
,  // measure 34
0000
0000
0010
1000
0000
0000
0000
0000
,  // measure 35
0000
0000
0001
1000
0000
0000
0000
0000
,  // measure 36
0000
0000
0100
0001
0000
0000
0000
0000
,  // measure 37
0000
0000
0010
1000
0000
0000
0000
0000
,  // measure 38
0000
0000
1000
0100
0000
0000
0000
0000
,  // measure 39
0000
0000
0010
0001
0000
0000
0000
0000
,  // measure 40
0000
0100
0000
1000
,  // measure 41
0000
0001
0000
0100
,  // measure 42
0000
0001
0000
0100
,  // measure 43
0000
0010
0000
1000
,  // measure 44
0000
0001
0000
0010
,  // measure 45
0000
1000
0000
0001
,  // measure 46
1000
0100
1000
0100
,  // measure 47
0100
0001
0100
0001
,  // measure 48
0101
0000
0000
0000
;

//---------------dance-single - ----------------
#NOTES:
     dance-single:
     :
     Easy:
     5:
     0.285382,0.312680,0.010857,0.000000,0.000000,184.000000,183.000000,1.000000,0.000000,0.000000,0.000000,0.285382,0.312680,0.010857,0.000000,0.000000,184.000000,183.000000,1.000000,0.000000,0.000000,0.000000:
0000
0000
0000
0000
,
0000
0000
0000
0000
,
1000
0001
0100
0010
,
1000
0000
0001
0000
0010
0000
0100
1000
,
0100
0010
0001
1000
,
0100
0000
0001
0000
0010
0000
1000
0001
,
1000
0100
0001
1000
,
0100
0000
0001
0000
1000
0100
1000
0100
,
1000
0000
1000
0001
1000
0001
0000
0000
,
0000
0000
1000
0100
1000
0100
0000
0000
,
0000
0000
0100
0010
0100
0010
0000
0000
,
0000
0000
0010
0001
0010
0001
0000
0000
,
0000
0000
1000
0100
0010
0001
0000
0000
,
0000
0000
0001
0010
0100
1000
0000
0000
,
0000
0000
1000
0010
1000
0010
0000
0000
,
0000
0000
0010
0001
0010
0001
0000
0000
,
0000
0000
0100
0010
0100
0010
0000
0000
,
0000
0000
0001
1000
0001
0000
0000
0000
,
0000
0000
1000
0100
1000
0100
0000
0000
,
0000
0000
0001
0100
0001
0000
0000
0000
,
0000
0000
0010
1000
0010
1000
0000
0000
,
0000
0000
0100
0001
0100
0000
0000
0000
,
0000
0000
1000
0010
1000
0010
0000
0000
,
0000
0000
0001
1000
0001
0000
0000
0000
,
0000
0000
1000
0001
1000
0010
0100
0000
,
0000
0000
1000
0001
1000
0010
0100
0000
,
0000
0000
0010
0001
0100
0010
0000
0000
,
0000
0000
1000
0001
0100
0000
0000
0000
,
0000
0000
0010
0001
0010
0000
0000
0000
,
0000
0000
0100
0001
0100
0001
1000
0000
,
0000
0000
0100
0001
0010
0001
0000
0000
,
0000
0000
1000
0010
0100
0001
0000
0000
,
0000
0000
0100
0001
1000
0001
0000
0000
,
0000
0000
0100
0010
1000
0010
0000
0000
,
0000
0000
1000
0001
1000
0001
1000
0000
,
0000
0000
0100
0010
1000
0001
0000
0000
,
0000
0000
1000
0001
1000
0001
0000
0000
,
0000
0000
0100
0010
1000
0000
0000
0000
,
0000
0000
0010
0001
0010
0001
0000
0000
,
0000
0000
1000
0001
1000
0000
0000
0000
,
0000
0000
0100
0010
0000
0000
1000
0010
,
0000
0000
0100
0001
0000
0000
0100
0010
,
0000
0000
1000
0010
0000
0000
0001
0100
,
0000
0000
1000
0100
0000
0000
0001
1000
,
0000
1000
0000
0001
,
0000
0010
0000
0001
,
1000
0100
0010
0001
,
1000
0100
1000
0000
1000
0000
0010
0000
,
1010
0000
0000
0000
;

//---------------dance-single - ----------------
#NOTES:
     dance-single:
     :
     Medium:
     9:
     0.344320,0.469020,0.271423,0.000000,0.000000,222.000000,197.000000,25.000000,0.000000,0.000000,0.000000,0.344320,0.469020,0.271423,0.000000,0.000000,222.000000,197.000000,25.000000,0.000000,0.000000,0.000000:
0000
0000
0000
0000
,
0000
0000
0000
0000
,
1100
0011
1100
0011
,
1100
0011
0110
1001
,
0110
1001
0110
1010
,
1100
1010
1100
1010
,
1100
0011
0101
0011
,
0101
0011
0101
1001
,
0000
0000
1000
0100
1000
0000
0000
0000
,
0000
0000
0100
0010
1000
0000
0000
0000
,
0000
0000
0001
1000
0010
0000
0000
0000
,
0000
0000
1000
0001
0100
0000
0000
0000
,
0000
0000
0001
0010
0100
0000
0000
0000
,
0000
0000
1000
0001
0010
0000
0000
0000
,
0000
0000
0100
1000
0001
0000
0000
0000
,
0000
0000
0010
1000
0001
0000
0000
0000
,
0000
0000
0100
1000
0100
0000
0100
0000
,
0000
0000
1000
0100
1000
0000
0000
0000
,
0000
0000
0010
1000
0001
0000
1000
0000
,
0000
0000
0001
0010
1000
0000
0000
0000
,
0000
0000
0100
0001
1000
0000
0000
0000
,
0000
0000
1000
0001
0010
0000
0000
0000
,
0000
0000
0001
1000
0100
0000
0000
0000
,
0000
0000
0010
1000
0100
0000
0000
0000
,
0000
1000
0100
0001
0100
1000
0100
0001
,
0100
1000
0100
0001
0100
1000
0100
0001
,
0100
1000
0100
0001
0100
1000
0100
0001
,
0100
1000
0100
0001
0100
1000
0100
0000
,
0000
0000
1000
0100
0010
0001
1000
0100
,
0010
0001
1000
0100
0010
0001
1000
0100
,
0010
0001
1000
0100
0010
0001
1000
0100
,
0010
0001
1000
0100
0010
0001
0000
0000
,
0000
0000
1000
0001
0010
0000
0000
0000
,
0000
0000
0001
1000
0100
0000
0000
0000
,
0000
0000
0010
1000
0100
0000
0000
0000
,
0000
0000
0001
0100
1000
0000
0000
0000
,
0000
0000
0001
0010
0100
0000
0000
0000
,
0000
0000
1000
0100
0001
0000
0000
0000
,
0000
0000
0010
0100
0010
0000
0000
0000
,
0000
0000
1000
0001
0010
0000
0000
0000
,
0000
0000
1000
1000
0000
0000
0100
0100
,
0000
0000
0001
0001
0000
0000
0100
0100
,
0000
0000
0001
0001
0000
0000
1000
1000
,
0000
0000
0001
0001
0000
0000
0100
0100
,
0000
0000
1000
1000
0000
0000
0001
0001
,
0000
0000
0100
0100
0000
0000
0001
0001
,
1000
0100
1000
0100
0010
0100
0010
0100
,
0001
0100
0001
0100
1000
0100
1000
0100
,
1001
0000
0000
0000
;

//---------------dance-single - ----------------
#NOTES:
     dance-single:
     :
     Hard:
     10:
     0.434278,0.505390,0.347422,0.021714,0.303994,280.000000,248.000000,32.000000,2.000000,0.000000,0.000000,0.434278,0.505390,0.347422,0.021714,0.303994,280.000000,248.000000,32.000000,2.000000,0.000000,0.000000:
0000
0000
0000
0000
,
0000
0000
0000
0000
,
0001
0010
1000
0000
0100
0000
0001
0000
,
1000
0100
0001
0000
0100
1000
0010
0000
,
0001
0010
1000
0000
0100
0000
0001
0000
,
1000
0100
0001
0000
0100
1000
0010
0000
,
0001
1000
0100
0001
,
1000
0100
0001
0000
0100
1000
0010
0000
,
0000
0000
0000
1000
0010
0000
0000
1010
0000
0000
0000
0000
0000
0000
0000
0000
,
0000
0000
0000
0001
0100
0000
0000
0101
0000
0000
0000
0000
0000
0000
0000
0000
,
0000
0000
0000
0100
0010
0000
0000
0110
0000
0000
0000
0000
0000
0000
0000
0000
,
0000
0000
0000
1000
0100
0000
0000
1100
0000
0000
0000
0000
0000
0000
0000
0000
,
0000
0000
0000
0001
0100
0000
0000
0101
0000
0000
0000
0000
0000
0000
0000
0000
,
0000
0000
0000
1000
0010
0000
0000
1010
0000
0000
0000
0000
0000
0000
0000
0000
,
0000
0000
0000
1000
0001
0000
0000
1001
0000
0000
0000
0000
0000
0000
0000
0000
,
0000
0000
0000
1000
0010
0000
0000
1010
0000
0000
0000
0000
0000
0000
0000
0000
,
1001
0000
0000
0001
1000
0000
0000
1001
0000
0000
1000
0000
0000
0000
0100
0000
,
0000
0000
0000
0010
0100
0000
0000
0110
0000
0000
0000
0000
0000
0000
0000
0000
,
0000
0000
0000
0010
1000
0000
0000
1001
0000
0000
1000
0000
0000
0000
1100
0000
,
0000
0000
0000
0100
0010
0000
0000
0110
0000
0000
0000
0000
0000
0000
0000
0000
,
0000
0000
0000
0010
0001
0000
0000
0011
0000
0000
0010
0000
0000
0000
0011
0000
,
0000
0000
0000
0010
0001
0000
0000
0011
0000
0000
0000
0000
0000
0000
0000
0000
,
0000
0000
0000
1000
0010
0000
0000
1010
0000
0000
0010
0000
0000
0000
1010
0000
,
0000
0000
0000
1000
0001
0000
0000
1001
0000
0000
0000
0000
1001
0000
0000
0000
,
0000
0000
1000
0100
0010
0000
0001
0000
1000
0000
0100
0000
0001
0000
0010
0000
,
1000
0000
0100
0010
0100
0000
1000
0000
0100
0000
0010
0000
1000
0000
0001
0000
,
1000
0000
1000
0100
0010
0000
0001
0000
0100
0000
0001
0000
1000
0000
0010
0000
,
1000
0000
0001
1000
0001
0000
1000
0000
0100
0000
0001
0000
0100
0000
1000
0000
,
0001
0000
1000
0001
1000
0000
0100
0000
0001
0000
1000
0000
0001
0000
0100
0000
,
0010
0000
0100
0010
0100
0000
0010
0000
1000
0000
0001
0000
1000
0000
0100
0000
,
0001
0000
0010
0100
1000
0000
0010
0000
1000
0000
0100
0000
0001
0000
1000
0000
,
0100
0000
0100
1000
0100
0000
1000
0000
0001
0000
0010
0000
0100
0000
0000
0000
,
0000
0000
0000
1000
0100
0000
0000
1100
0000
0000
0000
0000
0000
0000
0000
0000
,
0000
0000
0000
1000
0010
0000
0000
1010
0000
0000
0000
0000
0000
0000
0000
0000
,
0000
0000
0000
0100
0001
0000
0000
0101
0000
0000
0000
0000
0000
0000
0000
0000
,
0000
0000
0000
1000
0001
0000
0000
1001
0000
0000
0000
0000
0000
0000
0000
0000
,
0000
0000
0000
0100
0010
0000
0000
0110
0000
0000
0010
0000
0000
0000
1010
0000
,
0000
0000
0000
1000
0001
0000
0000
1001
0000
0000
0000
0000
0000
0000
0000
0000
,
0000
0000
0000
1000
0010
0000
0000
1010
0000
0000
0010
0000
0000
0000
1010
0000
,
0000
0000
0000
1000
0001
0000
0000
1001
0000
0000
0000
0000
0000
0000
0000
0000
,
1000
0100
0100
1000
0001
0010
0010
0001
,
0000
0000
0010
0001
0001
0010
0001
0010
,
0000
0000
0100
1000
1000
0100
1000
0100
,
0000
0010
0001
0100
0010
1000
0010
0100
,
1000
0001
1000
0100
1000
0100
1000
0001
,
1000
0010
1000
0100
1000
0001
1000
0010
,
1000
0100
0010
0001
1000
0100
0010
0001
,
1000
0100
0010
0001
1000
0100
0010
0001
,
2002
0000
0000
0000
,
3003
0000
0000
0000
;

//---------------dance-single - ----------------
#NOTES:
     dance-single:
     :
     Challenge:
     14:
     0.666926,0.864348,0.097712,0.010857,0.711129,430.000000,421.000000,9.000000,1.000000,0.000000,0.000000,0.666926,0.864348,0.097712,0.010857,0.711129,430.000000,421.000000,9.000000,1.000000,0.000000,0.000000:
0000
0000
0000
0000
,
0000
0000
0000
0000
,
1000
0100
1000
0100
1000
0000
1000
0000
0100
0000
0001
0000
1000
0000
0010
0000
,
0100
0001
1000
0100
0010
0001
1000
0100
,
0010
1000
0100
0001
1000
0001
0010
0001
,
1000
0100
0001
1000
0010
0001
1000
0100
,
0010
0001
1000
0100
1000
0001
1000
0100
,
0001
1000
0010
0001
0100
0001
1000
0100
,
0001
0000
0000
0000
0100
0001
0100
0001
0000
0000
1000
0000
0010
0000
0001
0000
,
1000
0000
0100
0000
1000
0100
1000
0100
0000
0000
0001
0000
1000
0000
0100
0000
,
0001
0000
1000
0000
1000
0001
1000
0001
0000
0000
0100
0000
0001
0000
1000
0000
,
0100
0000
0010
0000
1000
0100
1000
0010
0000
0000
1000
0000
0001
0000
0010
0000
,
0100
0000
1000
0000
1000
0010
1000
0100
0000
0000
0001
0000
1000
0000
0100
0000
,
0010
0000
1001
0000
1000
0100
0010
0001
0000
0000
0001
0000
1000
0000
0100
0000
,
0010
0000
0100
0000
0100
0010
0100
0010
0000
0000
1000
0000
0100
0000
0010
0000
,
0001
0000
1000
0000
1000
0100
0010
0001
0000
0000
0000
0000
0000
0000
0000
0000
,
1001
0000
0000
0000
1000
0010
1000
0010
0000
0000
0010
0000
0000
0000
1010
0000
,
0000
0000
0000
0000
0001
0010
0100
1000
0000
0000
1000
0000
0100
0000
0010
0000
,
1000
0000
0000
0000
1000
0100
0010
0001
0000
0000
0001
0000
0000
0000
0101
0000
,
0000
0000
0000
0000
0001
0010
0100
1000
0000
0000
0010
0000
0001
0000
1000
0000
,
0010
0000
0000
0000
0010
0001
0010
0100
0000
0000
0010
0000
0000
0000
0011
0000
,
0000
0000
0000
0000
0001
0010
0100
1000
0000
0000
0001
0000
1000
0000
0100
0000
,
0010
0000
1000
0000
1000
0010
1000
0010
0000
0000
1000
0000
0000
0000
1010
0000
,
0000
0000
0000
0000
1000
0100
0010
0001
0000
0000
0000
0000
1010
0000
0000
0000
,
0000
0000
0100
0000
0010
0000
1000
0001
1000
0001
1000
0001
1000
0001
1000
0100
,
1000
0100
1000
0000
1000
0000
1000
0100
1000
0100
1000
0100
1000
0100
1000
0100
,
1000
0001
1000
0000
1000
0000
1000
0010
1000
0010
1000
0010
1000
0010
1000
0010
,
1000
0100
1000
0000
1000
0000
1000
0100
1000
0100
0010
0001
1000
0000
0000
0000
,
0000
0000
0100
0000
0010
0000
0001
1000
0001
1000
0001
1000
0001
1000
0001
0100
,
0001
0100
0001
0000
0001
0000
0001
0100
0001
0100
0001
0100
0001
0100
0001
0100
,
0001
1000
0001
0000
0001
0000
0001
0010
0001
0010
0001
0010
0001
0010
0001
0010
,
0001
0100
0001
0000
0001
0000
0001
0100
0001
0100
0010
1000
0001
0000
1000
0000
,
0100
0000
0010
0000
0001
0100
0001
0100
0000
0000
1000
0000
0001
0000
1000
0000
,
0001
0000
1000
0000
1000
0100
1000
0100
0000
0000
0100
0000
1000
0000
0100
0000
,
1000
0000
0000
0100
1000
0100
1000
0100
1000
0100
1000
0000
1000
0100
1000
0000
,
1000
0100
0010
0000
0100
0001
0100
0000
0010
0100
0010
1000
0100
0010
0001
1000
,
0001
0000
0000
0000
1000
0010
1000
0010
0000
0000
1000
0000
0000
0000
1010
0000
,
0000
0000
0000
0000
1000
0100
0010
0001
0000
0000
1000
0000
0010
0000
1000
0000
,
0100
0000
0000
0000
1000
0100
1000
0010
0000
0000
1000
0000
0000
0000
1010
0000
,
0000
0000
0000
0000
1000
0100
0010
0001
0000
0000
1000
0000
0100
0000
1000
0000
,
0000
0000
0000
1000
0010
1000
0000
0000
0000
0000
0000
1000
0001
1000
0000
0000
,
0000
0000
0000
1000
0100
1000
0000
0000
0000
0000
0000
0010
0100
0010
0000
0000
,
0000
0000
0000
1000
0100
0010
0000
0000
0000
0000
0000
0010
0001
0010
0000
0000
,
0000
0000
0000
1000
0001
1000
0000
0000
0000
0000
0000
0100
0010
0001
0000
0000
,
1000
0001
1000
0100
0010
0001
1000
0100
,
0010
1000
0001
1000
0100
0001
1000
0001
,
0100
0001
0010
0100
1000
0010
1000
0100
1000
0010
0100
0001
1000
0100
0010
0001
,
0100
0010
0100
0010
1000
0001
0010
0100
1000
0001
1000
0010
1000
0100
0010
0001
,
0020
0030
0000
0000
;
