#TITLE:TWELVE;
#SUBTITLE:(True Fix);
#ARTIST:RIYU KOSAKA;
#TITLETRANSLIT:;
#SUBTITLETRANSLIT:;
#ARTISTTRANSLIT:;
#GENRE:;
#CREDIT:;
#BANNER:;
#BACKGROUND:;
#LYRICSPATH:;
#CDTITLE:;
#MUSIC:12.ogg;
#OFFSET:-0.120000;
#SAMPLESTART:55.499973;
#SAMPLELENGTH:12.000000;
#SELECTABLE:YES;
#BPMS:0.000000=154.100418
;
#STOPS:
;
#BGCHANGES:;
#KEYSOUNDS:;
#ATTACKS:;

//---------------dance-single - ----------------
#NOTES:
     dance-single:
     :
     Hard:
     12:
     0.509525,0.530322,0.166376,0.218368,0.228766,343.000000,327.000000,16.000000,21.000000,0.000000,0.000000,0.509525,0.530322,0.166376,0.218368,0.228766,343.000000,327.000000,16.000000,21.000000,0.000000,0.000000:
0000
0000
0000
0000
,
0000
0000
0000
0000
,
0000
0000
0000
0000
,
0000
0000
0000
0000
,
1000
0000
0000
1000
0000
0000
1000
0000
0000
0000
0000
0000
0000
0000
0000
0000
,
0001
0000
0000
0001
0000
0000
0001
0000
0000
0000
0000
0000
0000
0000
0000
0000
,
0100
0000
0000
0100
0000
0000
0100
0000
0000
0000
0000
0000
0000
0000
0000
0000
,
0010
0000
0000
0010
0000
0000
0010
0000
0000
0010
0000
0000
0010
0000
0010
0000
,
1001
0000
0000
0001
0000
0000
0100
0000
0001
0000
0000
0100
0000
0000
0010
0000
,
1000
0000
0000
0100
0000
0000
2000
0000
0000
0000
0000
0000
3000
0000
0001
0000
,
0100
0000
0000
0001
0000
0000
0100
0000
0010
0000
0000
1000
0000
0000
0100
0000
,
1000
0010
0100
0000
,
0001
0000
1000
0100
0000
0000
1000
0000
0001
0000
0100
0001
0000
0000
1000
0000
,
0100
0000
0000
1000
0000
0000
0100
0000
0010
0000
0000
0000
0000
0000
0001
0100
,
0010
0000
0100
0010
0000
0000
1000
0000
0100
0000
0000
1000
0000
0000
1000
0000
,
1001
0110
1001
0000
,
1000
0000
0000
1000
0000
0000
1000
0000
0001
0000
0000
0001
0000
0000
0001
0000
,
0100
0000
0000
0100
0000
0000
0100
0000
0020
0000
0000
0000
0130
0000
0000
0000
,
0001
0000
0000
0001
0000
0000
0001
0000
0100
0000
0000
0100
0000
0000
0100
0000
,
0010
0000
0000
0010
0000
0000
0010
0000
2000
0000
0000
0000
3100
0000
0000
0000
,
1000
0000
0000
0010
0000
0000
0100
0000
0001
0000
0000
0100
0000
0000
0010
0000
,
1000
0000
0000
0010
0000
0000
0100
0000
0002
0000
0000
0000
0013
0000
0000
0000
,
0001
0000
0000
1000
0000
0000
0010
0000
0100
0000
0000
0010
0000
0000
1000
0000
,
1100
0011
0101
0000
,
1000
0000
0000
1000
0000
0000
0010
0000
0200
0000
0000
0000
0300
0000
0000
0000
,
0001
0000
0000
0001
0000
0000
0100
0000
0020
0000
0000
0000
1030
0000
0000
0000
,
1000
0000
0000
0010
0000
0000
0100
0000
0002
0000
0000
0000
1003
0000
0000
0000
,
1000
0000
0000
0010
0000
0000
1000
0000
0100
0000
0000
0000
1000
0000
0000
0000
,
0001
0000
0000
0100
0000
0000
0010
0000
2000
0000
0000
0000
3010
0000
0010
0000
,
0100
0000
0000
0001
0000
0000
0010
0000
0002
0000
0000
0000
2003
0000
0000
0000
,
3100
1000
0100
1000
0010
1000
0010
1000
,
0010
0100
0001
0100
0010
0100
0001
0100
,
0001
0000
0000
1000
0000
0000
0001
0000
0100
0000
0000
0100
0000
0000
0100
0000
,
0010
0000
0000
0010
0000
0000
0010
0000
1000
0000
0000
1000
0000
0000
1000
0000
,
0001
0000
0000
0000
0000
0000
0000
0000
0000
0001
0000
0000
0000
0000
0000
0000
0000
0000
0001
0000
0000
0000
0000
0000
0100
0000
0000
0000
0000
0000
0000
0000
0100
0000
0000
0000
0000
0000
0000
0000
0100
0000
0000
0000
0000
0000
0000
0000
,
0200
0000
0000
0000
0300
0010
0100
0001
,
0100
0010
1000
0100
1000
0100
1000
0010
,
0100
0001
0100
0001
0100
0010
0100
0010
,
1000
0010
1000
0100
1000
0001
0100
0010
,
1000
0001
0100
0001
1000
0100
1000
0001
,
0100
0010
0100
0010
1000
0100
1000
0010
,
0100
0001
0100
0001
0010
0001
0100
0010
,
1000
0000
0000
1000
0000
0000
1000
0000
0001
0000
0000
0001
0000
0000
0001
0000
,
0100
0001
0100
0010
1000
0100
1000
0001
,
0102
1000
0100
1003
,
2010
0100
0010
3100
,
2010
0100
0001
3100
,
0102
0010
0100
1003
,
2001
3010
0102
1003
,
2010
3100
0012
0103
,
1000
0000
0000
1000
0000
0000
1000
0000
0001
0000
0000
0001
0000
0000
0001
0000
,
1000
0100
0010
0001
1000
0100
0010
0001
,
1000
0001
0100
0010
0100
0001
0100
0010
,
1000
0100
1000
0010
1000
0100
1000
0001
,
0100
0010
0100
0001
0100
0010
0100
0001
,
0010
0001
0010
0001
0100
0001
1000
0010
,
0100
0010
1000
0100
1000
0001
0100
0001
,
1000
0010
0100
0010
0100
0001
0100
0010
,
0000
1000
1000
1000
0000
0001
0001
0001
,
0000
0002
0000
0103
0020
0000
1030
0000
,
1001
0000
0000
0000
;

//---------------dance-single - ----------------
#NOTES:
     dance-single:
     :
     Medium:
     9:
     0.401084,0.530322,0.311954,0.353548,0.114383,270.000000,240.000000,30.000000,34.000000,0.000000,0.000000,0.401084,0.530322,0.311954,0.353548,0.114383,270.000000,240.000000,30.000000,34.000000,0.000000,0.000000:
0000
0000
0000
0000
,
0000
0000
0000
0000
,
0000
0000
0000
0000
,
0000
0000
0000
0000
,
1000
0000
0000
1000
0000
0000
1000
0000
0000
0000
0000
0000
0000
0000
0000
0000
,
0001
0000
0000
0001
0000
0000
0001
0000
0000
0000
0000
0000
0000
0000
0000
0000
,
0100
0000
0000
0100
0000
0000
0100
0000
0000
0000
0000
0000
0000
0000
0000
0000
,
0010
0000
0000
0010
0000
0000
0020
0000
0000
0000
0000
0000
0000
0000
0030
0000
,
1001
0000
0000
1000
0000
0000
1000
0000
2000
0000
0000
0000
3000
0000
0000
0000
,
0001
0000
0000
0001
0000
0000
0001
0000
0002
0000
0000
0000
0003
0000
0000
0000
,
0100
0000
0000
0100
0000
0000
0100
0000
0200
0000
0000
0000
0300
0000
0000
0000
,
0010
0000
0000
0010
0000
0000
0010
0000
0020
0000
0000
0000
0030
0000
0000
0000
,
1000
0000
0000
1000
0000
0000
1000
0000
0100
0000
0000
0100
0000
0000
0100
0000
,
0010
0000
0000
0010
0000
0000
0010
0000
0002
0000
0000
0000
0003
0000
0000
0000
,
2000
3002
0203
0320
,
0230
0302
2003
3100
,
1000
0000
0000
1000
0000
0000
1000
0000
0001
0000
0000
0001
0000
0000
0001
0000
,
2000
0000
3002
0000
,
0103
0000
0000
0100
0000
0000
0100
0000
0010
0000
0000
0010
0000
0000
0010
0000
,
0200
0000
0320
0000
,
1030
0000
0000
0010
0000
0000
1000
0000
0010
0000
0000
1000
0000
0000
0010
0000
,
2000
0000
3020
0000
,
0130
0000
0000
0001
0000
0000
0100
0000
0001
0000
0000
0100
0000
0000
0001
0000
,
0200
0000
0302
0000
,
2003
0100
0100
3100
,
0002
0100
0100
0100
,
2003
0010
0010
0010
,
3002
0010
0010
0013
,
2000
0010
0100
3010
,
0002
0100
0010
0100
,
2003
0010
0100
3001
,
0002
0100
0010
1003
,
0110
1001
0110
1001
,
0110
1001
0110
1001
,
1000
0000
0000
0000
0000
0000
0000
0000
0000
0001
0000
0000
0000
0000
0000
0000
0000
0000
0100
0000
0000
0000
0000
0000
0010
0000
0000
0000
0000
0000
0000
0000
0010
0000
0000
0000
0000
0000
0000
0000
0010
0000
0000
0000
0000
0000
0000
0000
,
0020
0000
0030
0000
,
1000
0001
1000
0000
0001
0100
0001
0000
,
0010
0001
0010
0000
0001
1000
0001
0000
,
1000
0010
1000
0000
0010
0100
0010
0000
,
1000
0001
1000
0000
0001
0100
0001
0000
,
0100
0010
0100
0000
0010
1000
0010
0000
,
0100
0001
0100
0000
0010
1000
0010
0000
,
2000
0000
3002
0000
,
0103
0010
0100
0001
,
1000
0101
0001
1100
,
1000
0101
0001
1100
,
1000
0110
0001
0110
,
1000
0110
0001
0110
,
1000
0001
0100
0000
0001
1000
0100
0000
,
1000
0001
0100
0000
0001
1000
0100
0000
,
2000
0000
3002
0000
,
0103
0010
0100
0001
0100
0010
0100
0001
,
1000
1010
0100
0101
,
0001
0011
0001
1001
,
1000
1010
0100
0110
,
0001
0101
1000
1010
,
1000
1100
0001
0101
,
0010
1010
0100
1001
,
0000
1000
0001
0100
0000
0001
1000
0100
,
0000
1000
0000
0001
0100
0000
0100
0000
,
1001
0000
0000
0000
;

//---------------dance-single - ----------------
#NOTES:
     dance-single:
     :
     Easy:
     6:
     0.334237,0.374345,0.436736,0.145579,0.010398,225.000000,183.000000,42.000000,14.000000,0.000000,0.000000,0.334237,0.374345,0.436736,0.145579,0.010398,225.000000,183.000000,42.000000,14.000000,0.000000,0.000000:
0000
0000
0000
0000
,
0000
0000
0000
0000
,
0000
0000
0000
0000
,
0000
0000
0000
0000
,
2000
0000
3000
0000
,
0002
0000
0003
0000
,
0200
0000
0300
0000
,
0020
0000
0030
0000
,
1000
1000
0100
1000
,
0001
0001
0100
0001
,
1000
0010
1000
0100
,
1000
0010
0100
0001
,
0100
0010
0100
0001
,
1000
0100
1000
0010
,
0100
0001
1000
0010
,
0100
0002
0200
0303
,
1001
0000
1100
0000
,
1010
0000
0101
0000
,
0011
0000
0101
0000
,
0110
0000
1001
0000
,
1100
0000
1010
0000
,
1100
0000
1001
0000
,
0101
0000
0110
0000
,
1001
0000
0011
0000
,
1001
1000
0001
0100
,
0010
0100
0001
1000
,
0100
1000
0010
0100
,
0001
0100
0010
1000
,
0100
1000
0001
0100
,
0001
0100
0010
1000
,
0010
1000
0100
1000
,
0010
0100
0001
0100
,
1001
0000
0110
0000
,
1001
0000
0110
0000
,
1000
0000
0000
0001
0000
0000
0100
0000
0100
0000
0100
0000
,
0200
0000
0300
0000
,
0101
0001
1000
0100
,
1100
1000
0010
0100
,
0101
0010
1000
0010
,
1100
1000
0010
0100
,
0011
0001
0100
0010
,
1010
1000
0100
1000
,
0011
0100
0001
0100
,
1010
0100
0010
0001
,
1001
0100
1000
0100
,
1001
0100
0001
0100
,
1001
0010
1000
0100
,
1001
0010
0001
0100
,
1001
1000
0001
0100
,
1001
0001
1000
0100
,
2000
0000
3002
0000
,
0203
0000
0010
0301
,
0101
0010
1000
0010
,
1100
1000
0001
0100
,
1001
0001
0100
0010
,
1010
0100
0010
1000
,
1100
0001
0100
0010
,
0101
0010
1000
0100
,
2000
3000
0002
0003
,
0200
0300
0020
0030
,
1001
0000
0000
0000
;

//---------------dance-single - ----------------
#NOTES:
     dance-single:
     :
     Beginner:
     3:
     0.161919,0.187172,0.051992,0.010398,0.000000,109.000000,104.000000,5.000000,1.000000,0.000000,0.000000,0.161919,0.187172,0.051992,0.010398,0.000000,109.000000,104.000000,5.000000,1.000000,0.000000,0.000000:
// measure 0
0000
0000
0000
0000
,  // measure 1
0000
0000
0000
0000
,  // measure 2
0000
0000
0000
0000
,  // measure 3
0000
0000
0000
0000
,  // measure 4
1000
1000
0000
0000
,  // measure 5
0001
0001
0000
0000
,  // measure 6
0100
0100
0000
0000
,  // measure 7
0010
0010
0000
0000
,  // measure 8
1000
1000
0000
0000
,  // measure 9
0001
0001
0000
0000
,  // measure 10
1000
0000
0001
0000
,  // measure 11
1000
0000
0100
0000
,  // measure 12
0010
0000
0100
0000
,  // measure 13
1000
0000
0001
0000
,  // measure 14
0100
0000
0001
0000
,  // measure 15
0100
0000
0000
0000
,  // measure 16
1001
0000
0000
0000
,  // measure 17
1001
0000
0000
0000
,  // measure 18
1001
0000
0000
0000
,  // measure 19
1001
0000
0000
0000
,  // measure 20
1000
0000
0000
0000
,  // measure 21
0100
0000
0000
0000
,  // measure 22
0010
0000
0000
0000
,  // measure 23
0001
0000
0000
0000
,  // measure 24
1000
0000
0001
0000
,  // measure 25
0010
0000
0001
0000
,  // measure 26
1000
0000
0010
0000
,  // measure 27
1000
0000
0010
0000
,  // measure 28
0100
0000
1000
0000
,  // measure 29
0001
0000
0010
0000
,  // measure 30
1000
0000
0100
0000
,  // measure 31
0010
0000
0001
0000
,  // measure 32
0100
0000
0100
0000
,  // measure 33
0100
0000
0100
0000
,  // measure 34
0100
0000
0100
0100
,  // measure 35
0200
0000
0300
0000
,  // measure 36
0001
0000
1000
0000
,  // measure 37
1000
0000
0010
0000
,  // measure 38
0001
0000
1000
0000
,  // measure 39
0100
0000
0010
0000
,  // measure 40
0001
0000
0100
0000
,  // measure 41
1000
0000
0100
0000
,  // measure 42
0001
0000
0001
0000
,  // measure 43
1000
0000
0010
0000
,  // measure 44
1000
0000
1000
0000
,  // measure 45
0001
0000
0001
0000
,  // measure 46
0100
0000
1000
0000
,  // measure 47
0010
0000
0001
0000
,  // measure 48
1000
0000
0001
0000
,  // measure 49
0001
0000
1000
0000
,  // measure 50
1000
0000
0001
0000
,  // measure 51
0100
0000
0010
0000
,  // measure 52
0001
0000
1000
0000
,  // measure 53
1000
0000
0001
0000
,  // measure 54
0001
0000
0100
0000
,  // measure 55
1000
0000
0010
0000
,  // measure 56
1000
0000
0100
0000
,  // measure 57
0001
0000
1000
0000
,  // measure 58
1000
0000
0001
0000
,  // measure 59
0100
0000
0010
0000
,  // measure 60
1001
0000
0000
0000
;
