#TITLE:TSUGARU 180;
#SUBTITLE:;
#ARTIST:RevenG & DE-SIRE vs Vospi;
#TITLETRANSLIT:;
#SUBTITLETRANSLIT:;
#ARTISTTRANSLIT:;
#GENRE:;
#CREDIT:;
#BANNER:;
#BACKGROUND:Tsugaru 180-bg.png;
#LYRICSPATH:;
#CDTITLE:;
#MUSIC:Tsugaru 180.mp3;
#OFFSET:-0.070005;
#SAMPLESTART:26.723034;
#SAMPLELENGTH:18.000000;
#SELECTABLE:YES;
#BPMS:0.000000=180.000000
,176.000000=90.000000
,192.000000=180.000000
;
#STOPS:
;
#BGCHANGES:
;
#KEYSOUNDS:;
#ATTACKS:;

//---------------dance-single - ----------------
#NOTES:
     dance-single:
     :
     Hard:
     14:
     0.639933,0.747680,0.042260,0.177491,0.642348,530.000000,525.000000,5.000000,21.000000,0.000000,0.000000,0.639933,0.747680,0.042260,0.177491,0.642348,530.000000,525.000000,5.000000,21.000000,0.000000,0.000000:
0000
0000
0000
0000
,
0000
0000
0000
0000
,
0000
0000
0000
0000
,
0000
0000
0000
0000
,
0000
0000
0000
0000
,
0000
0000
0000
0000
,
0000
0000
0000
0000
,
0000
0000
0000
0000
,
1001
0000
0000
1000
0001
0000
0000
0000
0100
0000
0000
0000
0001
0000
0000
1000
,
0001
1000
0010
1000
0010
1000
0100
1000
,
0010
0000
0000
1000
0100
0000
0000
0000
1000
0000
0000
0000
0010
0000
0000
0100
,
0001
0100
0010
1000
0010
0100
0001
1000
,
0010
0000
0000
1000
0100
0000
0000
0000
1000
0000
0000
0000
0010
0000
0000
0100
,
0001
1000
0100
1000
0010
0100
0010
1000
,
0001
0000
0000
0100
0010
0000
0000
0000
0010
0000
0000
0000
0100
0000
0000
0001
,
0100
0010
1000
0100
1000
0001
0100
0001
,
2001
0000
3001
0100
0002
0000
1003
0000
,
0010
0100
0020
0000
2030
0000
3002
0000
,
1003
0000
0100
1000
0100
0000
2000
0000
,
3010
0100
0001
0000
1010
0000
0101
0000
,
1001
0000
0000
1000
0001
0000
0000
0000
0100
0000
0000
0000
0001
0000
0000
1000
,
0001
1000
0010
1000
0010
1000
0100
1000
,
0010
0000
0000
1000
0100
0000
0000
0000
1000
0000
0000
0000
0010
0000
0000
0100
,
0001
0100
0010
1000
0010
0100
0001
1000
,
0010
0000
0000
1000
0100
0000
0000
0000
1000
0000
0000
0000
0010
0000
0000
0100
,
0001
1000
0100
1000
0010
0100
0010
1000
,
0001
0000
0000
0100
0010
0000
0000
0000
0010
0000
0000
0000
0100
0000
0000
0002
,
2000
0000
0000
3003
,
1000
0100
1000
0100
1000
0100
1000
0100
,
0001
0100
0001
0100
0001
0100
0001
0100
,
1000
0100
1000
0100
0001
0100
0001
0100
,
1000
0100
1000
0100
0001
0100
0001
0100
,
1000
0100
0001
0100
1000
0100
0001
0100
,
1000
0010
0001
0010
1000
0010
0001
0010
,
1000
0100
0001
0100
1000
0010
0001
0010
,
1000
0100
0001
0100
1000
0010
0001
0010
,
1000
0000
1000
0001
0000
0001
0100
0000
0100
0010
0000
0010
,
1000
0000
1000
0100
0000
0100
0010
0000
0010
0001
0000
0001
,
1000
0000
1000
0010
0000
0010
0100
0000
0100
0001
0000
0001
,
0100
0000
0100
0010
0000
0010
1000
0000
1000
0100
0000
0100
,
1000
0000
1000
0010
0000
0010
0100
0000
0100
0001
0000
0001
,
1000
0000
1000
0100
0000
0100
0010
0000
0010
0001
0000
0001
,
1000
0001
0100
0001
1000
0010
1000
0100
1000
0010
0100
0002
,
2000
0000
0000
3003
,
0001
0000
0000
1000
0001
0000
0000
0000
1000
0000
0000
0000
0010
0000
0000
0100
0001
0000
0000
0000
0000
0000
0000
0000
1000
0000
0000
1000
0000
0000
1000
0000
,
0001
0000
0000
0001
0100
0000
0000
0000
0100
0000
0000
0000
0010
0000
0000
0010
1000
0000
0000
0000
0000
0000
0000
0000
0001
0000
0000
0001
0000
0000
0001
0000
,
0100
0000
0000
0010
0100
0000
0000
0000
0010
0000
0000
0000
1000
0000
0000
0100
1000
0000
0000
0000
0000
0000
0000
0000
0010
0000
0000
0010
0000
0000
0010
0000
,
0200
0000
0000
0000
0000
0000
0000
0000
0000
0000
0000
0000
0310
0000
0100
0010
0000
1000
0100
0000
1000
0001
0100
0010
,
2000
0000
0000
0000
,
3002
0000
0000
0000
,
0203
0000
0000
0000
,
0320
0000
0000
0000
,
2030
0000
0000
0000
,
3200
0000
0000
0000
,
0320
0000
0000
0000
,
0032
0000
0000
0000
,
1003
0001
0100
0001
1000
0010
1000
0100
,
1000
0010
0100
0010
1000
0100
1000
0100
,
1000
0010
0100
0010
0100
0001
0100
0001
,
0010
0001
0100
0001
0010
0001
1000
0010
,
1000
0100
1000
0010
0100
0010
1000
0100
,
0010
0100
1000
0010
0100
0010
1000
0100
,
0010
0100
1000
0100
0010
0001
0010
0100
,
1000
0000
1000
0001
0000
0001
1000
0000
1000
0010
0100
0001
,
1000
0000
1000
0100
0000
0100
1000
0000
1000
0010
0000
0010
,
0100
0000
0100
0001
0000
0001
0100
0000
0100
0010
0000
0010
,
1000
0000
1000
0100
0000
0100
1000
0000
1000
0010
0000
0010
,
0100
0000
0100
0010
0000
0010
1000
0000
1000
0100
0000
0100
,
1000
0000
1000
0001
0000
0001
0100
0000
0100
0010
0000
0010
,
0100
0000
0100
0001
0000
0001
0010
0000
0010
0001
0000
0001
,
0100
0000
0100
0010
0000
0010
1000
0000
1000
0100
0000
0100
,
1000
0000
1000
0010
0000
0010
0100
0000
0100
0001
0000
0001
,
0100
0000
0001
1000
0000
0010
0100
0000
0001
1000
0000
0100
,
1000
0000
0010
0100
0000
0001
0100
0000
0010
1000
0000
0100
,
1000
0000
0010
0100
0000
0001
0100
0000
0010
0100
0000
0010
,
1000
0000
0100
1000
0000
0001
0100
0000
0001
0010
0000
0001
,
1000
0000
0100
1000
0000
0001
0100
0000
0010
1000
0000
0100
,
1000
0000
0001
1000
0000
0010
0100
0000
0001
0100
0000
0010
,
0100
0000
0010
1000
0000
0100
1000
0000
0010
0100
0000
0001
,
0010
0000
0001
0100
0000
0010
1000
0000
0100
1000
0000
0010
,
0100
0000
0010
0100
0000
0001
0100
0000
0001
0010
0000
0001
,
0100
0000
0010
1000
0000
0100
1000
0000
0010
1000
0000
0001
,
0100
0000
0010
1000
0000
0100
1000
0000
0010
0100
0000
0001
,
1000
0100
1000
0010
0100
0001
0100
0010
2000
0002
0000
0000
,
0000
3003
0000
0000
;

//---------------dance-single - ----------------
#NOTES:
     dance-single:
     :
     Medium:
     12:
     0.447953,0.569661,0.152135,0.143683,0.253558,371.000000,353.000000,18.000000,17.000000,0.000000,0.000000,0.447953,0.569661,0.152135,0.143683,0.253558,371.000000,353.000000,18.000000,17.000000,0.000000,0.000000:
0000
0000
0000
0000
,
0000
0000
0000
0000
,
0000
0000
0000
0000
,
0000
0000
0000
0000
,
0000
0000
0000
0000
,
0000
0000
0000
0000
,
0000
0000
0000
0000
,
0000
0000
0000
0000
,
1000
1000
1000
1000
,
0001
0000
0000
0000
0001
0000
0000
0000
1000
0000
0000
0001
0000
0000
1000
0000
,
0001
0001
0001
0001
,
1000
0000
0000
0000
1000
0000
0000
0000
0001
0000
0000
1000
0000
0000
0001
0000
,
0100
0100
0100
0100
,
0010
0000
0000
0000
0010
0000
0000
0000
0100
0000
0000
0010
0000
0000
0100
0000
,
0010
0010
0010
0010
,
0100
0000
0000
0000
0100
0000
0000
0000
0010
0000
0000
0100
0000
0000
0010
0000
,
0200
0010
0000
0010
,
0320
0100
0000
0100
,
2030
0001
0000
0001
,
3002
1000
0000
1000
,
1003
0100
1000
0001
,
0010
0000
0000
0000
0001
0000
0000
0000
0100
0000
0000
0010
0000
0000
1000
0000
,
0010
0010
0100
0001
,
0010
0000
0000
0000
0001
0000
0000
0000
0010
0000
0000
0001
0000
0000
1000
0000
,
0001
1000
0001
0001
,
1000
0000
0000
0000
0010
0000
0000
0000
1000
0000
0000
0010
0000
0000
1000
0000
,
0010
0100
0001
0010
,
2002
0000
0000
3003
,
1000
0000
0100
0000
0010
0001
0100
0000
,
0001
0000
0010
0000
0100
1000
0010
0000
,
1000
0000
0100
0000
0010
0001
0100
0000
,
0001
0000
0010
0000
0100
1000
0010
0000
,
1100
0000
0110
0000
0010
0001
0100
0000
,
0011
0000
0110
0000
0100
1000
0010
0000
,
1001
0000
1100
0000
0010
0001
0100
0000
,
1001
0000
0011
0000
0100
1000
0010
0000
,
1000
0000
0000
1000
0000
0000
1000
0000
1000
0010
0000
0010
,
0100
0000
0000
0100
0000
0000
0100
0000
0100
0001
0000
0001
,
0010
0000
0000
0010
0000
0000
0001
0000
0001
1000
0000
1000
,
0010
0000
0000
0010
0000
0000
0010
0000
0010
0100
0000
0100
,
0001
0000
0000
0001
0000
0000
1000
0000
1000
0010
0000
0010
,
1000
0000
0000
1000
0000
0000
0010
0000
0010
0100
0000
0100
,
0001
0000
0000
0001
0000
0000
0001
0000
0001
1000
0000
1000
,
0200
0000
0000
0300
,
1000
1000
0001
0001
0100
0000
0100
0000
,
0010
0010
0100
0100
0001
0000
0001
0000
,
1000
1000
0010
0010
0100
0000
0100
0000
,
0001
0000
1000
0000
0100
0010
0001
1000
,
0002
0000
0000
0000
,
2003
0000
0000
0000
,
3020
0000
0000
0000
,
0230
0000
0000
0000
,
0302
0000
0000
0000
,
0203
0000
0000
0000
,
0320
0000
0000
0000
,
2030
0000
0000
0000
,
3001
0000
0010
0000
0100
1000
0010
0000
,
1000
0000
0100
0000
0010
0001
0100
0000
,
0001
0000
0010
0000
0100
1000
0010
0000
,
1000
0000
0100
0000
0010
0001
0100
0000
,
1001
0000
0101
0000
0010
0001
0100
0000
,
1001
0000
1100
0000
0100
1000
0010
0000
,
1001
0000
1100
0000
0010
0001
0100
0000
,
0001
0000
0000
1000
0000
0000
0001
0000
0000
0001
0000
0001
,
1000
0000
0000
1000
0000
0000
1000
0000
1000
0010
0000
0010
,
0100
0000
0000
0100
0000
0000
0100
0000
0100
0001
0000
0001
,
0010
0000
0000
0010
0000
0000
0001
0000
0001
1000
0000
1000
,
0010
0000
0000
0010
0000
0000
0010
0000
0010
0100
0000
0100
,
0001
0000
0000
0001
0000
0000
1000
0000
1000
0010
0000
0010
,
1000
0000
0000
1000
0000
0000
0010
0000
0010
0100
0000
0100
,
0001
0000
0000
0001
0000
0000
0001
0000
0001
1000
0000
1000
,
0010
0000
0000
0100
0000
0000
0010
0000
0010
1000
0000
1000
,
0001
0000
0000
1000
0000
0000
1000
0000
1000
0010
0000
0010
,
0100
0000
0000
0100
0000
0000
0100
0000
0100
0001
0000
0001
,
0010
0000
0000
0010
0000
0000
0001
0000
0001
1000
0000
1000
,
0010
0000
0000
0010
0000
0000
0010
0000
0010
0100
0000
0100
,
0001
0000
0000
0001
0000
0000
1000
0000
1000
0010
0000
0010
,
1000
0000
0000
1000
0000
0000
0010
0000
0010
0100
0000
0100
,
0001
0000
0000
0001
0000
0000
0001
0000
1000
0001
0000
0001
,
1000
0000
0000
1000
0000
0000
1000
0000
1000
0010
0000
0010
,
0100
0000
0000
0100
0000
0000
0100
0000
0100
0001
0000
0001
,
0010
0000
0000
0010
0000
0000
0001
0000
0001
1000
0000
1000
,
0010
0000
0000
0010
0000
0000
0010
0000
0010
0100
0000
0100
,
0001
1001
0110
2002
,
0000
3003
0000
0000
;

//---------------dance-single - ----------------
#NOTES:
     dance-single:
     :
     Beginner:
     3:
     0.164209,0.249227,0.025356,0.076067,0.000000,136.000000,133.000000,3.000000,9.000000,0.000000,0.000000,0.164209,0.249227,0.025356,0.076067,0.000000,136.000000,133.000000,3.000000,9.000000,0.000000,0.000000:
// measure 0
0000
0000
0000
0000
,  // measure 1
0000
0000
0000
0000
,  // measure 2
0000
0000
0000
0000
,  // measure 3
0000
0000
0000
0000
,  // measure 4
0000
0000
0000
0000
,  // measure 5
0000
0000
0000
0000
,  // measure 6
0000
0000
0000
0000
,  // measure 7
0000
0000
0000
0000
,  // measure 8
1000
1000
1000
0000
,  // measure 9
0001
0001
0001
0000
,  // measure 10
1000
1000
0000
0000
,  // measure 11
0001
0001
0000
0000
,  // measure 12
0100
0100
0100
0000
,  // measure 13
0010
0010
0010
0000
,  // measure 14
0100
0100
0000
0000
,  // measure 15
0010
0010
0000
0000
,  // measure 16
1000
0000
0100
0000
,  // measure 17
0001
0000
0010
0000
,  // measure 18
0001
0000
0100
0000
,  // measure 19
1000
0000
0010
0000
,  // measure 20
1001
0000
0001
0000
,  // measure 21
1000
0000
0001
0000
,  // measure 22
1001
0000
1000
0000
,  // measure 23
0001
0000
1000
0000
,  // measure 24
1001
0000
0100
0000
,  // measure 25
0001
0000
1000
0000
,  // measure 26
0010
0000
0100
0000
,  // measure 27
0010
0000
0000
0000
,  // measure 28
2000
3000
0000
0000
,  // measure 29
0020
0030
0000
0000
,  // measure 30
0002
0003
0000
0000
,  // measure 31
0200
0300
0000
0000
,  // measure 32
0002
0003
0000
0000
,  // measure 33
0200
0300
0000
0000
,  // measure 34
2000
3000
0000
0000
,  // measure 35
0002
0003
0000
0000
,  // measure 36
0001
0000
0000
0000
,  // measure 37
0001
0000
0000
0000
,  // measure 38
0010
0000
0000
0000
,  // measure 39
0001
0000
0000
0000
,  // measure 40
1000
0000
0000
0000
,  // measure 41
1000
0000
0000
0000
,  // measure 42
0100
0000
0000
0000
,  // measure 43
0100
0000
0000
0000
,  // measure 44
1000
0000
0100
0000
,  // measure 45
1000
0000
0100
0000
,  // measure 46
0010
0000
0001
0000
,  // measure 47
0010
0000
0001
0000
,  // measure 48
1000
0000
0000
0000
,  // measure 49
0001
0000
0000
0000
,  // measure 50
0100
0000
0000
0000
,  // measure 51
0010
0000
0000
0000
,  // measure 52
1000
0000
0000
0000
,  // measure 53
0001
0000
0000
0000
,  // measure 54
0100
0000
0000
0000
,  // measure 55
0010
0000
0000
0000
,  // measure 56
1000
1000
0000
0000
,  // measure 57
0001
0001
0000
0000
,  // measure 58
1000
1000
0000
0000
,  // measure 59
0001
0001
0000
0000
,  // measure 60
1000
1000
0000
0000
,  // measure 61
1000
1000
0000
0000
,  // measure 62
0001
0001
0000
0000
,  // measure 63
0001
0001
0000
0000
,  // measure 64
1000
0000
0100
0000
,  // measure 65
1000
0000
0100
0000
,  // measure 66
1000
0000
0010
0000
,  // measure 67
1000
0000
0010
0000
,  // measure 68
0001
0000
0010
0000
,  // measure 69
0001
0000
0010
0000
,  // measure 70
0001
0000
0100
0000
,  // measure 71
0001
0000
0100
0000
,  // measure 72
0001
0000
1000
0000
,  // measure 73
0001
0000
1000
0000
,  // measure 74
0010
0000
0100
0000
,  // measure 75
0010
0000
0100
0000
,  // measure 76
0001
0000
1000
0000
,  // measure 77
0001
0000
1000
0000
,  // measure 78
1000
0000
0001
0000
,  // measure 79
1000
0000
0001
0000
,  // measure 80
0010
0000
0010
0000
,  // measure 81
0001
0000
0001
0000
,  // measure 82
0001
0000
1000
0000
,  // measure 83
0001
0001
0001
0002
,  // measure 84
0000
0003
0000
0000
;

//---------------dance-single - ----------------
#NOTES:
     dance-single:
     :
     Easy:
     7:
     0.335663,0.462849,0.160587,0.152135,0.000000,278.000000,259.000000,19.000000,18.000000,0.000000,0.000000,0.335663,0.462849,0.160587,0.152135,0.000000,278.000000,259.000000,19.000000,18.000000,0.000000,0.000000:
// measure 0
0000
0000
0000
0000
,  // measure 1
0000
0000
0000
0000
,  // measure 2
0000
0000
0000
0000
,  // measure 3
0000
0000
0000
0000
,  // measure 4
0000
0000
0000
0000
,  // measure 5
0000
0000
0000
0000
,  // measure 6
0000
0000
0000
0000
,  // measure 7
0000
0000
0000
0000
,  // measure 8
1000
1000
1000
1000
,  // measure 9
0001
0001
1000
1000
,  // measure 10
0001
0001
0001
0001
,  // measure 11
1000
1000
0001
0001
,  // measure 12
0100
0100
0100
0100
,  // measure 13
0010
0010
0100
0100
,  // measure 14
0010
0010
0010
0010
,  // measure 15
0100
0100
0010
0010
,  // measure 16
0200
0010
0000
0010
,  // measure 17
0320
0100
0000
0100
,  // measure 18
2030
0001
0000
0001
,  // measure 19
3002
1000
0000
1000
,  // measure 20
1003
0100
1000
0001
,  // measure 21
0010
0001
0100
1001
,  // measure 22
0010
0010
0100
0001
,  // measure 23
0010
0001
0010
1001
,  // measure 24
0001
1000
0001
0001
,  // measure 25
1000
0010
1000
1001
,  // measure 26
0010
0100
0001
0010
,  // measure 27
2002
0000
0000
3003
,  // measure 28
1000
0100
0010
0100
,  // measure 29
1000
0010
0100
0010
,  // measure 30
1000
0100
0010
0001
,  // measure 31
0001
0010
0100
1000
,  // measure 32
1000
0010
0100
0001
,  // measure 33
0010
0100
1000
0010
,  // measure 34
1000
0100
0010
0100
,  // measure 35
1000
0001
0100
0010
,  // measure 36
1000
0000
1000
0000
,  // measure 37
0001
0000
0001
0000
,  // measure 38
0010
0000
0010
0000
,  // measure 39
0100
0000
0100
1001
,  // measure 40
0001
0000
0001
0000
,  // measure 41
1000
0000
1000
0000
,  // measure 42
0010
0000
0010
0000
,  // measure 43
2002
0000
0000
3003
,  // measure 44
1000
0001
0100
0100
,  // measure 45
0010
0100
0001
0001
,  // measure 46
1000
0010
0100
0100
,  // measure 47
0001
0000
1000
0000
0100
0100
0010
0010
,  // measure 48
0002
0000
0000
0000
,  // measure 49
2003
0000
0000
0000
,  // measure 50
3020
0000
0000
0000
,  // measure 51
0230
0000
0000
0000
,  // measure 52
0302
0000
0000
0000
,  // measure 53
0203
0000
0000
0000
,  // measure 54
0320
0000
0000
0000
,  // measure 55
2030
0000
0000
0000
,  // measure 56
3001
0010
0100
1000
,  // measure 57
1000
0100
0010
0100
,  // measure 58
1000
0010
0100
0010
,  // measure 59
1000
0100
0010
0100
,  // measure 60
1000
0001
0010
0100
,  // measure 61
1000
0100
0010
0001
,  // measure 62
1000
0100
0010
0001
,  // measure 63
1000
1000
0001
0001
,  // measure 64
1000
1000
0001
0001
,  // measure 65
0100
0100
0100
1001
,  // measure 66
0001
0001
1000
1000
,  // measure 67
0100
0100
0100
1001
,  // measure 68
1000
1000
1000
1000
,  // measure 69
0001
0001
0001
0110
,  // measure 70
0001
0001
0001
0001
,  // measure 71
1000
1000
1000
0110
,  // measure 72
1000
1000
0010
0010
,  // measure 73
0100
0100
0001
0001
,  // measure 74
1000
1000
0100
0100
,  // measure 75
0010
0010
0001
0001
,  // measure 76
1000
1000
0001
1001
,  // measure 77
0001
0001
1000
1001
,  // measure 78
1000
0010
0100
1001
,  // measure 79
0001
0100
0010
1001
,  // measure 80
1000
0100
1000
0110
,  // measure 81
0001
0100
0001
0110
,  // measure 82
1000
0010
0100
0001
,  // measure 83
0100
1001
0110
2002
,  // measure 84
0000
3003
0000
0000
;
