#TITLE:TSUGARU (APPLE MIX);
#SUBTITLE:;
#ARTIST:RevenG vs DE-SIRE;
#TITLETRANSLIT:;
#SUBTITLETRANSLIT:;
#ARTISTTRANSLIT:;
#GENRE:Hard Techno;
#CREDIT:;
#BANNER:TSUGARU(APPLE MIX).png;
#BACKGROUND:TSUGARU(APPLE MIX)-bg.png;
#LYRICSPATH:;
#CDTITLE:;
#MUSIC:TSUGARU(APPLE MIX).ogg;
#OFFSET:-0.010577;
#SAMPLESTART:20.367001;
#SAMPLELENGTH:15.000000;
#SELECTABLE:YES;
#DISPLAYBPM:165.000000;
#BPMS:0.000000=165.138000
,4.000000=164.994003
,236.000000=155.843994
,240.000000=130.908997
,244.000000=126.761002
,246.000000=111.111000
,247.000000=92.783997
,248.000000=80.899002
;
#STOPS:
;
#BGCHANGES:;
#KEYSOUNDS:;
#ATTACKS:;

//---------------dance-single - ----------------
#NOTES:
     dance-single:
     :
     Hard:
     11:
     0.560551,0.594146,0.180285,0.074235,0.334058,370.000000,353.000000,17.000000,7.000000,0.000000,0.000000,0.560551,0.594146,0.180285,0.074235,0.334058,370.000000,353.000000,17.000000,7.000000,0.000000,0.000000:
0000
0000
0000
0000
,
0000
0000
0000
0000
,
0000
0000
0000
0000
,
0000
0000
0000
0000
,
0000
0000
0000
0000
,
1000
1000
1000
1000
,
1000
0000
1000
0000
1000
0000
1000
0001
,
0001
0001
0001
0001
,
0001
0000
0001
0000
0001
0000
0001
0010
,
0010
0010
0010
0010
,
0010
0000
0010
0000
0010
0000
0100
1000
,
0001
0000
0010
0010
0010
0000
0100
0001
,
1000
0000
0010
0100
0010
0000
0100
1000
,
0001
0000
0010
0100
0010
0000
0010
0010
,
0010
0100
0001
1000
0001
0000
0001
0001
,
0100
0010
1000
0001
1000
0000
1000
1000
,
0000
1000
1000
0100
0010
0001
0010
0010
,
0010
0010
0001
0001
1000
0100
0100
0100
,
1000
0010
0001
0010
1000
0001
1000
1000
,
1000
0100
0001
0100
1000
0001
1000
1000
,
0100
0010
0001
0100
0010
1000
0001
0001
,
0010
0100
1000
0001
0100
0010
1000
1000
,
0001
0100
1000
0100
,
0001
0010
1000
0010
,
0001
0100
1000
0100
,
0010
0000
0000
0010
1000
0000
0000
1000
0001
0000
0000
0001
0100
0000
0000
0100
,
0010
0000
0000
0010
1000
0000
0000
1000
0001
0000
0000
0001
0100
0000
0000
0100
,
0010
0000
0000
0010
1000
0000
0000
1000
0001
0000
0000
0001
0100
0000
0000
0100
,
0010
0000
0000
0010
1000
0000
0000
1000
0001
0000
0000
0001
0100
0000
0000
0100
,
0010
0000
0000
0010
1000
0000
0000
1000
0100
0000
0000
0100
0010
0000
0000
0010
,
0001
0000
0000
0001
0100
0000
0000
0100
0010
0000
0000
0010
1000
0000
0000
1000
,
0010
0000
0000
0010
1000
0000
0000
1000
0100
0000
0000
0100
0010
0000
0000
0010
,
0001
0000
0000
0001
0100
0000
0000
0100
0010
0000
0000
0010
1000
0000
0000
1000
,
0010
0000
0000
1000
0100
0000
0000
0000
0010
0000
0000
0001
0100
0000
0000
0000
,
0001
0000
0000
0010
0100
0000
0000
0000
1000
0000
0000
0010
0100
0000
0000
0000
,
0010
0000
0000
0001
0100
0000
0000
0000
0010
0000
0000
1000
0100
0000
0000
0000
,
1000
0000
0000
0100
0010
0000
0000
0000
0001
0000
0000
0100
0010
0000
0000
0000
,
1000
0000
0000
0001
1000
0000
0000
0000
1001
0000
0000
0000
0001
0000
0000
0000
,
0010
0000
0000
0100
0010
0000
0000
0000
0110
0000
0000
0000
0100
0000
0000
0000
,
0010
0000
0000
1000
0010
0000
0000
0000
0100
0000
0000
0001
0100
0000
0000
0000
,
1000
0000
0000
0001
1000
0000
0000
0000
1001
0000
0000
0000
0000
0000
0000
0000
,
1000
0001
0001
0000
1000
1000
0001
0010
,
0100
0010
0000
0100
0010
0100
0000
1000
,
0001
0000
0010
0010
0010
0001
1000
0100
,
0010
1000
0010
0100
0001
0100
0001
1000
,
0001
0100
0001
1000
0010
1000
0010
0000
,
1000
0100
1000
0001
0010
0001
0010
0000
,
0001
1000
0001
0100
0010
0100
0010
0000
,
1000
0001
1000
0100
0010
0100
0010
0000
,
0001
0000
0000
0001
0000
0000
0001
0000
,
0001
0000
0000
0001
1000
0000
0000
1000
0100
0000
0000
0100
0010
0000
0000
0000
,
0011
0000
0000
0000
1100
0000
0000
0000
0101
0000
0000
0000
1010
0000
0000
1000
,
0001
0000
0000
0001
1000
0000
0000
1000
0010
0000
0000
0010
0100
0000
0000
0100
,
0001
0010
0100
1000
0010
0100
0001
1000
,
0001
0000
0000
0001
1000
0000
0000
1000
0100
0000
0000
0100
0010
0000
0000
0010
,
0001
0000
0000
0000
1100
0000
0000
0000
0010
0000
0000
0000
0101
0000
0000
0100
,
0001
0000
0000
0001
0010
0000
0000
0010
0100
0000
0000
0100
1000
0000
0000
1000
,
0010
0000
0101
0000
1100
0000
0000
1001
,
0000
1010
0000
0011
1001
0000
0110
0000
,
2002
0000
0000
0000
0000
0000
3003
1000
,
2000
0000
0000
0000
0000
0000
3000
0001
,
0002
0000
0000
0000
0023
0000
0000
0000
2030
0000
0000
0000
3010
0000
0001
0100
,
0020
0030
0000
0000
;

//---------------dance-double - ----------------
#NOTES:
     dance-double:
     :
     Hard:
     10:
     0.446926,0.462114,0.095445,0.074235,0.164378,295.000000,286.000000,9.000000,7.000000,0.000000,0.000000,0.446926,0.462114,0.095445,0.074235,0.164378,295.000000,286.000000,9.000000,7.000000,0.000000,0.000000:
00000000
00000000
00000000
00000000
,
00000000
00000000
00000000
00000000
,
00000000
00000000
00000000
00000000
,
00000000
00000000
00000000
00000000
,
00000000
00000000
00000000
00000000
,
00000001
00000001
00000001
00000001
,
00000100
00000000
00000100
00000000
00000100
00000000
00000100
00001000
,
00010000
00010000
00010000
00010000
,
01000000
00000000
01000000
00000000
01000000
00000000
01000000
10000000
,
00100000
00100000
00100000
00100000
,
00010000
00000000
00010000
00000000
00010000
00000000
00010000
00001000
,
00000010
00000000
00000001
00000100
00000001
00000000
00000100
00001000
,
00000100
00000000
00001000
00010000
00001000
00000000
00010000
00100000
,
00010000
00000000
00100000
10000000
00100000
00000000
10000000
01000000
,
00000000
00010000
00000000
10000000
01000000
00000000
01000000
00010000
,
00000000
00001000
00000000
00000010
00000001
00000000
00000001
00000100
,
00000000
00000100
00001000
00000100
00000000
00010000
00001000
00010000
,
00000000
01000000
00000000
01000000
00000000
10000000
00100000
10000000
,
00100000
00000000
10000000
01000000
10000000
00000000
01000000
00010000
,
01000000
00000000
00010000
00001000
00010000
00000000
00001000
00000100
,
00000000
00000001
00000100
00000001
00000000
00000001
00000010
00000001
,
00000000
00000010
00000000
00001000
00000000
00010000
00001000
00010000
,
00001000
00010000
01000000
10000000
,
01000000
00010000
00001000
00000010
,
00000001
00000010
00001000
00010000
,
00100000
00000000
00000000
00100000
10000000
00000000
00000000
00000000
01000000
00000000
00000000
01000000
00010000
00000000
00000000
00000000
,
00001000
00000000
00000000
00001000
00000100
00000000
00000000
00000000
00000001
00000000
00000000
00000001
00000010
00000000
00000000
00000000
,
00001000
00000000
00000000
00001000
00010000
00000000
00000000
00000000
00100000
00000000
00000000
00100000
10000000
00000000
00000000
00000000
,
01000000
00000000
00000000
01000000
00010000
00000000
00000000
00000000
00001000
00000000
00000000
00001000
00000100
00000000
00000000
00000000
,
00000001
00000000
00000000
00000100
00001000
00000000
00000000
00000000
00010000
00000000
00000000
00001000
00010000
00000000
00000000
00000000
,
00010000
00000000
00000000
00100000
10000000
00000000
00000000
00000000
01000000
00000000
00000000
10000000
01000000
00000000
00000000
00000000
,
01000000
00000000
00000000
00010000
00001000
00000000
00000000
00000000
00001000
00000000
00000000
00010000
00001000
00000000
00000000
00000000
,
00000010
00000000
00000000
00000001
00000100
00000000
00000000
00000000
00000100
00000000
00000000
00000001
00000100
00000000
00000000
00000000
,
00000001
00000000
00000000
00000100
00001000
00000000
00000000
00000000
00010000
00000000
00000000
00000000
00010000
00000000
00000000
00000000
,
00010000
00000000
00000000
01000000
10000000
00000000
00000000
00000000
10000000
00000000
00000000
00000000
10000000
00000000
00000000
00000000
,
10000000
00000000
00000000
00100000
00010000
00000000
00000000
00000000
00001000
00000000
00000000
00000000
00001000
00000000
00000000
00000000
,
00001000
00000000
00000000
00000010
00000100
00000000
00000000
00000001
00001000
00000000
00000000
00000100
00000010
00000000
00000000
00000001
,
00000100
00001000
00010000
01000000
,
00010000
00001000
00000100
00001000
,
00010000
00100000
10000000
00100000
,
00010000
00001000
00011000
00000000
,
00000000
00001000
00000010
00000000
00000001
00000000
00000001
00000000
,
00000000
00000100
00001000
00000000
00010000
00001000
00010000
00000000
,
00000000
00100000
10000000
00000000
01000000
10000000
01000000
00010000
,
00000000
00001000
00000010
00000000
00000000
00000001
00000000
00000100
,
00000001
00000100
00001000
00000000
00000100
00001000
00010000
00000000
,
00001000
00010000
00100000
00000000
00010000
00100000
10000000
00000000
,
00100000
10000000
01000000
00000000
10000000
01000000
00010000
00001000
,
00000000
00010000
00000000
00001000
00000000
00000010
00000001
00000000
,
00001001
00000000
00000000
00001100
00000000
00000000
00000110
00000000
,
00000010
00000000
00000000
00000001
00000100
00000000
00000000
00000000
00001000
00000000
00000000
00000000
00001000
00000000
00000000
00010000
,
00100000
10000000
00010000
01000000
,
00100000
00000000
00000000
10000000
01000000
00000000
00000000
00000000
00010000
00000000
00000000
00000000
00010000
00000000
00000000
00001000
,
00000010
00000001
00001000
00000100
,
00000010
00000000
00000000
00000001
00000100
00000000
00000000
00000000
00000001
00000000
00000000
00000000
00001000
00000000
00000000
00010000
,
00100000
10000000
00010000
01000000
,
00100000
00000000
00000000
10000000
01000000
00000000
00000000
00000000
10000000
00000000
00000000
00000000
00010000
00000000
00000000
00000000
,
00001000
00000000
00011000
00000000
00001010
00000000
00000000
00011000
,
00000000
01010000
00000000
10000000
01000000
00000000
00010000
00000000
,
00022000
00000000
00000000
00000000
00000000
00000000
00033000
00001000
,
00000020
00000000
00000000
00000000
00000000
00000000
00000030
00000001
,
00000200
00000000
00000000
00000000
00002300
00000000
00000000
00000000
00023000
00000000
00000000
00000000
01030000
00000000
00100000
00010000
,
02000000
03000000
00000000
00000000
,
00000000
00000000
00000000
00000000
;

//---------------dance-single - ----------------
#NOTES:
     dance-single:
     :
     Challenge:
     14:
     0.684781,0.792195,0.180285,0.095445,0.731746,452.000000,435.000000,17.000000,9.000000,0.000000,0.000000,0.684781,0.792195,0.180285,0.095445,0.731746,452.000000,435.000000,17.000000,9.000000,0.000000,0.000000:
0000
0000
0000
0000
,
0000
0000
0000
0000
,
0000
0000
0000
0000
,
0000
0000
0000
0000
,
0000
0000
0000
0000
0000
0000
0000
0000
0000
0000
0000
0000
0000
0000
0000
1000
,
0001
0000
0000
0001
1000
0000
0000
1000
0100
0000
0000
0100
0010
0000
0000
0010
,
0001
0000
0100
0000
0010
0000
1000
1000
,
0100
0011
1000
0011
,
0001
0000
0000
0000
0100
0000
0000
0000
0010
0000
0000
0000
0001
0000
1000
0001
,
1000
1010
0001
1010
,
0100
0001
0010
0100
1000
0010
0100
0100
,
0100
0000
0001
0001
0001
0000
0010
0010
,
0010
0000
1000
1000
1000
0000
0100
0100
,
0100
0000
0010
0001
1000
0000
0001
0100
,
0010
0000
1000
0100
1000
0000
0010
0000
0100
0000
0001
0000
1000
0000
0100
0000
,
0010
0000
0001
1000
0001
0000
0010
0000
0100
0000
1000
0000
0001
0000
0100
0000
,
0010
1000
0100
1000
0010
1000
0100
0010
,
0001
0000
1000
0000
0001
0000
0100
0000
0010
0100
0010
0100
0010
0100
0010
0000
,
1000
0000
0100
0000
0010
0000
0001
0000
0010
0000
0100
1000
0001
1000
0010
0000
,
0100
0000
0001
0000
1000
0000
0001
0000
0010
0000
0001
1000
0001
1000
0100
0000
,
0010
0001
0100
0010
0100
0001
1000
0010
,
1000
0001
0010
0100
0001
0100
1000
0001
,
0100
0000
0100
1000
0100
0010
0100
0001
,
0100
0010
1000
0002
0020
0000
0000
0000
,
0000
0000
0000
0033
,
1000
0100
0010
0001
0000
0001
1000
0000
1000
0001
0000
0001
,
1000
0010
0100
0001
0000
0001
1000
0000
1000
0001
0000
0001
,
1000
0100
0010
0001
0000
0001
1000
0000
1000
0001
0000
0001
,
1000
0010
0100
0001
0000
0001
1000
0000
1000
0001
0000
0001
,
0100
0001
0100
0001
0000
0001
1000
0001
1000
0001
0000
0001
,
0010
0001
0010
0001
0000
0010
0100
0010
0100
0010
0000
0100
,
1000
0001
0100
0001
1000
0100
1000
0001
0100
0001
1000
0100
,
1000
0001
0100
0001
1000
0100
1000
0001
0100
0001
0000
1000
,
0100
0000
0100
0010
0000
0001
0100
0000
0100
0010
0000
1000
,
0100
0000
0100
0010
0000
0001
0100
0000
0100
0010
0000
1000
,
0100
0000
0100
0010
0000
0001
0100
0000
0100
0010
0000
1000
,
0100
0000
0100
0010
0000
0000
0101
0000
0000
1100
0000
0000
,
0010
0001
0010
0001
0010
0001
0010
0000
0000
0000
0000
0000
,
1000
0001
1000
0001
1000
0001
1000
0000
0000
0000
0000
0000
,
0001
0100
0010
1000
0100
0010
0001
0100
0010
1000
0100
0010
,
0001
1000
0100
1000
0001
1000
0010
0000
0000
0000
0000
0000
,
0001
0000
0010
0000
0010
0000
0100
1000
0100
0000
0010
0000
0001
0000
1000
0100
,
1000
0000
0001
0000
1000
0000
0010
0100
0010
0000
1000
0000
0001
0000
0001
0000
,
0100
0000
0000
0010
1000
0000
0000
1000
0100
0000
0010
0001
0010
0000
0001
0000
,
1000
0000
0010
0000
0010
0000
0000
0000
0001
0000
1000
0000
0001
1000
0000
0001
,
1000
0000
0010
0000
0010
0000
0100
0001
0100
0000
0010
0000
1000
0000
0001
0100
,
0001
0000
1000
0000
0001
0000
0010
0100
0010
0000
0001
0000
1000
0000
1000
0000
,
0100
0000
0000
0010
0001
0000
0000
0001
0100
0000
0010
1000
0010
0000
1000
0000
,
0001
0000
0010
0000
0010
0000
0100
1000
0001
0000
0001
0000
1000
0000
0000
0000
,
0101
0000
0000
1000
0100
0000
1100
0000
0000
0001
0100
0000
0101
0000
0000
1000
,
0001
0000
0000
0001
0010
0000
0000
0010
0100
0000
0000
0100
1000
0000
0000
1000
,
0010
0000
0000
0010
1000
0000
0000
1000
0001
0000
0000
0001
0100
0000
0000
0100
,
0001
0000
0000
0001
0010
0000
0000
0010
0100
0000
0000
0100
1000
0000
0000
1000
,
0010
0001
0010
0100
0010
1000
0010
0100
,
0010
0000
0000
0010
1000
0000
0000
1000
0001
0000
0000
0001
0010
0000
0000
0010
,
0100
0000
0000
0100
1000
0000
0000
1000
0100
0000
0000
0100
0010
0000
0000
0010
,
0001
0000
0000
0001
0100
0000
0000
0100
0001
0000
0000
0001
1000
0000
0000
1000
,
0010
0000
1010
0000
0101
0000
0000
0011
,
0000
1100
0000
0110
1001
0000
0110
0000
,
2002
0000
0000
0000
0000
0000
3003
1000
,
2000
0000
0000
0000
0000
0000
3000
0001
,
0002
0000
0000
0000
0023
0000
0000
0000
2030
0000
0000
0000
3010
0000
0001
0100
,
0020
0030
0000
0000
;

//---------------dance-single - ----------------
#NOTES:
     dance-single:
     :
     Medium:
     8:
     0.369661,0.396097,0.116655,0.053025,0.106050,244.000000,233.000000,11.000000,5.000000,0.000000,0.000000,0.369661,0.396097,0.116655,0.053025,0.106050,244.000000,233.000000,11.000000,5.000000,0.000000,0.000000:
0000
0000
0000
0000
,
0000
0000
0000
0000
,
0000
0000
0000
0000
,
0000
0000
0000
0000
,
0000
0000
0000
0000
,
0100
0100
0100
0100
,
0010
0000
0010
0000
0010
0000
0010
0001
,
0100
0100
0100
0100
,
0010
0000
0010
0000
0010
0000
0010
1000
,
0001
0001
0001
0001
,
0001
0000
0001
0000
0001
0000
0010
0100
,
1000
0000
0010
0100
0001
0000
1000
0000
,
1000
0000
0001
0100
0010
0000
1000
0000
,
1000
0000
0100
1000
0001
0000
0010
0000
,
0100
0010
0001
0100
,
0101
1000
0010
0100
,
0010
1000
0100
0010
,
0110
0001
1000
1000
,
0001
0100
0010
0010
,
1000
0100
0010
0010
,
0110
0001
1000
0001
,
0110
1000
0001
1000
,
0020
0000
0000
0000
,
0000
0000
0000
0000
,
0000
0000
0000
0000
0000
0000
0000
0030
,
0100
0000
0000
0000
0100
0000
0000
0000
0100
0000
0000
0000
0100
0000
0000
0100
,
0001
0000
0000
0000
0001
0000
0000
0000
0001
0000
0000
0000
0001
0000
0000
0001
,
0010
0000
0000
0000
0010
0000
0000
0000
0010
0000
0000
0000
0010
0000
0000
0010
,
0100
0000
0000
0000
0100
0000
0000
0000
0100
0000
0000
0000
0100
0000
0000
0100
,
1000
0000
0000
0000
1000
0000
0000
0000
1000
0000
0000
0000
1000
0000
0000
1000
,
0001
0000
0000
0000
0001
0000
0000
0000
0001
0000
0000
0000
0001
0000
0000
0001
,
0100
0000
0000
0000
0100
0000
0000
0000
0100
0000
0000
0000
0100
0000
0000
0100
,
0010
0000
0000
0000
0010
0000
0000
0000
0010
0000
0000
0000
0010
0000
0000
0010
,
1000
0000
0000
0000
0000
0000
0000
0010
1000
0000
0000
0000
1000
0000
0000
1000
,
0100
0000
0000
0000
0000
0000
0000
1000
0100
0000
0000
0000
0100
0000
0000
0100
,
0010
0000
0000
0000
0000
0000
0000
0100
0010
0000
0000
0000
0010
0000
0000
0010
,
0001
0000
0000
0000
0000
0000
0000
0010
0001
0000
0000
0000
0001
0000
0000
0000
,
0101
0000
1010
0000
,
1100
0000
0011
0000
,
1000
1000
0001
0001
,
0110
0000
0000
0000
1001
0000
0000
0000
0220
0000
0000
0000
0000
0330
0000
0000
,
1000
0001
0100
0001
,
1000
0100
0010
0001
,
1000
0100
1000
0000
0001
0100
0001
0000
,
1000
0000
0010
0000
0100
0000
0001
0010
,
0100
0010
0010
0001
,
1000
0100
0010
0010
,
0100
1000
0001
0001
,
1000
0010
0100
0001
,
1000
0000
0000
0001
0000
0000
1000
0000
,
0100
0000
0000
0000
0100
0000
0000
0000
0010
0000
0000
0000
0010
0000
0000
0001
,
0100
0000
0000
0000
0100
0000
0000
0000
0010
0000
0000
0000
0010
0000
0000
1000
,
0100
0100
0010
0010
,
0001
0100
0001
0100
0001
0000
1000
0000
,
0010
0000
0000
0000
0010
0000
0000
0000
0100
0000
0000
0000
0100
0000
0000
0001
,
0010
0000
0000
0000
0010
0000
0000
0000
0100
0000
0000
0000
0100
0000
0000
1000
,
0010
0000
0000
0000
0010
0000
0000
0000
0100
0000
0000
0000
0100
0000
0000
0001
,
0010
0000
0010
0000
0010
0000
0000
0100
,
0000
1000
0000
0001
0100
0000
0010
0000
,
1000
0000
0000
0000
,
0002
0000
0003
0000
,
1000
0010
0100
0001
,
2000
3000
0000
0000
;

//---------------dance-single - ----------------
#NOTES:
     dance-single:
     :
     Easy:
     6:
     0.368146,0.526009,0.477226,0.169680,0.000000,243.000000,198.000000,45.000000,16.000000,0.000000,0.000000,0.368146,0.526009,0.477226,0.169680,0.000000,243.000000,198.000000,45.000000,16.000000,0.000000,0.000000:
0000
0000
0000
0000
,
0000
0000
0000
0000
,
0000
0000
0000
0000
,
0000
0000
0000
0000
,
0000
0000
0000
0000
,
0001
1000
0001
1000
,
0010
0100
0001
1000
,
0100
0010
0001
1000
,
0010
0100
0001
1000
,
0100
0010
0001
1000
,
0010
0100
0001
0010
,
0010
0100
0100
1000
,
1000
0001
0001
0010
,
0010
0100
0100
0010
,
1001
0100
0010
0100
,
1001
0100
0010
0100
,
0010
0010
1000
0100
,
0010
0001
1000
1000
,
0001
0100
1000
0100
,
0001
0010
0100
1000
,
0001
0010
1000
0010
,
0001
0100
0010
1000
,
0200
0000
0000
0000
,
0000
0000
0000
0000
,
0300
0000
0000
0000
,
0011
0010
0011
0010
,
1100
0100
1100
0100
,
1001
1000
1001
1000
,
0101
0100
0101
0100
,
0110
0010
0110
0010
,
1001
0001
1001
1000
,
1100
0100
0101
0100
,
0011
0010
1010
0010
,
1000
1100
0001
0101
,
1000
1100
0001
0101
,
1000
1100
0001
0101
,
0011
1010
1001
1001
,
0220
0000
0330
0000
,
2002
0000
3003
0000
,
2200
3300
0202
0303
,
2002
0000
3003
0000
,
0010
0010
0100
0001
,
0010
0100
1000
0001
,
0010
0010
0001
0100
,
0010
1000
0100
1001
,
0010
0001
0100
0100
,
0010
1000
0100
0100
,
1000
0001
0010
0100
,
1000
0001
0010
0100
,
1000
0000
0000
0001
0000
0000
1000
0000
,
0010
0010
0100
0100
,
0010
0010
1000
1000
,
0001
0001
0010
0010
,
0110
1001
0220
0330
,
1000
0010
0100
0001
,
1000
0100
0001
0010
,
1000
0001
0010
0100
,
1100
1100
1100
0000
,
0101
0101
1001
1001
,
0220
0000
0330
0000
,
2000
0000
3000
0000
,
0001
0010
0100
1000
,
0001
0000
0000
0000
;

//---------------dance-single - ----------------
#NOTES:
     dance-single:
     :
     Beginner:
     3:
     0.106050,0.180020,0.074235,0.010605,0.000000,70.000000,63.000000,7.000000,1.000000,0.000000,0.000000,0.106050,0.180020,0.074235,0.010605,0.000000,70.000000,63.000000,7.000000,1.000000,0.000000,0.000000:
// measure 0
0000
0000
0000
0000
,  // measure 1
0000
0000
0000
0000
,  // measure 2
0000
0000
0000
0000
,  // measure 3
0000
0000
0000
0000
,  // measure 4
0000
0000
0000
0000
,  // measure 5
0000
0000
0000
0000
,  // measure 6
1000
0000
0000
0000
,  // measure 7
1000
0000
0000
0000
,  // measure 8
0001
0000
0000
0000
,  // measure 9
0001
0000
0000
0000
,  // measure 10
0010
0000
0000
0000
,  // measure 11
0100
0000
0000
0000
,  // measure 12
0010
0000
0000
0000
,  // measure 13
0100
0000
0000
0000
,  // measure 14
1000
0000
1000
0000
,  // measure 15
1000
0000
0000
0000
,  // measure 16
0001
0000
0001
0000
,  // measure 17
0001
0000
0000
0000
,  // measure 18
0100
0000
0010
0000
,  // measure 19
0100
0000
0000
0000
,  // measure 20
0010
0000
0100
0000
,  // measure 21
0010
0000
0000
0000
,  // measure 22
0200
0000
0000
0000
,  // measure 23
0000
0000
0000
0000
,  // measure 24
0300
0000
0000
0000
,  // measure 25
1001
0000
1000
0000
,  // measure 26
1000
0000
0000
0000
,  // measure 27
1001
0000
0001
0000
,  // measure 28
0001
0000
0000
0000
,  // measure 29
0110
0000
0100
0000
,  // measure 30
0100
0000
0000
0000
,  // measure 31
0110
0000
0010
0000
,  // measure 32
0010
0000
0000
0000
,  // measure 33
1000
0000
1000
0000
,  // measure 34
1000
0000
1000
0000
,  // measure 35
0001
0000
0001
0000
,  // measure 36
0001
0000
0001
0000
,  // measure 37
0110
0000
1000
0000
,  // measure 38
0110
0000
0001
0000
,  // measure 39
1000
0000
0100
0000
,  // measure 40
0001
0000
1001
0000
,  // measure 41
0010
0000
0010
0000
,  // measure 42
0010
0000
0000
0000
,  // measure 43
0100
0000
0100
0000
,  // measure 44
0100
0000
0000
0000
,  // measure 45
0001
0000
0001
0000
,  // measure 46
0001
0000
0001
0000
,  // measure 47
1000
0000
1000
0000
,  // measure 48
1000
0000
1000
0000
;
