#TITLE:TRIP MACHINE;
#SUBTITLE:(PHANTOM LUV MIX);
#ARTIST:2MB;
#TITLETRANSLIT:;
#SUBTITLETRANSLIT:;
#ARTISTTRANSLIT:;
#GENRE:;
#CREDIT:;
#BANNER:;
#BACKGROUND:Trip Machine (Luv Mix) [From Nonstop Megamix]-bg.jpg;
#LYRICSPATH:;
#CDTITLE:;
#MUSIC:Trip Machine (Luv Mix) [From Nonstop Megamix].mp3;
#OFFSET:-0.140001;
#SAMPLESTART:6.057003;
#SAMPLELENGTH:14.999999;
#SELECTABLE:YES;
#BPMS:0.000000=162.000000
,192.000000=162.199997
,200.000000=162.800003
;
#STOPS:
;
#BGCHANGES:;
#KEYSOUNDS:;
#ATTACKS:;

//---------------dance-single - ----------------
#NOTES:
     dance-single:
     :
     Hard:
     13:
     0.603508,0.799294,0.317338,0.000000,0.193378,426.000000,394.000000,32.000000,0.000000,0.000000,0.000000,0.603508,0.799294,0.317338,0.000000,0.193378,426.000000,394.000000,32.000000,0.000000,0.000000,0.000000:
0000
0000
0000
0000
,
0000
0000
0000
0000
,
0000
0000
0000
0000
,
0000
0000
0000
0000
,
1000
0001
0100
0000
0100
0100
0100
0000
,
0001
1000
0100
0000
0100
0100
0100
0000
,
1000
0001
0100
0000
0001
1000
0100
0000
,
1000
0001
0100
0001
1000
0100
1000
0001
,
1000
0001
0100
0000
0100
0100
0100
0000
,
0001
1000
0100
0000
0100
0100
0100
0000
,
1000
0001
0100
0000
0100
0100
0100
0000
,
0001
1000
0100
1000
0001
0100
0001
1000
,
0001
0000
0001
0000
0100
0000
0001
0100
0000
0100
0000
0100
0001
0000
1000
0000
,
0100
0000
1000
0000
0100
0000
1000
0010
0000
0010
0000
0010
1000
0000
0001
0000
,
0100
0000
0001
0000
1000
0000
0010
0100
0000
0100
0000
0100
0001
0000
1000
0000
,
0010
0000
0100
0000
0001
0000
0100
0010
0000
0010
0000
0010
1000
0000
0100
0000
,
1000
0000
0100
0000
0010
0000
0001
1000
0000
1000
0000
1000
0001
0000
0100
0000
,
0010
0000
0100
0000
0010
0000
1000
0001
0000
0001
0000
0001
0010
0000
0001
0000
,
1000
0000
0010
0000
0100
0000
0010
1000
0000
1000
0000
1000
0100
0000
1000
0000
,
0001
0100
0010
0100
0001
0010
0100
0010
0001
0100
0010
1000
0100
1000
0010
0000
,
1001
0100
0000
0100
0000
0010
0000
1000
,
0010
1000
0000
0100
1000
1000
0000
0001
,
0001
0100
0000
0001
0000
1000
0000
0010
,
1000
1000
0000
0100
1000
1000
0000
0001
,
0100
0000
1001
0001
0000
1000
0000
0100
,
1000
1000
0000
0010
0100
0100
0000
0001
,
0001
1000
0000
0100
0000
0010
0000
0001
,
1001
0000
0000
0110
,
1001
1000
0100
1000
0010
0100
0001
0100
,
0010
1000
0100
1000
0001
1000
0001
0100
,
0001
0100
0010
0100
0010
1000
0100
1000
,
0010
0100
0010
1000
0100
0010
0100
1000
,
0010
0100
0010
1000
0001
0100
0010
0100
,
0001
0010
0100
0010
0001
0100
0010
0100
,
0001
0010
0100
0010
0001
0100
0010
1000
,
0100
1000
0100
0010
0001
0010
0100
1000
,
0001
0000
1001
0000
0001
1000
0001
0000
,
1000
0000
1001
0000
1000
0001
1000
0000
,
0001
0000
0110
0000
0001
1000
0100
0000
,
1000
0000
0110
0000
1000
0001
0100
0000
,
0001
0000
1100
0000
0001
1000
0001
0000
,
1000
0000
0101
0000
1000
0001
1000
0000
,
0010
0000
1100
0000
0010
0100
0001
0000
,
0010
0000
0101
0000
0001
1000
0100
0000
,
1000
1100
1000
0101
,
0001
1100
1000
0110
,
0001
0110
1000
1100
,
0001
0101
1000
1001
,
0001
0101
0010
1010
,
1000
1100
0100
1100
,
1000
0101
0001
0101
,
0010
0101
1000
1100
,
1001
0100
0100
0100
,
1001
0000
0001
0000
0010
0000
0100
0000
1000
0001
1000
0001
0100
0010
0100
0010
,
1000
0001
0100
0001
1000
0100
1000
0010
,
0100
0001
0100
0010
1000
0100
1000
0010
,
0100
0001
0100
0010
1000
0100
1000
0100
,
0010
0001
0010
0100
1000
0100
0010
0001
,
0100
0001
0100
0010
0100
0001
0100
0010
,
1000
0100
1000
0010
0100
0001
0100
0010
,
1000
0100
1000
0010
0100
0001
0100
0010
,
1000
0100
0010
0100
1000
0010
0100
0010
1000
0001
1000
0001
0100
0010
0100
0000
,
1001
0000
0000
0000
;

//---------------dance-single - ----------------
#NOTES:
     dance-single:
     :
     Medium:
     11:
     0.463256,0.430389,0.466090,0.000000,0.000000,327.000000,280.000000,47.000000,0.000000,0.000000,0.000000,0.463256,0.430389,0.466090,0.000000,0.000000,327.000000,280.000000,47.000000,0.000000,0.000000,0.000000:
0000
0000
0000
0000
,
0000
0000
0000
0000
,
0000
0000
0000
0000
,
0000
0000
0000
0000
,
1000
0001
0000
0100
0000
0100
0000
0001
,
0000
1001
0000
0100
0000
0100
0000
1000
,
0000
1001
0000
0001
0000
0100
0000
1000
,
0000
1001
0000
1000
0000
1000
0000
1000
,
0000
1001
0000
0100
0000
0100
0000
0001
,
0000
1001
0000
0100
0000
0100
0000
1000
,
0000
1001
0000
0100
0000
0100
0000
0001
,
0000
1001
0000
0001
0000
0001
1000
0100
,
0010
0100
1001
0001
,
0100
0100
1001
1000
,
0100
1000
1001
0001
,
0010
0001
1001
1000
,
1000
0010
1001
0001
,
0010
0010
1001
0010
,
1000
0100
1001
0100
,
0001
0001
1001
0100
,
1001
0100
0000
0100
0000
0010
0000
1000
,
0010
1000
0000
0100
1000
1000
0000
0001
,
0001
0100
0000
0001
0000
1000
0000
0010
,
1000
1000
0000
0100
1000
1000
0000
0001
,
0100
0000
1001
0001
0000
1000
0000
0100
,
1000
1000
0000
0010
0100
0100
0000
0001
,
0001
1000
0000
0100
0000
0010
0000
0001
,
1001
0000
0000
0110
,
1001
0000
0100
1000
0010
0000
0001
0100
,
0010
0000
0100
1000
0001
0000
0001
0100
,
0001
0000
0010
0100
0010
0000
0100
1000
,
0010
0000
0010
1000
0100
0000
0100
1000
,
0010
0000
0010
1000
0001
0000
0010
0100
,
0001
0000
0100
0010
0001
0000
0010
0100
,
0001
0000
0100
0010
0001
0000
0010
1000
,
0100
0000
0100
0010
0001
0000
0100
1000
,
0001
0000
1001
0000
0001
1000
0001
0000
,
1000
0000
1001
0000
1000
0001
1000
0000
,
0001
0000
0110
0000
0001
1000
0100
0000
,
1000
0000
0110
0000
1000
0001
0100
0000
,
0001
0000
1100
0000
0001
1000
0001
0000
,
1000
0000
0101
0000
1000
0001
1000
0000
,
0010
0000
1100
0000
0010
0100
0001
0000
,
0010
0000
0101
0000
0001
1000
0100
0000
,
1000
1100
1000
0101
,
0001
1100
1000
0110
,
0001
0110
1000
1100
,
0001
0101
1000
1001
,
0001
0101
0010
1010
,
1000
1100
0100
1100
,
1000
0101
0001
0101
,
0010
0101
1000
1100
,
1001
0100
0100
0100
,
1001
0000
0000
0000
,
1000
0001
0100
0000
1000
0100
1000
0000
,
0100
0001
0100
0000
1000
0100
1000
0000
,
0100
0001
0100
0000
1000
0100
1000
0000
,
0010
0001
0010
0000
1000
0100
0010
0000
,
0100
0001
0100
0000
0100
0001
0100
0000
,
1000
0100
1000
0000
0100
0001
0100
0000
,
1000
0100
1000
0000
0100
0001
0100
0000
,
1000
0010
1000
0000
0010
0100
0010
0000
,
1001
0000
0000
0000
;

//---------------dance-single - ----------------
#NOTES:
     dance-single:
     :
     Easy:
     9:
     0.398089,0.368905,0.386755,0.000000,0.000000,281.000000,242.000000,39.000000,0.000000,0.000000,0.000000,0.398089,0.368905,0.386755,0.000000,0.000000,281.000000,242.000000,39.000000,0.000000,0.000000,0.000000:
0000
0000
0000
0000
,
0000
0000
0000
0000
,
0000
0000
0000
0000
,
0000
0000
0000
0000
,
1000
0001
0100
0100
,
0001
1001
0100
0100
,
1000
1001
0001
0100
,
1000
1001
1000
1000
,
1000
1001
0100
0100
,
0001
1001
0100
0100
,
1000
1001
0100
0100
,
0001
0000
1001
0000
0001
0000
1000
0100
,
0010
0100
1001
0001
,
0100
0100
1001
1000
,
0100
1000
1001
0001
,
0010
0001
1001
1000
,
1000
0010
1001
0001
,
0010
0010
1001
0010
,
1000
0100
1001
0100
,
0001
0001
1001
0100
,
1001
0100
0000
0100
0000
0010
0000
1000
,
0000
1000
0000
0100
0000
1000
0000
0001
,
0000
0100
0000
0001
0000
1000
0000
0010
,
0000
1000
0000
0100
0000
1000
0000
0001
,
0000
1001
0000
0001
0000
1000
0000
0100
,
0000
1000
0000
0010
0000
0100
0000
0001
,
0000
1000
0000
0100
0000
0010
0000
0001
,
0000
1001
0000
0110
,
1001
0100
0010
0001
,
0010
0000
0100
0000
0001
0000
0001
0100
,
0001
0010
0010
0100
,
0010
0000
0010
0000
0100
0000
0100
1000
,
0010
0010
0001
0010
,
0001
0000
0100
0000
0001
0000
0010
0100
,
0001
0100
0001
0010
,
0001
0000
1000
0000
0100
0000
0100
1000
,
0001
1001
0001
0100
,
1000
1001
1000
0100
,
0001
0110
0001
0100
,
1000
0110
1000
0100
,
0001
1100
0001
0001
,
1000
0101
1000
1000
,
0010
1100
0010
0001
,
0010
0101
0001
0100
,
1000
1000
1000
0101
,
0001
0001
0001
0110
,
1000
1000
1000
1100
,
0001
0001
0001
1001
,
0010
0010
0010
1010
,
0100
0100
0100
1100
,
0010
0010
0010
0101
,
0100
0100
0100
1100
,
1001
0100
0100
0100
,
1001
0000
0000
0000
,
1000
0000
0100
0000
1000
0100
1000
0000
,
0100
0000
0100
0000
1000
0100
1000
0000
,
0100
0000
0100
0000
1000
0100
1000
0000
,
0010
0000
0010
0000
1000
0100
0010
0000
,
0100
0000
0100
0000
0100
0001
0100
0000
,
1000
0000
1000
0000
0100
0001
0100
0000
,
1000
0000
1000
0000
0100
0001
0100
0000
,
1000
0000
1000
0000
0010
0100
0010
0000
,
1001
0000
0000
0000
;

//---------------dance-single - ----------------
#NOTES:
     dance-single:
     :
     Beginner:
     3:
     0.187002,0.245937,0.079334,0.000000,0.000000,132.000000,124.000000,8.000000,0.000000,0.000000,0.000000,0.187002,0.245937,0.079334,0.000000,0.000000,132.000000,124.000000,8.000000,0.000000,0.000000,0.000000:
// measure 0
0000
0000
0000
0000
,  // measure 1
0000
0000
0000
0000
,  // measure 2
0000
0000
0000
0000
,  // measure 3
0000
0000
0000
0000
,  // measure 4
1000
1000
0000
0000
,  // measure 5
0001
0001
0000
0000
,  // measure 6
1000
1000
0000
0000
,  // measure 7
1000
1000
0000
0000
,  // measure 8
0001
0001
0000
0000
,  // measure 9
0001
0001
0000
0000
,  // measure 10
0010
0010
0000
0000
,  // measure 11
0100
0100
0000
0000
,  // measure 12
0010
0000
0001
0000
,  // measure 13
0100
0000
1000
0000
,  // measure 14
0100
0000
0001
0000
,  // measure 15
0010
0000
0001
0000
,  // measure 16
1000
0000
1000
0000
,  // measure 17
0010
0000
0001
0000
,  // measure 18
1000
0000
0001
0000
,  // measure 19
0001
0000
0001
0000
,  // measure 20
1001
0000
0000
0000
,  // measure 21
0100
0000
0000
0000
,  // measure 22
1001
0000
0000
0000
,  // measure 23
0100
0000
0000
0000
,  // measure 24
1001
0000
0000
0000
,  // measure 25
0100
0000
0000
0000
,  // measure 26
1001
0000
0100
0000
,  // measure 27
1001
0000
0000
0000
,  // measure 28
1001
0000
0010
0000
,  // measure 29
0010
0000
0001
0000
,  // measure 30
0001
0000
0010
0000
,  // measure 31
0010
0000
0100
0000
,  // measure 32
1000
0000
0001
0000
,  // measure 33
1000
0000
0001
0000
,  // measure 34
1000
0000
0001
0000
,  // measure 35
1000
0000
0100
0000
,  // measure 36
0001
0000
0001
0000
,  // measure 37
1000
0000
1000
0000
,  // measure 38
0001
0000
0001
0000
,  // measure 39
1000
0000
1000
0000
,  // measure 40
0001
0000
0001
0000
,  // measure 41
1000
0000
1000
0000
,  // measure 42
0010
0000
0010
0000
,  // measure 43
0100
0000
0100
0000
,  // measure 44
1000
1000
1000
0000
,  // measure 45
0001
0001
0001
0000
,  // measure 46
1000
1000
1000
0000
,  // measure 47
0001
0001
0001
0000
,  // measure 48
0010
0010
0010
0000
,  // measure 49
0100
0100
0100
0000
,  // measure 50
0010
0010
0010
0000
,  // measure 51
0100
0100
0100
0000
,  // measure 52
0100
0000
0000
0000
,  // measure 53
1001
0000
0000
0000
,  // measure 54
1000
1000
1000
0000
,  // measure 55
0100
0100
0100
0000
,  // measure 56
0010
0010
0010
0000
,  // measure 57
0001
0001
0001
0000
,  // measure 58
1000
1000
1000
0000
,  // measure 59
0001
0001
0001
0000
,  // measure 60
0100
0100
0100
0000
,  // measure 61
0010
0010
0010
0000
,  // measure 62
1001
0000
0000
0000
;
