#TITLE:THE SUMMER IS CALLING;
#SUBTITLE:;
#ARTIST:AQUAGEN;
#TITLETRANSLIT:;
#SUBTITLETRANSLIT:;
#ARTISTTRANSLIT:;
#GENRE:;
#CREDIT:;
#BANNER:;
#BACKGROUND:DDR CD-bg.JPG;
#LYRICSPATH:;
#CDTITLE:;
#MUSIC:SUMMER IS CALLING.mp3;
#OFFSET:-1.523000;
#SAMPLESTART:62.920010;
#SAMPLELENGTH:15.000004;
#SELECTABLE:YES;
#BPMS:0.000000=142.000000
;
#STOPS:
;
#BGCHANGES:;
#KEYSOUNDS:;
#ATTACKS:;

//---------------dance-single - ----------------
#NOTES:
     dance-single:
     :
     Hard:
     10:
     0.424642,0.513551,0.254785,0.180473,0.000000,280.000000,256.000000,24.000000,17.000000,0.000000,0.000000,0.424642,0.513551,0.254785,0.180473,0.000000,280.000000,256.000000,24.000000,17.000000,0.000000,0.000000:
// measure 0
0000
0000
0000
0000
,  // measure 1
2001
0000
0000
0100
0000
3100
0000
0000
,  // measure 2
1002
0000
0000
0100
0000
0100
0103
0000
,  // measure 3
2001
0000
0000
0010
0000
3010
0000
0000
,  // measure 4
1002
0000
0000
0010
0000
0010
0013
0000
,  // measure 5
0201
0000
0000
0010
0000
0310
0000
0000
,  // measure 6
1020
0000
0000
0100
0000
0100
0130
0000
,  // measure 7
0210
0000
0000
0001
0000
0301
0000
0000
,  // measure 8
0120
0000
0000
1000
0000
1000
1030
0000
,  // measure 9
1000
0000
1000
0000
0100
1000
0100
0000
,  // measure 10
1000
0000
0001
0000
0100
0001
0100
0000
,  // measure 11
0010
0000
1000
0000
0010
0100
0010
0000
,  // measure 12
0100
0000
0001
0000
0010
0001
0010
0000
,  // measure 13
0001
0000
1000
0000
0100
1000
0100
0000
,  // measure 14
1000
0000
0010
0000
0100
0001
0100
0000
,  // measure 15
0010
0000
1000
0000
0010
1000
0010
0000
,  // measure 16
1000
0000
0001
0000
1000
0001
1000
0001
,  // measure 17
2002
0000
0000
0000
,  // measure 18
0000
0000
0000
0000
,  // measure 19
0000
0000
0000
0000
,  // measure 20
0000
0000
0000
3003
,  // measure 21
1001
1001
0101
0101
,  // measure 22
0001
1000
0100
1000
,  // measure 23
0010
1000
0100
1000
,  // measure 24
0002
0100
0010
0103
,  // measure 25
1001
1001
1100
1100
,  // measure 26
1000
0010
1000
0001
,  // measure 27
0100
0010
1000
0100
,  // measure 28
1000
0001
0100
0001
,  // measure 29
1001
1001
0011
0011
,  // measure 30
1000
0010
0100
0001
,  // measure 31
1000
0100
0010
0001
,  // measure 32
1000
0100
0010
0001
,  // measure 33
1001
1000
0001
0100
0001
0100
0001
0010
,  // measure 34
0001
0010
0001
1000
0010
1000
0100
1000
,  // measure 35
0100
1000
0100
1000
0010
1000
0010
0100
,  // measure 36
0002
0000
0000
0103
0010
1000
0100
0010
,  // measure 37
0001
0100
0001
0100
0010
1000
0010
1000
,  // measure 38
0100
1000
0100
1000
0001
0010
0001
0010
,  // measure 39
0001
1000
0001
1000
0010
1000
0010
1000
,  // measure 40
0100
0010
0001
0100
0010
1000
0100
0010
,  // measure 41
0001
0010
0100
1000
0010
0100
0001
0010
,  // measure 42
0100
1000
0001
1000
0010
0100
0001
1000
,  // measure 43
0010
1000
0001
0100
0010
1000
0001
0100
,  // measure 44
0001
0010
0100
1000
0001
0010
0100
1000
,  // measure 45
1002
0000
0100
0100
0100
0000
0010
0010
,  // measure 46
0010
0000
0100
0000
1003
0000
1000
0001
,  // measure 47
1000
0001
1000
0001
0100
0000
0010
0100
,  // measure 48
0020
0000
0001
0000
0100
0000
1030
0100
,  // measure 49
2000
0001
0001
0100
,  // measure 50
0100
0000
0010
0000
0100
0000
0001
3001
,  // measure 51
0100
0001
0100
0010
1000
0000
0100
1000
,  // measure 52
0000
1000
0000
0100
0000
0010
0000
0001
,  // measure 53
2002
0000
0000
3003
;

//---------------dance-single - ----------------
#NOTES:
     dance-single:
     :
     Medium:
     7:
     0.365495,0.427960,0.371562,0.265401,0.000000,241.000000,206.000000,35.000000,25.000000,0.000000,0.000000,0.365495,0.427960,0.371562,0.265401,0.000000,241.000000,206.000000,35.000000,25.000000,0.000000,0.000000:
0000
0000
0000
0000
,
2000
3100
0002
0103
,
2000
3100
0002
0103
,
2000
3010
0002
0013
,
2000
3010
0002
0013
,
0002
0103
2000
3010
,
0002
0103
2000
3010
,
0002
0103
2000
3010
,
0002
0200
0303
1001
,
1100
1000
0001
1000
,
0001
0001
1000
0001
,
0100
0010
0100
0100
,
0010
0100
0010
0010
,
1000
0100
0010
0001
,
0100
0010
1000
0100
,
0010
0001
0100
0010
,
1000
0100
0010
0001
,
2002
0000
0000
0000
,
0000
0000
0000
0000
,
0000
0000
0000
0000
,
0000
0000
0000
3003
,
1000
0001
1000
1000
,
0001
0000
1000
0001
1000
0000
0001
1000
,
0002
0000
0103
0000
0020
0000
1030
0100
,
1000
0000
0001
0000
0100
0010
0100
0001
,
0010
0001
2000
3100
,
1000
0000
0010
0100
0001
0000
0001
0100
,
0010
0000
0010
1000
0100
1000
0100
1000
,
0100
1000
0010
0100
,
1001
0100
1001
0100
,
0001
1000
0100
1000
,
0010
0100
0001
1000
,
0100
1000
0010
1000
,
0110
0001
0110
1000
,
0110
1001
0110
1001
,
1000
0100
0010
0001
,
2002
3000
1000
0103
,
1001
0100
1000
0010
,
1001
0100
0001
0010
,
1001
1000
0100
0010
,
1001
0001
0010
0100
,
1001
1000
1000
0001
,
1001
0001
0001
1000
,
0010
0100
0010
0100
,
0001
1000
0001
1000
0001
1000
0001
1000
,
0100
1100
1000
1010
,
0010
0110
0100
0101
,
0001
0011
0010
0011
,
0001
0101
0100
0110
,
0010
1010
1000
1001
,
0001
0101
0100
0110
,
0010
1010
1100
0101
,
0011
0010
0001
0100
,
2002
0000
0000
3003
;

//---------------dance-single - ----------------
#NOTES:
     dance-single:
     :
     Easy:
     4:
     0.279050,0.313837,0.053080,0.106160,0.000000,184.000000,179.000000,5.000000,10.000000,0.000000,0.000000,0.279050,0.313837,0.053080,0.106160,0.000000,184.000000,179.000000,5.000000,10.000000,0.000000,0.000000:
0000
0000
0000
0000
,
1000
1000
1000
0000
,
0001
0001
0001
0000
,
1000
1000
1000
0000
,
0001
0001
0001
0000
,
0100
0100
0100
0000
,
0010
0010
0010
0000
,
0100
0100
0100
0000
,
0010
0010
0010
0000
,
1000
1000
1000
1000
,
0001
0001
0001
0001
,
0100
0100
0100
0100
,
0010
0010
0010
0010
,
1000
1000
0001
0001
,
0100
0100
0010
0010
,
1000
0001
0100
0010
,
1000
0001
0100
0010
,
2002
0000
0000
0000
,
0000
0000
0000
0000
,
0000
0000
0000
0000
,
0000
0000
0000
3003
,
1000
1000
0001
0001
,
1000
0100
1000
0010
,
0100
0001
0100
0100
,
0010
0100
0001
0001
,
1000
0100
1000
0001
,
0100
0001
0001
1000
,
0001
0001
0010
0001
,
0100
0010
1000
0100
,
1000
1000
0010
0010
,
0100
0100
0001
0001
,
1000
0100
1000
0001
,
0100
0010
0100
0001
,
0010
0001
0100
0001
,
1000
0001
1000
0100
,
1000
0010
0100
0002
,
2000
0000
0003
3000
,
1001
1000
0100
1000
,
1000
0010
0100
0001
,
1000
0010
0100
0001
,
0100
0001
1000
1000
,
0100
1000
0010
0100
,
0001
0001
1000
0100
,
1000
0001
0100
0010
,
1000
0100
0010
0001
,
1001
0100
0100
0100
,
1001
1000
0001
1000
,
0001
0100
0010
0100
,
0002
0003
2000
3000
,
0010
0100
0001
0100
,
0010
1000
0100
1000
,
0010
0100
0001
1000
,
0020
0030
0200
0300
,
2002
0000
0000
3003
;

//---------------dance-single - ----------------
#NOTES:
     dance-single:
     :
     Beginner:
     2:
     0.156208,0.199714,0.021232,0.053080,0.000000,103.000000,101.000000,2.000000,5.000000,0.000000,0.000000,0.156208,0.199714,0.021232,0.053080,0.000000,103.000000,101.000000,2.000000,5.000000,0.000000,0.000000:
0000
0000
0000
0000
,
1000
1000
0000
0000
,
0001
0001
0000
0000
,
1000
1000
0000
0000
,
0001
0001
0000
0000
,
0100
0100
0000
0000
,
0010
0010
0000
0000
,
0100
0100
0000
0000
,
0010
0010
0000
0000
,
1000
1000
1000
0000
,
0001
0001
0001
0000
,
0100
0100
0100
0000
,
0010
0010
0010
0000
,
1000
1000
0000
0000
,
0100
0100
0000
0000
,
0010
0010
0000
0000
,
0001
0001
0000
0000
,
2002
0000
0000
0000
,
0000
0000
0000
0000
,
3003
0000
0000
0000
,
0000
0000
0000
0000
,
1000
0000
0001
0000
,
1000
0000
1000
0000
,
0100
0000
0100
0000
,
0010
0000
0001
0000
,
1000
0000
1000
0000
,
0100
0000
0001
0000
,
0001
0000
0010
0000
,
0100
0000
1000
0000
,
1000
0000
0010
0000
,
0100
0000
0001
0000
,
1000
0000
1000
0000
,
0100
0000
0100
0000
,
0010
0000
0100
0000
,
1000
0000
1000
0000
,
1000
0000
0100
0000
,
2000
0000
0000
3000
,
1000
0000
0100
0000
,
1000
0000
0100
0000
,
1000
0000
0100
0000
,
0100
0000
1000
0000
,
0100
0000
0010
0000
,
0001
0000
1000
0000
,
1000
0000
0100
0000
,
1000
0000
0010
0000
,
0001
0000
0100
0000
,
1000
0000
0001
0000
,
0001
0000
0010
0000
,
0001
0000
1000
0000
,
0010
0000
0001
0000
,
0010
0000
0100
0000
,
0010
0000
0001
0000
,
0010
0000
0100
0000
,
2002
0000
0000
3003
;
