#VERSION:0.83;
#TITLE:TELL IT TO MY HEART;
#SUBTITLE:;
#ARTIST:DJ DEB feat. BO-TY GIRLS;
#TITLETRANSLIT:;
#SUBTITLETRANSLIT:;
#ARTISTTRANSLIT:;
#GENRE:;
#ORIGIN:;
#CREDIT:;
#BANNER:;
#BACKGROUND:DDR CD-bg.JPG;
#PREVIEWVID:;
#JACKET:Tell it to my heart-jacket.JPG;
#CDIMAGE:;
#DISCIMAGE:;
#LYRICSPATH:;
#CDTITLE:;
#MUSIC:Tell it to my heart.ogg;
#OFFSET:-0.200000;
#SAMPLESTART:55.959942;
#SAMPLELENGTH:14.499997;
#SELECTABLE:YES;
#BPMS:0.000=135.200;
#STOPS:;
#DELAYS:;
#WARPS:;
#TIMESIGNATURES:0.000=4=4;
#TICKCOUNTS:0.000=4;
#COMBOS:0.000=1;
#SPEEDS:0.000=1.000=0.000=0;
#SCROLLS:0.000=1.000;
#FAKES:;
#LABELS:0.000=Song Start;
#BGCHANGES:;
#KEYSOUNDS:;
#ATTACKS:
;

//---------------dance-single - ----------------
#NOTEDATA:;
#CHARTNAME:;
#STEPSTYPE:dance-single;
#DESCRIPTION:;
#CHARTSTYLE:;
#DIFFICULTY:Hard;
#METER:11;
#RADARVALUES:0.488566,0.530959,0.372603,0.000000,0.066536,257.000000,229.000000,28.000000,0.000000,0.000000,0.000000,0.000000,0.000000,0.000000,0.488566,0.530959,0.372603,0.000000,0.066536,257.000000,229.000000,28.000000,0.000000,0.000000,0.000000,0.000000,0.000000,0.000000;
#CREDIT:;
#NOTES:
0000
0000
0000
0000
,
0000
0000
0000
0000
,
0000
0000
0000
0000
,
0000
0000
0000
0000
,
1001
0100
0010
0100
,
1001
0010
0100
0010
,
1000
1000
0010
0010
0100
0100
0001
0001
,
1001
0000
0000
0000
0100
0100
0010
0010
,
0110
0000
1001
0000
1000
0100
1000
0100
,
1000
0010
1000
0000
0001
0100
0001
0100
,
0001
0000
0010
0000
0001
0000
0100
0010
,
0000
1000
0010
0000
0100
0010
1000
0100
,
1100
0000
1001
0000
0100
0001
0100
0010
,
0100
0001
0010
0000
0001
0010
0100
1000
,
0010
0000
0101
0000
1010
0000
1000
0010
,
0000
0000
0000
0000
,
1001
0000
0100
0000
0010
0000
0100
0001
,
0000
0010
0000
0100
0000
1000
0010
0000
,
1001
0000
1000
0000
0010
0000
0100
0010
,
0000
0000
0100
0000
0001
0100
0000
0001
0000
0010
0000
0100
0000
1000
0010
0000
,
1001
0000
1100
0000
1000
0000
0010
1000
,
0000
0000
0000
0000
0001
0000
0100
0000
0000
0000
0001
0000
0000
0001
0000
0000
,
1000
1000
1000
0000
0001
0001
0001
0000
,
0001
0100
0010
0100
0010
0010
0010
0010
,
1001
0000
0100
0001
0100
0010
1000
0000
,
1001
0000
1000
0100
1000
0010
0100
0000
,
1001
0000
0100
0001
1000
0010
0100
0000
,
1001
0000
1000
0001
0100
0100
0100
0000
,
1001
0000
0110
0000
1001
0000
1000
0001
,
0100
0010
1000
0100
0010
0001
0100
0010
,
1000
0100
0010
0001
1000
0100
1000
0001
,
0100
0001
1000
0100
1000
0010
0100
0001
,
1001
0000
0101
0000
0100
0001
0100
0001
,
0010
0001
0010
0000
0001
0010
0001
1000
,
0100
0000
1100
0000
0011
0000
1000
0100
,
1000
0001
1000
0010
0100
0001
0100
0000
,
1001
0000
0010
1000
0010
1000
0010
0100
,
0001
0100
0001
0000
0001
0001
0010
0001
,
0010
0100
1000
0100
1000
0010
1000
0010
,
0100
0000
0001
0000
0100
0000
0001
1000
0000
0001
0000
0000
1000
0001
1000
0001
,
1000
0000
1100
0000
1000
0100
1000
0000
,
0001
0000
0101
0000
0001
0100
0001
0000
,
1001
0000
0000
0000
;

//---------------dance-single - ----------------
#NOTEDATA:;
#CHARTNAME:;
#STEPSTYPE:dance-single;
#DESCRIPTION:;
#CHARTSTYLE:;
#DIFFICULTY:Medium;
#METER:8;
#RADARVALUES:0.382108,0.419178,0.332681,0.000000,0.000000,201.000000,176.000000,25.000000,0.000000,0.000000,0.000000,0.000000,0.000000,0.000000,0.382108,0.419178,0.332681,0.000000,0.000000,201.000000,176.000000,25.000000,0.000000,0.000000,0.000000,0.000000,0.000000,0.000000;
#CREDIT:;
#NOTES:
0000
0000
0000
0000
,
0000
0000
0000
0000
,
0000
0000
0000
0000
,
0000
0000
0000
0000
,
0100
1001
0100
0100
,
0100
1001
0100
0100
,
1001
0110
1001
0110
,
1001
0000
0000
0000
1000
0001
1000
0001
,
1000
0000
0100
0000
1000
0001
1000
0001
,
0100
0100
0100
0000
0001
1000
0001
1000
,
0001
1000
0100
0010
,
0001
0010
0100
1000
,
1001
0000
0100
0000
0001
0010
0001
0010
,
0001
0010
0001
0000
1000
0001
1000
0001
,
1000
0010
0100
0001
,
1001
0000
0000
0000
,
1000
0100
1000
0001
,
0100
0001
0110
0001
,
1001
1000
0100
1000
,
1010
0000
0010
0000
0100
0100
0100
0000
,
0001
1000
1010
0010
,
1000
0100
1100
1000
,
0001
0000
0100
0000
0001
0010
0001
0000
,
1000
0001
1000
0000
0010
1000
0010
1000
,
0010
1000
1001
0000
,
0100
0001
1001
0000
,
0001
1000
0010
1000
,
0001
0100
0001
1000
,
1001
0100
0100
0100
,
1001
0100
0100
0100
,
1001
0110
1001
0110
,
1001
0000
0000
0000
1000
0100
1000
0100
,
1000
0000
0001
0000
0100
0001
0100
0001
,
0100
0001
0100
0000
0001
0000
1000
0000
,
0010
0000
0100
0000
0001
0000
1000
0100
,
0000
1000
0100
0000
1000
0001
0100
0001
,
0100
0000
0010
0000
0100
0001
0100
0001
,
1000
0100
1000
0010
,
0100
0000
0100
0001
0000
0000
0001
0010
,
0000
0001
1000
0000
0001
0000
0110
0000
,
1000
0000
1000
0000
1000
1000
1000
0000
,
0001
0000
0001
0000
0001
0001
0001
0000
,
1001
0000
0000
0000
;

//---------------dance-single - ----------------
#NOTEDATA:;
#CHARTNAME:;
#STEPSTYPE:dance-single;
#DESCRIPTION:;
#CHARTSTYLE:;
#DIFFICULTY:Easy;
#METER:4;
#RADARVALUES:0.285155,0.307397,0.279452,0.000000,0.000000,150.000000,129.000000,21.000000,0.000000,0.000000,0.000000,0.000000,0.000000,0.000000,0.285155,0.307397,0.279452,0.000000,0.000000,150.000000,129.000000,21.000000,0.000000,0.000000,0.000000,0.000000,0.000000,0.000000;
#CREDIT:;
#NOTES:
0000
0000
0000
0000
,
0000
0000
0000
0000
,
0000
0000
0000
0000
,
0000
0000
0000
0000
,
1000
1000
1000
1000
,
0001
0001
0001
0001
,
0100
0100
0010
0010
,
0110
0000
0000
0000
,
1001
0100
0000
0100
,
1001
0010
0000
0010
,
1001
1000
0000
1000
,
1001
0001
0000
0001
,
0110
0001
0000
0001
,
0110
1000
0000
1000
,
0110
0010
0000
0100
,
0110
0000
0000
0000
,
1001
1000
0001
0001
,
0100
0100
0010
0010
,
1001
0001
0100
0100
,
0010
0010
1000
1000
,
1010
0010
0100
0100
,
0001
0001
1000
1000
,
0101
0100
0010
0010
,
1000
1000
0001
0001
,
1000
1000
1000
0000
,
0001
0001
0001
0000
,
0100
0010
0100
0010
,
0100
0010
0100
0010
,
1001
0000
0100
0000
,
1001
0000
0100
0000
,
1000
0001
1000
0001
,
0110
0000
0000
0000
,
1001
1000
0001
1000
,
0001
0100
0010
0100
,
0001
1000
0100
1000
,
0001
0100
0010
0100
,
0110
1000
0010
1000
,
0001
0100
0001
0010
,
0001
1000
0100
1000
,
0010
0100
0001
0100
,
1001
0100
0000
0100
,
1001
0010
0000
0010
,
1001
0000
0000
0000
;

//---------------dance-single - ----------------
#NOTEDATA:;
#CHARTNAME:;
#STEPSTYPE:dance-single;
#DESCRIPTION:;
#CHARTSTYLE:;
#DIFFICULTY:Beginner;
#METER:2;
#RADARVALUES:0.152083,0.195617,0.186302,0.000000,0.000000,80.000000,66.000000,14.000000,0.000000,0.000000,0.000000,0.000000,0.000000,0.000000,0.152083,0.195617,0.186302,0.000000,0.000000,80.000000,66.000000,14.000000,0.000000,0.000000,0.000000,0.000000,0.000000,0.000000;
#CREDIT:;
#NOTES:
// measure 0
0000
0000
0000
0000
,  // measure 1
0000
0000
0000
0000
,  // measure 2
0000
0000
0000
0000
,  // measure 3
0000
0000
0000
0000
,  // measure 4
1000
1000
1000
0000
,  // measure 5
0001
0001
0001
0000
,  // measure 6
0100
0000
0010
0000
,  // measure 7
0110
0000
0000
0000
,  // measure 8
1001
0000
0000
0000
,  // measure 9
1001
0000
0000
0000
,  // measure 10
1001
0000
0000
0000
,  // measure 11
1001
0000
0000
0000
,  // measure 12
0110
0000
0000
0000
,  // measure 13
0110
0000
0000
0000
,  // measure 14
0110
0000
0000
0000
,  // measure 15
0110
0000
0000
0000
,  // measure 16
1000
1000
0000
0000
,  // measure 17
0100
0100
0000
0000
,  // measure 18
0001
0001
0000
0000
,  // measure 19
0010
0010
0000
0000
,  // measure 20
0010
0010
0000
0000
,  // measure 21
0001
0001
0000
0000
,  // measure 22
0100
0100
0000
0000
,  // measure 23
1000
1000
0000
0000
,  // measure 24
1000
1000
1000
0000
,  // measure 25
0001
0001
0001
0000
,  // measure 26
0100
0000
0100
0000
,  // measure 27
0100
0000
0100
0000
,  // measure 28
1001
0000
0000
0000
,  // measure 29
1001
0000
0000
0000
,  // measure 30
0110
0000
0000
0000
,  // measure 31
0110
0000
0000
0000
,  // measure 32
1000
1000
0000
0000
,  // measure 33
0001
0001
0000
0000
,  // measure 34
0001
0001
0000
0000
,  // measure 35
0100
0100
0000
0000
,  // measure 36
0010
0010
0000
0000
,  // measure 37
0100
0100
0000
0000
,  // measure 38
0001
0001
0000
0000
,  // measure 39
0010
0010
0000
0000
,  // measure 40
1000
0000
0000
0000
,  // measure 41
0001
0000
0000
0000
,  // measure 42
1001
0000
0000
0000
;
