#VERSION:0.83;
#TITLE:T-1000;
#SUBTITLE:;
#ARTIST:FEAR FACTORY;
#TITLETRANSLIT:;
#SUBTITLETRANSLIT:;
#ARTISTTRANSLIT:;
#GENRE:;
#ORIGIN:;
#CREDIT:;
#BANNER:T-1000.png;
#BACKGROUND:T-1000-bg.png;
#PREVIEWVID:;
#JACKET:T-1000-jacket.png;
#CDIMAGE:;
#DISCIMAGE:;
#LYRICSPATH:;
#CDTITLE:;
#MUSIC:T-1000.ogg;
#OFFSET:-0.123000;
#SAMPLESTART:49.159000;
#SAMPLELENGTH:20.406000;
#SELECTABLE:YES;
#BPMS:0.000=197.000,
391.000=49.250,
391.500=197.000,
397.500=49.250,
398.000=197.000,
404.000=49.250,
404.500=197.000,
410.500=49.250,
410.750=197.000;
#STOPS:;
#DELAYS:;
#WARPS:;
#TIMESIGNATURES:0.000=4=4;
#TICKCOUNTS:0.000=4;
#COMBOS:0.000=1;
#SPEEDS:0.000=1.000=0.000=0;
#SCROLLS:0.000=1.000;
#FAKES:;
#LABELS:0.000=Song Start;
#BGCHANGES:;
#KEYSOUNDS:;
#ATTACKS:
;

//---------------dance-single - Nifara----------------
#NOTEDATA:;
#CHARTNAME:Nifara;
#STEPSTYPE:dance-single;
#DESCRIPTION:Nifara;
#CHARTSTYLE:;
#DIFFICULTY:Beginner;
#METER:11;
#RADARVALUES:0.374573,0.508753,0.053355,0.007622,0.003811,344.000000,337.000000,7.000000,1.000000,0.000000,0.000000,0.000000,0.000000,0.000000,0.374573,0.508753,0.053355,0.007622,0.003811,344.000000,337.000000,7.000000,1.000000,0.000000,0.000000,0.000000,0.000000,0.000000;
#CREDIT:Nifara;
#NOTES:
0000
0000
0000
0000
,
0000
0000
0000
0000
,
0000
0000
0000
0000
,
0000
0000
0000
0000
,
0000
0000
0000
0000
,
0000
0000
0000
0000
,
0000
0000
0000
0000
,
0000
0000
0000
0000
,
0000
1000
0010
0100
,
0001
1000
0001
0100
,
1000
1100
1000
0100
,
0001
0010
0001
0100
,
0001
0101
0100
0001
,
0100
0001
1000
0010
,
1000
1001
1000
0001
,
0100
0010
1000
0001
,
0000
1000
0100
0010
,
1000
0010
0100
0010
,
1000
0100
0001
0010
,
1000
0100
0010
1000
,
0001
0100
0001
1000
,
0010
0100
0010
1000
,
0010
0100
0001
0100
,
0010
1000
0001
0100
,
1000
0100
0001
1000
,
0001
0010
1000
0001
,
0100
1000
0010
0100
,
0001
0010
0001
0100
,
0010
1000
0010
0100
,
0001
1000
0001
0100
,
0010
1000
0001
0100
,
0001
1000
1001
1001
,
1001
1001
1000
0001
,
0100
0001
1000
0010
,
0100
0001
0010
0001
,
0100
0010
1000
0001
,
0100
0001
0010
0001
,
0100
0001
1000
0001
,
1000
1000
0100
0010
,
0001
2000
0000
0000
,
0000
3001
0000
0000
,
0000
0001
0000
0000
,
0100
0010
0000
0000
,
1000
0100
0000
0000
,
0000
0100
0000
0000
,
0000
0001
0000
0000
,
1000
0001
0000
0000
,
1000
0010
0000
0000
,
0000
1000
0001
0000
,
0100
0010
1000
0000
,
0001
0100
0001
0000
,
1000
0010
0000
0000
,
0000
1000
0000
0001
,
0000
1000
0000
0001
,
0000
1000
0000
0001
,
0000
0100
0001
0100
,
0000
0100
0010
1000
,
0001
0100
1000
0010
,
0100
1000
0100
1000
,
0010
0100
1000
0100
,
0010
1000
0001
0100
,
0010
1000
0010
0100
,
0001
1000
0001
0100
,
0010
1000
0001
0100
,
0001
1000
0100
0010
,
0001
1000
0100
0010
,
0001
1000
0100
0010
,
0001
1000
0100
1000
,
1000
0100
0010
0001
,
1000
0100
0010
0001
,
1000
0100
0010
0001
,
1000
0100
0010
0001
,
0001
0010
0100
1000
,
0001
0010
0100
1000
,
0001
0010
0100
1000
,
0001
0010
0100
1000
,
0001
0010
0100
1000
,
0001
0010
0100
1000
,
0001
0010
0100
1000
,
0001
0010
0100
1000
,
0001
1000
0100
0010
,
0001
1000
0100
0010
,
0001
1000
0100
0010
,
0001
1000
0100
0010
,
0001
1000
0100
0010
,
0001
1000
0100
0010
,
0001
1000
0000
0010
,
0000
0010
0001
0010
,
0000
1000
0100
0010
,
0100
0001
0100
0001
,
0000
1000
0001
0100
,
0001
1000
0010
0100
,
0000
1000
0001
0100
,
0001
1000
0001
0100
,
0000
1000
0001
1000
,
0001
1000
0001
1000
,
0000
1000
0001
0100
,
0010
0000
1000
0000
0001
0000
0100
0001
,
0000
1000
0000
0001
0000
0100
0000
0001
,
0000
1000
0000
0001
0100
0000
1000
0000
,
0001
0100
0001
0100
,
0001
1000
0000
0100
0000
0010
0000
0001
,
0000
0000
0010
0000
0000
0000
0100
0000
0000
0000
1000
0001
0000
0000
0000
0000
;

//---------------dance-single - Nifara----------------
#NOTEDATA:;
#CHARTNAME:Nifara;
#STEPSTYPE:dance-single;
#DESCRIPTION:Nifara;
#CHARTSTYLE:;
#DIFFICULTY:Easy;
#METER:13;
#RADARVALUES:0.527016,0.704427,0.053355,0.000000,0.045733,484.000000,477.000000,7.000000,0.000000,0.000000,0.000000,0.000000,0.000000,0.000000,0.527016,0.704427,0.053355,0.000000,0.045733,484.000000,477.000000,7.000000,0.000000,0.000000,0.000000,0.000000,0.000000,0.000000;
#CREDIT:Nifara;
#NOTES:
// measure 0
0000
0000
0000
0000
,  // measure 1
0000
0000
0000
0000
,  // measure 2
0000
0000
0000
0000
,  // measure 3
0000
0000
0000
0000
,  // measure 4
0000
0000
0000
0000
,  // measure 5
0000
0000
0000
0000
,  // measure 6
0000
0000
0000
0000
,  // measure 7
0000
0000
0000
0000
,  // measure 8
0000
1000
0001
0100
,  // measure 9
1000
0001
0010
0001
,  // measure 10
0001
1000
0001
0000
0100
0000
0010
0000
,  // measure 11
1000
0010
0001
1000
,  // measure 12
0100
1000
0100
0000
0001
0000
0010
0000
,  // measure 13
0001
1000
0100
0001
,  // measure 14
0010
0100
0001
0000
1000
0000
0100
0000
,  // measure 15
0001
0010
1000
0001
,  // measure 16
0000
0000
0010
0100
1000
0010
0100
0001
,  // measure 17
0010
0100
1000
0001
0100
0001
0010
0001
,  // measure 18
1000
0100
0010
0001
0010
0100
0010
0001
,  // measure 19
1000
0001
0010
0100
1000
0010
0100
0001
,  // measure 20
0010
0100
1000
0001
0010
0001
0100
0010
,  // measure 21
1000
0010
0100
0001
0010
0001
0010
0100
,  // measure 22
1000
0010
0100
0001
0010
0100
0010
0001
,  // measure 23
0100
0001
0010
0001
1000
0010
1000
0100
,  // measure 24
0010
0000
0100
0010
1000
0100
1000
0100
,  // measure 25
0010
0001
1000
0100
1000
0010
1000
0100
,  // measure 26
0010
0001
0100
0010
0100
0010
1000
0001
,  // measure 27
0010
0100
1000
0010
0100
0001
0010
0100
,  // measure 28
1000
0100
0010
0100
1000
0010
1000
0100
,  // measure 29
0010
0100
1000
0010
0100
0001
1000
0010
,  // measure 30
1000
0100
0010
0100
0010
0001
0100
0010
,  // measure 31
1000
0001
0100
0010
1000
0000
0001
0000
,  // measure 32
0010
0000
0010
0100
1000
0001
0010
0100
,  // measure 33
1000
0100
1000
0010
0100
0001
0010
0001
,  // measure 34
0100
0001
0100
0010
1000
0100
0010
0001
,  // measure 35
0100
0010
1000
0100
1000
0100
1000
0010
,  // measure 36
0100
0001
1000
0100
1000
0001
0100
0010
,  // measure 37
1000
0001
0010
0100
0010
0001
0100
0001
,  // measure 38
0100
0010
1000
0100
0010
0001
1000
0100
,  // measure 39
0010
0001
1000
0100
0010
0001
1000
0100
,  // measure 40
0010
0000
0001
1000
0100
0000
0000
0000
0000
0000
0000
0000
0000
0000
0000
0000
,  // measure 41
0000
0010
0000
0000
,  // measure 42
1000
0001
0000
0000
,  // measure 43
0100
0010
0000
0000
,  // measure 44
0000
1000
0000
0000
,  // measure 45
0000
0001
0000
0000
,  // measure 46
0010
0001
0000
0000
,  // measure 47
1000
0100
0000
0000
,  // measure 48
0000
0000
0100
0000
0001
0000
0000
1000
,  // measure 49
0000
0000
0001
0000
0100
0000
0000
1000
,  // measure 50
0000
0001
0100
0000
,  // measure 51
1000
0001
0000
0000
,  // measure 52
0000
0100
0000
0100
,  // measure 53
0000
0100
0000
0100
,  // measure 54
0000
0100
0000
0100
,  // measure 55
0000
0000
0100
0010
0100
0010
0100
0000
,  // measure 56
0001
1000
1000
0001
,  // measure 57
0100
0000
0000
0001
1000
0000
0000
0000
0010
0000
0000
0000
0001
0000
0000
0000
,  // measure 58
1000
0000
0000
0001
1000
0000
0000
0000
0100
0000
0000
0000
0100
0000
0000
0000
,  // measure 59
0100
0000
0000
0010
0100
0000
0000
0000
1000
0000
0000
0000
0100
0000
0000
0000
,  // measure 60
0010
0100
0010
0100
,  // measure 61
0001
0000
0000
0010
1000
0000
0000
0000
0100
0000
0000
0000
0010
0000
0000
0000
,  // measure 62
0001
0000
0000
1000
0100
0000
0000
0000
0010
0000
0000
0000
1000
0000
0000
0000
,  // measure 63
0010
0000
0000
0001
0100
0000
0000
0000
0010
0000
0000
0000
0100
0000
0000
0000
,  // measure 64
0100
0001
0100
0000
1000
0000
0000
0000
1000
0000
0000
0000
0001
0000
0000
0000
,  // measure 65
0100
0001
0100
0010
,  // measure 66
1000
0100
0010
0100
,  // measure 67
0001
1000
0010
1000
,  // measure 68
0001
0100
0010
0000
0100
0000
0001
0000
,  // measure 69
0001
0010
0100
1000
,  // measure 70
0001
0100
1000
0001
,  // measure 71
0010
0000
0100
0000
1000
0100
0100
1000
,  // measure 72
0100
0100
1000
0000
0001
0000
0100
0000
,  // measure 73
0001
1000
0010
0100
,  // measure 74
0001
0000
0000
0001
0100
0000
0000
0000
1000
0000
0000
0000
0001
0000
0000
0000
,  // measure 75
0100
0000
0010
0000
1000
0001
0100
0010
,  // measure 76
1000
0001
0100
0000
0001
0000
1000
0000
,  // measure 77
0001
1000
0001
0000
1000
0000
0001
0000
,  // measure 78
1000
0001
1000
0000
0001
1000
0001
0000
,  // measure 79
1000
0001
1000
0001
1000
0001
1000
0001
,  // measure 80
1000
0001
1000
0000
0001
0000
0100
0000
,  // measure 81
0010
1000
0001
0100
,  // measure 82
0010
0000
0000
1000
0001
0000
0000
0000
1000
0000
0000
0000
0100
0000
0000
0000
,  // measure 83
0001
0000
0100
0000
1000
0001
0100
0010
,  // measure 84
1000
0001
0100
0000
0001
0000
0100
0000
,  // measure 85
0010
1000
0001
0100
,  // measure 86
0001
0000
0000
0010
0100
0000
0000
0000
1000
0000
0000
0000
0001
0000
0000
0000
,  // measure 87
0100
0000
0010
1000
0001
0100
0010
1000
,  // measure 88
0001
0100
0001
1000
,  // measure 89
0010
0100
0001
1000
,  // measure 90
0000
1000
0001
0100
,  // measure 91
0010
1000
0001
0100
,  // measure 92
0000
0100
0001
1000
,  // measure 93
0010
0100
0001
1000
,  // measure 94
0000
0100
0010
1000
,  // measure 95
0001
0000
0100
0000
0001
0000
0100
0001
,  // measure 96
0100
0001
0100
0000
1000
0000
0001
0000
,  // measure 97
0100
0000
0010
0000
1000
0000
1001
1001
,  // measure 98
0000
0001
0000
1000
0000
0001
0000
1000
,  // measure 99
0000
0001
0000
1001
1001
0000
1000
0000
,  // measure 100
0001
1000
0001
1000
,  // measure 101
1001
1001
0000
1000
0000
0001
0000
1000
,  // measure 102
0000
0000
0001
0000
0000
0000
1000
0000
0000
0000
1001
0001
0000
0000
0000
0000
;

//---------------dance-single - Nifara----------------
#NOTEDATA:;
#CHARTNAME:Nifara;
#STEPSTYPE:dance-single;
#DESCRIPTION:Nifara;
#CHARTSTYLE:;
#DIFFICULTY:Medium;
#METER:15;
#RADARVALUES:0.623925,0.978371,0.342996,0.060977,0.034300,573.000000,528.000000,45.000000,8.000000,0.000000,0.000000,0.000000,0.000000,0.000000,0.623925,0.978371,0.342996,0.060977,0.034300,573.000000,528.000000,45.000000,8.000000,0.000000,0.000000,0.000000,0.000000,0.000000;
#CREDIT:Nifara;
#NOTES:
// measure 0
0000
0000
0000
0000
,  // measure 1
0000
0000
0000
0000
,  // measure 2
0000
0000
0000
0000
,  // measure 3
0000
0000
0000
0000
,  // measure 4
0000
0000
0000
0000
,  // measure 5
0000
0000
0000
0000
,  // measure 6
0000
0000
0000
0000
,  // measure 7
0000
0000
0000
0000
,  // measure 8
0000
1001
0100
1001
,  // measure 9
0100
0001
0101
1000
,  // measure 10
0100
0001
0100
0000
0001
0000
0101
0000
,  // measure 11
1000
0101
1000
0101
,  // measure 12
1000
0001
0100
0000
1001
0000
0100
0000
,  // measure 13
1001
0001
1100
0001
,  // measure 14
1000
0100
0010
0000
1000
0000
0001
0000
,  // measure 15
0100
1000
0001
0101
,  // measure 16
0000
0000
1000
0001
0100
0001
1000
0001
,  // measure 17
0100
0010
0100
0001
1000
0010
0100
0001
,  // measure 18
1000
0001
0100
0010
1000
0001
0100
0001
,  // measure 19
0010
0001
0100
0010
1000
0001
0100
0010
,  // measure 20
0100
0010
0100
0001
1000
0001
0100
0010
,  // measure 21
0100
0010
1000
0001
0100
0010
1000
0001
,  // measure 22
0100
0001
1000
0010
0100
0001
1000
0001
,  // measure 23
0100
0010
1000
0001
0100
0001
1000
0010
,  // measure 24
0100
0000
1000
0001
0100
0001
0100
0010
,  // measure 25
1000
0001
0100
0001
1000
0010
0100
0010
,  // measure 26
1000
0100
0010
0001
0100
0010
1000
0001
,  // measure 27
0100
0010
1000
0001
0010
0100
0010
0001
,  // measure 28
0010
0001
1000
0010
1000
0010
1000
0100
,  // measure 29
0010
0001
0100
0010
0100
0010
0100
0001
,  // measure 30
1000
0010
1000
0001
1000
0010
0100
0001
,  // measure 31
0100
1000
0100
0010
0001
0000
0010
0000
,  // measure 32
0100
0000
0010
0100
0010
0001
1000
0100
,  // measure 33
0010
0001
0100
0010
0100
0010
1000
0001
,  // measure 34
0100
0010
1000
0100
0010
0001
0010
0001
,  // measure 35
0100
0010
0100
0001
0010
0001
1000
0010
,  // measure 36
1000
0001
1000
0001
1000
0001
1000
0001
,  // measure 37
1000
0001
1000
0001
1000
0001
1000
0001
,  // measure 38
1000
0001
1000
0001
1000
0001
1000
0001
,  // measure 39
1000
0000
0001
0000
1000
0100
0010
0001
1000
0100
0010
0001
1000
0100
0010
0001
,  // measure 40
1000
0100
0010
0001
1000
0000
0000
0000
0000
0000
0000
0000
0000
0000
0000
0000
,  // measure 41
0000
0010
0000
0000
,  // measure 42
1000
0001
0000
0000
,  // measure 43
0100
0010
0000
0000
,  // measure 44
0000
1000
0000
0000
,  // measure 45
0000
0010
0000
0000
,  // measure 46
0100
0010
0000
0000
,  // measure 47
0100
1000
0000
0000
,  // measure 48
0000
1000
0001
0000
,  // measure 49
0100
0010
0001
0000
,  // measure 50
1000
0100
0010
0000
,  // measure 51
0010
0001
0000
0000
,  // measure 52
0000
0000
1001
0000
0000
1000
0100
1000
,  // measure 53
0000
0000
0110
0000
0000
0100
0010
0100
,  // measure 54
0010
0000
0110
0000
0000
0010
0001
0010
,  // measure 55
0000
0000
1000
0100
0010
0001
1000
0000
,  // measure 56
1000
0000
0100
0010
1000
0010
0100
0001
,  // measure 57
1000
0001
0100
0010
0100
0001
1000
0001
,  // measure 58
0100
0010
0100
0010
1000
0001
0100
0001
,  // measure 59
1000
0001
1001
0000
0110
0100
1000
0100
,  // measure 60
0010
1000
0001
0100
0001
0100
0100
0100
,  // measure 61
0001
0010
0001
0010
0100
0010
0001
0010
,  // measure 62
0100
0010
0001
0010
0100
0010
0001
0010
,  // measure 63
0100
0010
0001
0010
0100
0010
0001
0100
,  // measure 64
0001
0100
0010
0000
1000
0000
1000
0000
,  // measure 65
1000
0100
0100
0100
,  // measure 66
0010
0010
0010
0001
,  // measure 67
0001
0001
1000
1000
,  // measure 68
0100
0100
0100
0000
0010
0000
0010
0000
,  // measure 69
0010
0001
0001
0001
,  // measure 70
1000
1000
1000
0100
,  // measure 71
0100
0000
0100
0000
0010
0001
0001
0001
,  // measure 72
0001
0001
1000
0000
1000
0000
0100
0000
,  // measure 73
0100
1000
1000
0100
,  // measure 74
0100
1000
0100
0000
1000
0000
0001
0000
,  // measure 75
1000
0000
0001
0000
1000
0001
0100
0010
,  // measure 76
1000
0001
0100
0000
1000
0001
0100
0010
,  // measure 77
1000
0001
0100
0010
1000
0001
0100
0010
,  // measure 78
1000
0010
1000
0000
1000
0000
0001
0000
,  // measure 79
0100
0000
0010
1000
0001
0100
0001
0100
,  // measure 80
0010
1000
0001
0000
0100
0000
0010
0000
,  // measure 81
1000
0001
0100
0010
,  // measure 82
1000
0001
0100
0000
0001
0000
1000
0000
,  // measure 83
0100
0000
1000
0100
0100
0010
0100
1000
,  // measure 84
0100
1000
0100
0000
0100
0000
0010
0000
,  // measure 85
1000
0010
1000
0000
0100
0000
0011
0000
,  // measure 86
0100
0001
0100
0000
0001
0100
0010
1000
,  // measure 87
0010
0100
0001
1000
0010
0100
0010
1000
,  // measure 88
0001
0100
0001
0000
1000
0000
0010
0000
,  // measure 89
0100
0001
1000
0010
,  // measure 90
1000
0001
1000
0000
0001
0000
0100
0000
,  // measure 91
0010
1000
0010
1000
,  // measure 92
1000
0100
1000
0000
0010
0000
0100
0000
,  // measure 93
0001
0000
1000
0000
0001
0000
0100
0010
,  // measure 94
0100
0010
1000
0001
0100
0000
0001
0000
,  // measure 95
1000
0010
0100
0010
,  // measure 96
0000
1001
0101
1010
,  // measure 97
0101
0000
0000
0000
1001
0000
0000
0000
0110
0000
0000
0000
2002
3003
1100
0000
,  // measure 98
0000
1001
0000
0110
0000
0011
0000
0101
,  // measure 99
0000
0000
1001
0000
0000
0000
2200
3300
1001
0000
0000
0000
1100
0000
0000
0000
,  // measure 100
0110
1001
1010
1001
,  // measure 101
0202
0303
1001
0000
0000
0000
0101
0000
0000
0000
1010
0000
0000
0000
0110
0000
,  // measure 102
0000
0000
0000
0000
0101
0000
0000
0000
0000
0000
0000
0000
1001
0000
0000
0000
0000
0000
0000
0000
0202
0303
0101
0000
0000
0000
0000
0000
0000
0000
0000
0000
;

//---------------dance-single - Nifara----------------
#NOTEDATA:;
#CHARTNAME:Nifara;
#STEPSTYPE:dance-single;
#DESCRIPTION:Nifara;
#CHARTSTYLE:;
#DIFFICULTY:Hard;
#METER:18;
#RADARVALUES:0.817745,1.344352,1.638757,0.053355,0.129576,751.000000,536.000000,215.000000,7.000000,0.000000,0.000000,0.000000,0.000000,0.000000,0.817745,1.344352,1.638757,0.053355,0.129576,751.000000,536.000000,215.000000,7.000000,0.000000,0.000000,0.000000,0.000000,0.000000;
#CREDIT:Nifara;
#NOTES:
// measure 0
0000
0000
0000
0000
,  // measure 1
0000
0000
0000
0000
,  // measure 2
0000
0000
0000
0000
,  // measure 3
0000
0000
0000
0000
,  // measure 4
0000
0000
0000
0000
,  // measure 5
0000
0000
0000
0000
,  // measure 6
0000
0000
0000
0000
,  // measure 7
0000
0000
0000
0000
,  // measure 8
0000
1100
0110
0011
,  // measure 9
0110
1100
0110
0110
,  // measure 10
1100
0000
0010
0100
0010
0000
0000
0000
1001
0000
0000
0000
0101
0000
0000
0000
,  // measure 11
0101
1010
0101
0011
,  // measure 12
0101
0000
0100
0001
0100
0000
0000
0000
1010
0000
0000
0000
0110
0000
0000
0000
,  // measure 13
1010
0101
0011
0101
,  // measure 14
0110
0000
0100
0010
0001
0000
0000
0000
1010
0000
0000
0000
0110
0000
0000
0000
,  // measure 15
0011
0011
0110
1100
,  // measure 16
0000
0000
1000
0001
0100
0001
0100
0010
,  // measure 17
1000
0001
0100
0010
1000
0100
0010
0100
,  // measure 18
0001
0000
0010
0100
1000
0000
0010
0000
1000
0000
0100
0000
1000
0000
0010
0000
,  // measure 19
0100
0001
0100
0010
1000
0100
0010
0100
,  // measure 20
0001
0000
0100
0010
0001
0000
1000
0000
0010
0000
0100
0000
0001
0000
0010
0000
,  // measure 21
0001
0100
0010
1000
0100
0010
0100
0001
,  // measure 22
0010
0000
0001
0010
0100
0000
0010
0000
1000
0000
0100
0000
0010
0000
0100
0000
,  // measure 23
0001
0010
0001
0100
0010
1000
0100
0010
,  // measure 24
0110
0000
0001
1000
0001
0100
0001
0100
,  // measure 25
0010
1000
0010
0100
1000
0010
0100
1000
,  // measure 26
0010
0000
1000
0100
0010
0000
1000
0000
0100
0000
0001
0000
0010
0000
0001
0000
,  // measure 27
0100
0010
0100
1000
0100
0010
0100
0001
,  // measure 28
0100
0000
0010
0100
1000
0000
0010
0000
0100
0000
0010
0000
0001
0000
1000
0000
,  // measure 29
0010
0100
1000
0100
0010
0100
1000
0010
,  // measure 30
0100
0000
0001
0100
0010
0000
0100
0000
1000
0000
0010
0000
0100
0000
0010
0000
,  // measure 31
0100
0010
1000
0000
1010
0000
0101
0000
,  // measure 32
0110
0000
1000
0010
0100
0001
0010
0001
,  // measure 33
1000
0010
1000
0001
0100
0001
0010
0001
,  // measure 34
0100
0000
0010
0001
0010
0000
0001
0000
0100
0000
0001
0000
0100
0000
0001
0000
,  // measure 35
0100
0010
1000
0010
0100
0001
0010
0001
,  // measure 36
0100
0010
1000
0001
0010
0001
0100
0010
,  // measure 37
1000
0100
1000
0100
0010
0001
1000
0010
,  // measure 38
0100
0000
0000
0000
1000
0100
0010
0001
1000
0100
0010
0001
1000
0100
0010
0001
,  // measure 39
1000
0100
0010
0001
1000
0100
0010
0001
1000
0100
0010
0001
1000
0100
0010
0001
,  // measure 40
1000
0000
0100
0000
0010
0000
0001
1000
0100
0000
0000
0000
0000
0000
0000
0000
0000
0000
0000
0000
0000
0000
0000
0000
0000
0000
0000
0000
0000
0000
0000
0000
,  // measure 41
0000
1001
0000
0000
,  // measure 42
0101
0011
0000
0000
,  // measure 43
0110
1010
0000
0000
,  // measure 44
0000
1100
0000
0000
,  // measure 45
0000
0101
0000
0000
,  // measure 46
1010
0101
0000
0000
,  // measure 47
0110
1100
0000
0000
,  // measure 48
0000
0101
0010
0000
,  // measure 49
0101
0010
0100
0000
,  // measure 50
1001
0100
0010
0000
,  // measure 51
1001
0001
1000
0000
,  // measure 52
0000
0000
0101
0000
0000
0100
0010
0001
,  // measure 53
0000
0000
0101
0000
0000
1000
0100
1000
,  // measure 54
0000
0000
1100
0000
0000
0100
0001
0100
,  // measure 55
0000
0000
1000
0001
1000
0001
1000
0001
,  // measure 56
1000
0000
0010
0100
1000
0100
0010
0001
,  // measure 57
0100
0001
0010
0001
1000
0010
1000
0001
,  // measure 58
0010
0001
1000
0100
1000
0010
0100
0001
,  // measure 59
0100
0001
1000
0100
0010
0100
0010
0100
,  // measure 60
1000
0001
0010
0100
0010
0001
0100
0010
,  // measure 61
0100
0001
1000
0010
0100
0001
0010
0001
,  // measure 62
0010
0100
1000
0010
1000
0100
1000
0010
,  // measure 63
0100
0001
1000
0010
0100
0001
0010
0001
,  // measure 64
0101
1100
0110
0011
,  // measure 65
0110
1100
0110
0011
,  // measure 66
0101
1010
0101
0110
,  // measure 67
1100
0110
1001
0101
,  // measure 68
0110
0011
0110
0000
1010
0000
0110
0000
,  // measure 69
0101
0011
0110
1100
,  // measure 70
0110
0011
1100
0110
,  // measure 71
0011
0000
0011
0000
0110
1100
0110
0011
,  // measure 72
0110
1100
0110
0011
1100
0000
1001
0000
,  // measure 73
0101
0110
1010
0101
,  // measure 74
0011
0000
0100
0010
0001
0000
0000
0000
1010
0000
0000
0000
0101
0000
0000
0000
,  // measure 75
0011
0000
0110
0000
1001
0101
0101
0011
,  // measure 76
0110
0110
1100
0000
0110
0000
0110
0000
,  // measure 77
0011
1100
0110
0000
1100
0000
0110
0000
,  // measure 78
0101
0101
0110
0000
1100
1010
1100
0101
,  // measure 79
0110
0101
0110
1010
0011
0101
0011
0110
,  // measure 80
0110
1010
0101
0000
1100
0000
0101
0000
,  // measure 81
0110
1001
0101
0011
,  // measure 82
1000
0100
0010
0001
1000
0000
0000
0000
0110
0000
0000
0000
0011
0000
0000
0000
,  // measure 83
0110
0000
1100
0000
0110
0110
0011
0011
,  // measure 84
0110
0110
1100
0000
0110
0000
0110
0000
,  // measure 85
0011
0101
0110
1100
,  // measure 86
0110
0000
0000
1000
0010
0000
0000
0000
0101
0000
0000
0000
1100
0000
0000
0000
,  // measure 87
0110
0000
0000
0000
0011
0000
1000
0000
0001
0000
1000
0000
0001
1000
0001
1000
,  // measure 88
0001
1001
0110
0101
,  // measure 89
0011
0110
1100
1010
,  // measure 90
0000
0101
0110
1100
,  // measure 91
1100
0110
0101
0011
,  // measure 92
0000
0101
1010
0101
,  // measure 93
0011
0101
1010
1000
,  // measure 94
0000
1001
0101
0110
,  // measure 95
1100
0110
1001
0110
,  // measure 96
0000
1001
0101
1001
,  // measure 97
0110
0000
0000
0000
1001
0000
0000
0000
0110
0000
0000
0000
2200
3300
1001
0000
,  // measure 98
0000
1010
0000
0011
0000
1010
0000
0110
,  // measure 99
0000
0000
0011
0000
0000
0000
2020
3030
1001
0000
0000
0000
1100
0000
0000
0000
,  // measure 100
1010
0101
1010
0101
,  // measure 101
1001
0101
0000
1010
0000
0101
0000
1001
,  // measure 102
0000
0000
0000
0000
0110
0000
0000
0000
0000
0000
0000
0000
1001
0000
0000
0000
0000
0000
0000
0000
0220
0330
2000
0000
0000
0000
0000
0000
0000
0000
0000
0000
,  // measure 103
0000
0000
0000
3000
;

//---------------dance-single - O THNAP and Nifara----------------
#NOTEDATA:;
#CHARTNAME:O THNAP and Nifara;
#STEPSTYPE:dance-single;
#DESCRIPTION:O THNAP and Nifara;
#CHARTSTYLE:;
#DIFFICULTY:Challenge;
#METER:20;
#RADARVALUES:1.023543,1.917608,2.210416,0.045733,0.247719,940.000000,650.000000,290.000000,6.000000,0.000000,0.000000,0.000000,0.000000,0.000000,1.023543,1.917608,2.210416,0.045733,0.247719,940.000000,650.000000,290.000000,6.000000,0.000000,0.000000,0.000000,0.000000,0.000000;
#CREDIT:O THNAP and Nifara;
#NOTES:
// measure 0
0000
0000
0000
0000
,  // measure 1
0000
0000
0000
0000
,  // measure 2
0000
0000
0000
0000
,  // measure 3
0000
0000
0000
0000
,  // measure 4
0000
0000
0000
0000
,  // measure 5
0000
0000
0000
0000
,  // measure 6
0000
0000
0000
0000
,  // measure 7
0000
0000
0000
0000
,  // measure 8
0000
0110
0101
1010
,  // measure 9
1100
1001
0011
1010
,  // measure 10
0011
0000
0001
0010
1000
0000
0000
0000
0101
0000
0000
0000
0110
0000
0000
0000
,  // measure 11
1001
1100
0101
1010
,  // measure 12
0110
0000
0100
0010
1000
0000
0000
0000
0110
0000
0000
0000
1100
0000
0000
0000
,  // measure 13
1010
1001
0101
1010
,  // measure 14
0101
0000
0100
0010
0001
0000
0000
0000
1001
0000
0000
0000
0101
0000
0000
0000
,  // measure 15
1010
0011
1010
1100
,  // measure 16
0000
0000
1100
0001
0110
1000
0011
0100
,  // measure 17
1010
0001
0101
1000
1010
0100
1100
0010
,  // measure 18
0011
0000
0100
0010
1000
0000
0010
0000
0110
0000
1000
0000
1010
0000
0100
0000
,  // measure 19
1001
0010
1100
0001
0101
0010
1010
0100
,  // measure 20
0011
0000
1000
0001
0100
0000
1000
0000
1100
0000
0001
0000
1010
0000
0100
0000
,  // measure 21
0011
0100
0101
1000
1010
0001
1100
0010
,  // measure 22
0110
0000
0100
0001
1000
0000
0010
0000
0011
0000
0100
0000
1010
0000
0001
0000
,  // measure 23
0110
0001
1001
0010
1100
0010
0101
0010
,  // measure 24
1010
0000
0101
1000
0110
1000
0101
0010
,  // measure 25
1010
0100
1100
0001
0011
1000
0101
1000
,  // measure 26
1010
0000
0001
0010
0100
0000
0100
0000
0110
0000
0001
0000
1100
0000
0010
0000
,  // measure 27
1010
0100
0101
1000
1010
0100
1100
0010
,  // measure 28
0011
0000
0100
1000
0001
0000
0100
0000
1100
0000
0001
0000
0101
0000
0010
0000
,  // measure 29
1010
0100
0110
1000
1100
0001
1001
0100
,  // measure 30
0101
0000
0010
0001
1000
0000
0100
0000
1100
0000
0001
0000
1010
0000
0100
0000
,  // measure 31
0101
1000
1100
0010
0110
0000
1001
0000
,  // measure 32
0101
0000
1001
0010
0101
1000
0110
0001
,  // measure 33
1100
0010
0101
1000
1100
0001
0110
0001
,  // measure 34
1001
0000
0100
1000
0010
0000
0001
0000
1100
0000
0010
0000
1010
0000
0100
0000
,  // measure 35
0101
1000
0011
0100
1100
0010
1010
0001
,  // measure 36
1001
0000
0100
0001
0010
0000
0001
0000
1100
0000
0001
0000
1010
0000
0100
0000
,  // measure 37
0101
0010
1000
0001
1000
0001
1000
0001
,  // measure 38
1000
0000
0001
0000
1000
0100
0010
0001
1000
0100
0010
0001
1000
0100
0010
0001
,  // measure 39
1000
0000
0100
0000
0010
0000
0001
0000
0001
0010
0100
1000
0001
0010
0100
1000
0001
0010
0100
1000
0001
0010
0100
1000
0001
0010
0100
1000
0001
0010
0100
1000
,  // measure 40
0001
0010
0100
1000
0001
0010
0100
1000
0001
0000
0000
0000
0100
0000
0001
0000
0100
0000
0000
0000
0001
0000
0000
0000
1000
0000
0000
0000
0001
0000
0000
0000
,  // measure 41
1000
0000
0001
0000
0011
0000
0010
0001
0010
0000
0001
0000
1000
0000
0010
0000
,  // measure 42
0101
0000
0001
0000
1001
0000
1000
0010
1000
0000
0100
0000
1000
0000
0010
0000
,  // measure 43
1010
0000
0100
0000
0110
0000
0100
0001
0100
0000
0010
0000
1000
0000
0010
0000
,  // measure 44
1000
0000
0010
0000
0110
0000
0100
0001
0100
0000
0001
0000
1000
0000
0100
0000
,  // measure 45
0010
0000
0001
0000
1001
0000
1000
0001
0100
0000
0010
0000
0100
0000
0001
0000
,  // measure 46
1100
0000
1001
0000
0011
0000
1000
0001
1000
0000
0010
0000
1000
0000
0010
0000
,  // measure 47
0101
0000
0001
0000
0011
0000
0001
1000
0100
0000
1000
0000
0010
0000
1000
0000
,  // measure 48
0100
0000
0010
0000
1100
0000
0001
1000
0001
0000
0100
0000
0010
0000
1000
0000
,  // measure 49
0100
0000
0100
0000
0011
0000
0001
1000
0001
0000
0100
0000
0010
0000
1000
0000
,  // measure 50
1010
0000
1000
0000
0110
0000
0010
1000
0100
0000
1000
0000
0001
0000
0100
0000
,  // measure 51
1001
0000
0001
0000
0110
0000
0001
0010
0001
0000
1000
0000
0010
0000
1000
0000
,  // measure 52
0001
0000
1000
0000
1010
0000
1000
0010
0100
0000
0100
0000
0001
0000
1000
0000
,  // measure 53
0001
0000
0010
0000
1100
0000
0100
1000
0100
0000
0100
0000
1000
0000
0010
0000
,  // measure 54
0100
0000
0001
0000
1001
0000
0100
0001
0100
0000
0001
0000
1000
0000
0010
0000
,  // measure 55
1000
0000
0001
0000
0011
0000
0100
0000
1000
0000
0001
0010
0100
0000
0001
0000
,  // measure 56
1000
0001
1001
0100
0101
1000
0110
0001
,  // measure 57
0011
0100
1010
0001
1100
0010
0110
0001
,  // measure 58
0101
1000
1100
0001
1010
0100
1001
0010
,  // measure 59
0101
1000
0011
1000
1010
0100
1001
0100
,  // measure 60
0110
0001
1010
0100
0101
1000
0011
1000
,  // measure 61
1001
0100
1100
0001
1010
0100
0101
1000
,  // measure 62
1010
0001
0110
0001
1100
0001
1001
0010
,  // measure 63
0011
0100
1100
0001
1010
0100
1001
0100
,  // measure 64
0110
1000
1010
0000
1001
0000
1100
0000
,  // measure 65
0101
0110
0011
1010
,  // measure 66
1100
1001
1100
0011
,  // measure 67
0101
0110
1010
0011
,  // measure 68
1001
0101
1010
0000
1100
0000
1100
0000
,  // measure 69
0101
0011
1010
0110
,  // measure 70
1001
0101
1010
1100
,  // measure 71
0011
0000
1100
0000
0110
0101
1001
0011
,  // measure 72
1010
1100
1001
0000
1010
0000
0101
0000
,  // measure 73
0110
1001
1100
0011
,  // measure 74
1100
0000
0100
0010
1000
0000
0000
0000
1100
0000
0000
0000
0101
0000
0000
0000
,  // measure 75
1010
0000
0011
0000
1100
0011
1001
0101
,  // measure 76
1010
1100
1001
0000
0110
0000
0101
0000
,  // measure 77
1010
0101
1100
0011
,  // measure 78
1010
1001
1100
0101
,  // measure 79
0011
0000
1100
0000
0101
1001
1010
0110
,  // measure 80
1100
1001
0011
0000
0101
0000
1010
0000
,  // measure 81
0101
1100
1001
0110
,  // measure 82
0101
0000
0100
0010
0001
0000
0000
0000
0101
0000
0000
0000
1010
0000
0000
0000
,  // measure 83
1100
0000
1001
0000
0110
1001
0101
1100
,  // measure 84
1010
1001
0110
0000
0101
0000
1010
0000
,  // measure 85
1001
0011
1010
0101
,  // measure 86
1100
0000
0000
1000
0010
0000
0000
0000
0101
0000
0000
0000
1010
0000
0000
0000
,  // measure 87
1001
0000
0000
0000
0101
0000
0100
1000
0001
0000
1000
0010
0100
0000
0001
0000
,  // measure 88
1000
0010
0001
0000
0100
0000
0010
0000
,  // measure 89
0100
0001
1000
0010
,  // measure 90
0000
0100
1000
0010
,  // measure 91
0100
0001
1000
0010
,  // measure 92
0000
1000
0100
0010
,  // measure 93
0001
0100
0010
1000
,  // measure 94
0000
0001
1000
0010
,  // measure 95
0100
0001
0100
0010
,  // measure 96
0000
1100
0101
1001
,  // measure 97
1010
0000
0000
0000
0101
0000
0000
0000
1010
0000
0000
0000
0220
0330
0101
0000
,  // measure 98
0000
1010
0000
1001
0000
1100
0000
0101
,  // measure 99
0000
0000
1010
0000
0000
0000
0022
0033
1010
0000
0000
0000
1010
0000
0000
0000
,  // measure 100
1100
0101
1010
0101
,  // measure 101
2200
3300
0101
0000
0000
0000
1010
0000
0000
0000
0101
0000
0000
0000
1100
0000
,  // measure 102
0000
0000
0011
0000
0000
0000
1010
0000
0000
0000
1001
0110
0000
0000
0000
0000
;
