#TITLE:Synchronized Love;
#SUBTITLE:(J-Rap Jam);
#ARTIST:Joe Rinoie;
#TITLETRANSLIT:;
#SUBTITLETRANSLIT:;
#ARTISTTRANSLIT:;
#GENRE:;
#CREDIT:;
#BANNER:;
#BACKGROUND:Synchronized Love (J-Rap Jam)-bg.jpg;
#LYRICSPATH:;
#CDTITLE:;
#MUSIC:Synchronized Love (J-Rap Jam).ogg;
#OFFSET:-1.540000;
#SAMPLESTART:65.320099;
#SAMPLELENGTH:12.000000;
#SELECTABLE:YES;
#BPMS:0.000000=124.120247
;
#STOPS:
;
#BGCHANGES:;
#KEYSOUNDS:;
#ATTACKS:;

//---------------dance-single - ----------------
#NOTES:
     dance-single:
     :
     Hard:
     11:
     0.430249,0.447933,0.153139,0.000000,0.056151,295.000000,280.000000,15.000000,0.000000,0.000000,0.000000,0.430249,0.447933,0.153139,0.000000,0.056151,295.000000,280.000000,15.000000,0.000000,0.000000,0.000000:
0000
0000
0000
0000
,
0000
0000
0000
0000
,
0000
0000
0000
0000
,
0000
0000
0000
0000
,
0000
0000
0000
0000
,
1000
0100
0010
0001
0010
0100
0010
0001
,
0010
0100
0010
0001
0010
0100
0010
0001
,
1000
0010
0100
0010
1000
0010
0100
0010
,
1000
0010
0100
0010
1000
0010
0100
0000
,
1001
0000
1000
0000
0001
0100
0001
0000
,
1000
0000
0100
0000
1000
0010
0100
0000
,
0010
0000
1000
0000
0100
1000
0010
0000
,
0100
0000
0001
0000
0010
0001
0100
0000
,
0010
1000
0100
1000
,
0010
0100
0001
0100
,
0010
0100
0100
0100
,
1001
0000
0100
1001
0000
0100
1001
0000
,
1000
0000
0010
0100
0001
0000
0010
0001
,
0100
0000
0010
1000
0100
0000
1000
0010
,
0100
0000
0001
0100
0010
0000
1000
0100
,
1000
0000
0000
0000
0001
0000
0100
0000
0001
0000
1000
0000
0100
0000
0000
1000
,
0100
0100
0000
1000
0000
0100
0000
0010
,
0001
0000
0000
0010
0000
0000
0001
0000
1000
0000
0000
0010
0000
0000
0100
0000
,
0001
0000
0001
0001
0001
0000
0001
0000
,
1000
0000
1000
1000
1000
0000
1000
0000
,
1000
0100
0010
0000
0001
0010
0100
0000
,
1000
0100
0010
0000
0001
0010
0100
0000
,
1000
0100
0000
0010
0001
0000
0000
0000
0001
0010
0000
0100
1000
0000
0000
0000
,
1000
0010
0000
0100
0001
0000
0000
0000
0001
0100
0000
0010
1000
0000
0000
0000
,
1001
0000
0100
0100
0100
0000
0100
0000
,
1001
0000
0100
0100
0100
0000
0100
0000
,
1001
0000
0100
0100
0100
0000
0100
0000
,
1001
0110
1001
0110
,
1000
0100
1000
0010
0100
0010
0100
0001
,
0100
0010
1000
0100
1000
0010
0100
0001
,
0100
0010
1000
0100
0010
0001
0100
0010
,
1000
0100
0010
0001
0100
0010
1000
0100
,
0010
0100
1000
0010
0100
0001
0100
0010
,
0100
0001
1000
0100
0010
0100
1000
0010
,
0100
0010
0100
0001
0100
0010
0100
0001
,
0100
0010
1000
0100
1000
0010
1000
0100
,
1000
0110
0001
0110
,
1000
0100
0010
0001
1000
0100
0010
0001
,
1000
0110
0001
0110
,
1000
0010
0100
0001
1000
0010
0100
0001
,
1000
0100
0010
0001
0010
0100
0010
0001
,
0010
0100
0010
0001
0010
0100
0010
0001
,
1000
0010
0100
0010
1000
0010
0100
0010
,
1000
0010
0100
0010
1000
0010
0100
0000
;

//---------------dance-single - ----------------
#NOTES:
     dance-single:
     :
     Medium:
     8:
     0.332531,0.373277,0.183767,0.000000,0.000000,228.000000,210.000000,18.000000,0.000000,0.000000,0.000000,0.332531,0.373277,0.183767,0.000000,0.000000,228.000000,210.000000,18.000000,0.000000,0.000000,0.000000:
0000
0000
0000
0000
,
0000
0000
0000
0000
,
0000
0000
0000
0000
,
0000
0000
0000
0000
,
0000
0000
0000
0000
,
1000
1000
1000
0000
0001
0001
0001
0000
,
1000
1000
1000
0000
0001
0001
0001
0000
,
0100
0010
0100
0010
,
0100
0010
0100
0010
0100
0000
0100
0000
,
1001
0000
1000
0000
0001
0100
0001
0000
,
1000
0000
0100
0000
1000
0010
0100
0000
,
0010
0000
1000
0000
0100
1000
0010
0000
,
0100
0000
0001
0000
0010
0001
0100
0000
,
0010
1000
0100
1000
,
0010
0100
0001
0100
,
0010
0100
0100
0100
,
1001
0000
0000
1001
0000
0100
0010
0000
,
1000
0000
0010
0100
0001
0000
0010
0001
,
0100
0000
0010
1000
0100
0000
1000
0010
,
0100
0000
0001
0100
0010
0000
1000
0100
,
1000
0000
0001
0100
0001
0000
1000
0000
,
0100
0100
0000
1000
0000
0100
0000
0010
,
0000
0001
0000
0001
0000
1000
0000
0100
,
1000
0000
0001
0001
0001
0000
0001
0000
,
1000
0000
1000
1000
1000
0000
1000
0000
,
1000
0010
0001
0100
,
1000
0010
0001
0100
,
1000
0010
0001
0100
,
1000
0010
0001
0100
,
1001
0100
0100
0100
,
0100
0100
0100
0100
,
1001
0100
0100
0100
,
1001
0100
1001
1001
,
1001
0000
1000
1000
1000
0000
0001
0000
,
0100
0000
0010
0010
0010
0000
0100
0000
,
0001
0000
0100
0100
0100
0000
0001
0000
,
1000
0000
0001
0001
0001
0000
1000
0000
,
1000
0100
1000
0010
,
0100
0001
0010
0001
,
0100
1001
1001
1001
,
1001
0100
1001
1000
,
1000
0110
0001
0110
,
1000
1000
1000
0000
0001
0001
0001
0000
,
1000
0110
0001
0110
,
0100
0100
0100
0000
0010
0010
0010
0000
,
1000
1000
1000
0000
0001
0001
0001
0000
,
1000
1000
1000
0000
0001
0001
0001
0000
,
0100
0010
0100
0010
,
0100
0010
0100
0010
0100
0000
0100
0000
;

//---------------dance-single - ----------------
#NOTES:
     dance-single:
     :
     Easy:
     6:
     0.277109,0.348392,0.153139,0.000000,0.000000,190.000000,175.000000,15.000000,0.000000,0.000000,0.000000,0.277109,0.348392,0.153139,0.000000,0.000000,190.000000,175.000000,15.000000,0.000000,0.000000,0.000000:
0000
0000
0000
0000
,
0000
0000
0000
0000
,
0000
0000
0000
0000
,
0000
0000
0000
0000
,
0000
0000
0000
0000
,
1000
1000
0001
0001
,
1000
1000
0001
0001
,
0100
0010
0100
0010
,
0100
0010
0100
0110
,
1001
1000
0001
0001
,
1000
0100
1000
0100
,
0010
1000
0100
0010
,
0100
0001
0010
0100
,
0010
1000
0100
1000
,
0010
0100
0001
0100
,
0010
0100
0100
0100
,
1001
0000
0000
0110
0000
0000
1001
0000
,
1000
0010
0001
0010
,
0100
0010
0100
1000
,
0100
0001
0010
1000
,
1000
0001
0001
1001
,
0100
1000
0100
0010
,
0001
0001
1000
0100
,
1000
0001
0001
0001
,
1000
1000
1000
1000
,
1000
0010
0001
0100
,
1000
0010
0001
0100
,
1000
0010
0001
0100
,
1000
0010
0001
0100
,
1001
0100
0100
0100
,
0100
0100
0100
0100
,
1001
0100
0100
0100
,
1001
0100
1001
1001
,
1001
1000
1000
0001
,
0100
0010
0010
0100
,
0001
0100
0100
0001
,
1000
0001
0001
1000
,
1000
0100
1000
0010
,
0100
0001
0010
0001
,
1001
0100
0001
0100
,
1001
0100
1000
0100
,
1000
0010
0001
0100
,
1000
1000
0001
0001
,
1000
0010
0001
0100
,
1000
1000
0001
0001
,
1000
1000
0001
0001
,
1000
1000
0001
0001
,
0100
0010
0100
0010
,
0100
0010
0100
0110
;

//---------------dance-single - ----------------
#NOTES:
     dance-single:
     :
     Beginner:
     3:
     0.134179,0.172409,0.091884,0.000000,0.000000,92.000000,83.000000,9.000000,0.000000,0.000000,0.000000,0.134179,0.172409,0.091884,0.000000,0.000000,92.000000,83.000000,9.000000,0.000000,0.000000,0.000000:
// measure 0
0000
0000
0000
0000
,  // measure 1
0000
0000
0000
0000
,  // measure 2
0000
0000
0000
0000
,  // measure 3
0000
0000
0000
0000
,  // measure 4
0000
0000
0000
0000
,  // measure 5
1000
1000
0000
0000
,  // measure 6
0001
0001
0000
0000
,  // measure 7
0100
0100
0000
0000
,  // measure 8
0010
0010
0000
0000
,  // measure 9
1001
0000
0001
0000
,  // measure 10
1000
0000
1000
0000
,  // measure 11
0010
0000
0100
0000
,  // measure 12
0100
0000
0010
0000
,  // measure 13
0010
0000
0100
0000
,  // measure 14
0010
0000
0001
0000
,  // measure 15
0010
0000
0100
0000
,  // measure 16
1001
0000
0000
0000
,  // measure 17
1000
0000
0001
0000
,  // measure 18
0100
0000
0100
0000
,  // measure 19
0100
0000
0010
0000
,  // measure 20
1000
0000
0001
0000
,  // measure 21
0100
0000
0100
0000
,  // measure 22
0001
0000
1000
0000
,  // measure 23
1000
0000
0001
0000
,  // measure 24
1000
0000
1000
0000
,  // measure 25
1000
0000
0001
0000
,  // measure 26
1000
0000
0001
0000
,  // measure 27
1000
0000
0001
0000
,  // measure 28
1000
0000
0001
0000
,  // measure 29
1001
0000
0000
0000
,  // measure 30
0110
0000
0000
0000
,  // measure 31
1001
0000
0000
0000
,  // measure 32
0110
0000
0000
0000
,  // measure 33
1001
0000
1000
0000
,  // measure 34
0100
0000
0010
0000
,  // measure 35
0001
0000
0100
0000
,  // measure 36
1000
0000
0001
0000
,  // measure 37
1000
0000
1000
0000
,  // measure 38
0100
0000
0010
0000
,  // measure 39
1001
0000
0001
0000
,  // measure 40
1001
0000
1000
0000
,  // measure 41
1000
0000
0001
0000
,  // measure 42
1000
0000
0001
0000
,  // measure 43
1000
0000
0001
0000
,  // measure 44
1000
0000
0001
0000
,  // measure 45
1000
1000
0000
0000
,  // measure 46
0001
0001
0000
0000
,  // measure 47
0100
0100
0000
0000
,  // measure 48
0010
0010
0000
0000
;
