#VERSION:0.83;
#TITLE:Super Hero;
#SUBTITLE:;
#ARTIST:Fireman;
#TITLETRANSLIT:;
#SUBTITLETRANSLIT:;
#ARTISTTRANSLIT:;
#GENRE:;
#ORIGIN:;
#CREDIT:;
#BANNER:;
#BACKGROUND:Super Hero-bg.jpg;
#PREVIEWVID:;
#JACKET:Super Hero-jacket.jpg;
#CDIMAGE:;
#DISCIMAGE:;
#LYRICSPATH:;
#CDTITLE:;
#MUSIC:Fireman - Super Hero.ogg;
#OFFSET:-0.949000;
#SAMPLESTART:60.036758;
#SAMPLELENGTH:15.500002;
#SELECTABLE:YES;
#BPMS:0.000=160.053;
#STOPS:;
#DELAYS:;
#WARPS:;
#TIMESIGNATURES:0.000=4=4;
#TICKCOUNTS:0.000=4;
#COMBOS:0.000=1;
#SPEEDS:0.000=1.000=0.000=0;
#SCROLLS:0.000=1.000;
#FAKES:;
#LABELS:0.000=Song Start;
#BGCHANGES:;
#KEYSOUNDS:;
#ATTACKS:
;

//---------------dance-single - ----------------
#NOTEDATA:;
#CHARTNAME:;
#STEPSTYPE:dance-single;
#DESCRIPTION:;
#CHARTSTYLE:;
#DIFFICULTY:Hard;
#METER:14;
#RADARVALUES:0.510108,0.750474,0.147755,0.098504,0.303719,435.000000,417.000000,18.000000,12.000000,0.000000,0.000000,0.000000,0.000000,0.000000,0.510108,0.750474,0.147755,0.098504,0.303719,435.000000,417.000000,18.000000,12.000000,0.000000,0.000000,0.000000,0.000000,0.000000;
#CREDIT:;
#NOTES:
// measure 0
0000
0000
0000
0000
,  // measure 1
0000
0000
0000
0000
,  // measure 2
0000
0000
0000
0000
,  // measure 3
0000
0000
0000
0000
,  // measure 4
0000
0000
0000
0000
,  // measure 5
0000
0000
0000
0000
,  // measure 6
0000
0000
0000
0000
,  // measure 7
0010
0000
0010
0000
0100
0000
0100
0000
0110
0000
0000
0000
1000
0100
1000
0100
,  // measure 8
1000
0100
0001
0100
1000
0000
0001
0010
,  // measure 9
1000
0010
0001
0000
0001
1000
0010
0100
,  // measure 10
0001
0100
1000
0100
0001
0000
1000
0010
,  // measure 11
0001
0010
1000
0000
0001
0100
1000
0100
,  // measure 12
0001
0010
1000
0010
0100
0000
0010
0001
,  // measure 13
1000
0100
0001
0000
1000
0010
0001
1000
,  // measure 14
0100
0000
0200
0000
0000
0000
0000
0000
0000
0000
0000
0000
,  // measure 15
1300
0000
0000
0000
,  // measure 16
1000
0000
0000
0100
0000
0000
0001
0000
0000
0010
0000
0000
1000
0000
0100
0000
,  // measure 17
1000
0000
0000
0010
0000
0000
1000
0000
0000
0100
0000
0000
0100
0000
0000
0000
,  // measure 18
1000
0000
0000
0100
0000
0000
0001
0000
0000
0010
0000
0000
1000
0000
0100
0000
,  // measure 19
1000
0000
0000
0010
0000
0000
1000
0000
0000
0100
0000
0000
0100
0000
0100
0000
,  // measure 20
1000
0000
0000
0100
0000
0000
0001
0000
0000
0010
0000
0000
1000
0000
0100
0000
,  // measure 21
1000
0000
0000
0010
0000
0000
1000
0000
0000
0100
0000
0000
0100
0000
0000
0000
,  // measure 22
1000
0000
0000
0100
0000
0000
0001
0000
0000
0010
0000
0000
1000
0000
0100
0000
,  // measure 23
1000
0000
0000
0010
0000
0000
1000
0000
0000
0100
0000
0000
0100
0000
0000
0000
,  // measure 24
1000
0000
0001
1000
0001
1000
0001
0000
,  // measure 25
0000
0100
0000
0001
1000
0001
1000
0001
,  // measure 26
1000
0000
0010
0000
1000
0100
0010
0001
,  // measure 27
0100
0000
0100
0000
0001
0010
0100
1000
,  // measure 28
0010
0000
0010
0100
0000
0001
1000
0000
,  // measure 29
0000
1001
0000
1000
0100
0010
0001
0100
,  // measure 30
0001
0100
0001
0100
0001
0100
0001
0100
,  // measure 31
0001
0100
0001
0100
0001
0100
0001
0100
,  // measure 32
0010
0100
0001
1000
0100
0010
0001
1000
,  // measure 33
0010
1000
0001
0100
0010
1000
0100
0010
,  // measure 34
0100
1000
0001
0010
0001
0100
0010
0100
,  // measure 35
0001
1000
0001
1000
0100
1000
0001
0010
,  // measure 36
0001
0100
0010
0100
0001
1000
0100
0010
,  // measure 37
0100
0010
0100
1000
0001
1000
0010
1000
,  // measure 38
0010
0100
0001
1000
0010
1000
0100
1000
,  // measure 39
0001
0000
0000
0000
0010
0010
0100
0100
,  // measure 40
0110
1001
0101
0011
,  // measure 41
1001
0000
1010
0000
0010
1000
0010
1000
,  // measure 42
1010
1001
0101
1100
,  // measure 43
1001
0000
0101
0000
0010
1000
0010
1000
,  // measure 44
0010
0000
1000
0000
0001
1000
0001
1000
0001
0000
1000
0000
0001
1000
0001
1000
,  // measure 45
0001
0000
1000
0000
0001
1000
0001
1000
0001
0000
1000
0000
0001
0000
1000
0000
,  // measure 46
0001
0000
0002
0000
0000
0000
0000
0000
0000
0000
0000
0000
,  // measure 47
1003
0000
0000
0000
0000
0000
1000
0100
1000
0000
1100
0000
1000
0100
1000
0100
,  // measure 48
1000
0001
0100
0010
1000
0010
0100
0001
,  // measure 49
0010
0100
1000
0010
0100
0001
0010
0100
,  // measure 50
0010
0001
0100
0010
0100
0001
0010
0100
,  // measure 51
0010
0100
1000
0001
0100
0001
0100
0010
,  // measure 52
1000
0001
0100
0010
1000
0010
0100
0001
,  // measure 53
0100
0010
1000
0010
1000
0100
0010
0001
,  // measure 54
1000
0100
0010
0001
0100
0001
0100
0010
,  // measure 55
1000
0100
0010
0100
1000
0000
0000
0000
,  // measure 56
1000
0000
0000
0100
0000
0000
0001
0000
0000
0010
0000
0000
1000
0000
0100
0000
,  // measure 57
1000
0000
0000
0010
0000
0000
1000
0000
0000
0100
0000
0000
0100
0000
0000
0000
,  // measure 58
1000
0000
0000
0100
0000
0000
0001
0000
0000
0010
0000
0000
1000
0000
0100
0000
,  // measure 59
1000
0000
0000
0010
0000
0000
1000
0000
0000
0100
0000
0000
0100
0000
0100
0000
,  // measure 60
1000
0000
0000
0100
0000
0000
0001
0000
0000
0010
0000
0000
1000
0000
0100
0000
,  // measure 61
1000
0000
0000
0010
0000
0000
1000
0000
0000
0100
0000
0000
0100
0000
0000
0000
,  // measure 62
1000
0000
0000
0100
0000
0000
0001
0000
0000
0010
0000
0000
1000
0000
0100
0000
,  // measure 63
2000
0000
0000
0000
,  // measure 64
3001
0000
0001
0000
0000
0000
0000
0000
1000
0000
0000
1000
,  // measure 65
0010
0000
0100
0000
0000
0000
0000
0000
0001
0000
0000
1000
,  // measure 66
0001
0000
1000
0000
0000
0000
0000
0000
0010
0000
0000
1000
,  // measure 67
0010
0000
0010
0000
0000
0000
1000
0100
1000
0100
0000
1000
,  // measure 68
0100
0000
0010
0000
0000
0000
0000
0000
0001
0000
0000
1000
,  // measure 69
0001
0000
0100
0000
0000
0000
0000
0000
0010
0000
0000
1000
,  // measure 70
0001
0000
1000
0000
0000
0000
0000
0000
0001
0000
0000
1000
,  // measure 71
0100
0010
0001
1000
0100
0010
0001
1000
0100
0010
0001
1000
,  // measure 72
0200
0000
0000
0000
,  // measure 73
2300
0000
0000
0000
,  // measure 74
3001
0000
0002
0000
0000
0000
0000
0000
0000
0000
0000
0000
,  // measure 75
0000
0000
0000
0000
,  // measure 76
1003
0000
0000
0000
,  // measure 77
0220
0000
0330
0000
,  // measure 78
2002
0000
3003
0000
,  // measure 79
0220
0000
0330
0000
;

//---------------dance-single - ----------------
#NOTEDATA:;
#CHARTNAME:;
#STEPSTYPE:dance-single;
#DESCRIPTION:;
#CHARTSTYLE:;
#DIFFICULTY:Medium;
#METER:11;
#RADARVALUES:0.363525,0.554698,0.164173,0.180590,0.229842,310.000000,290.000000,20.000000,22.000000,0.000000,0.000000,0.000000,0.000000,0.000000,0.363525,0.554698,0.164173,0.180590,0.229842,310.000000,290.000000,20.000000,22.000000,0.000000,0.000000,0.000000,0.000000,0.000000;
#CREDIT:;
#NOTES:
// measure 0
0000
0000
0000
0000
,  // measure 1
0000
0000
0000
0000
,  // measure 2
0000
0000
0000
0000
,  // measure 3
0000
0000
0000
0000
,  // measure 4
0000
0000
0000
0000
,  // measure 5
0000
0000
0000
0000
,  // measure 6
0000
0000
0000
0000
,  // measure 7
0000
0000
0000
0000
1000
0100
1000
0001
,  // measure 8
1000
0000
0000
1000
0000
0000
0100
0000
0000
1000
0000
0000
0001
0000
0010
0000
,  // measure 9
0001
0000
0000
0010
0000
0000
0001
0000
0000
1000
0000
0000
0010
0000
0100
0000
,  // measure 10
0001
0000
0000
0100
0000
0000
0010
0000
0000
1000
0000
0000
0010
0000
1000
0000
,  // measure 11
0001
0000
0000
0010
0000
0000
0001
0000
0000
1000
0000
0000
0100
0000
1000
0000
,  // measure 12
0001
0000
0000
1000
0000
0000
0010
0000
0000
0100
0000
0000
0010
0000
1000
0000
,  // measure 13
0100
0000
0000
1000
0000
0000
0001
0000
0000
1000
0000
0000
0001
0000
1000
0000
,  // measure 14
0100
0000
0200
0000
0000
0000
0000
0000
0000
0000
0000
0000
,  // measure 15
1300
0000
0000
0000
,  // measure 16
1000
0000
0000
0100
0000
0000
0001
0000
0000
0010
0000
0000
1000
0000
0100
0000
,  // measure 17
1000
0000
0000
0010
0000
0000
1000
0000
0000
0100
0000
0000
0100
0000
0000
0000
,  // measure 18
1000
0000
0000
0100
0000
0000
0001
0000
0000
0010
0000
0000
1000
0000
0100
0000
,  // measure 19
1000
0000
0000
0010
0000
0000
1000
0000
0000
0100
0000
0000
0100
0000
0100
0000
,  // measure 20
1000
0000
0000
0100
0000
0000
0001
0000
0000
0010
0000
0000
1000
0000
0100
0000
,  // measure 21
1000
0000
0000
0010
0000
0000
1000
0000
0000
0100
0000
0000
0100
0000
0000
0000
,  // measure 22
1000
0000
0000
0100
0000
0000
0001
0000
0000
0010
0000
0000
1000
0000
0100
0000
,  // measure 23
1000
0000
0000
0010
0000
0000
1000
0000
0000
0100
0000
0000
0100
0000
0000
0000
,  // measure 24
1000
0001
0001
0001
,  // measure 25
1001
0100
1000
1000
,  // measure 26
1000
0010
1000
0010
,  // measure 27
0100
0100
0001
0100
,  // measure 28
0010
0010
1001
1000
,  // measure 29
1001
0101
0100
0001
,  // measure 30
0001
0001
0001
0001
,  // measure 31
0001
0100
0001
0100
0001
0100
0001
0100
,  // measure 32
0010
1000
0100
1000
,  // measure 33
0010
0100
0001
0100
,  // measure 34
0100
0001
0001
0010
,  // measure 35
0001
0001
0100
0001
,  // measure 36
1000
0010
1000
0100
,  // measure 37
0100
0100
1000
0010
,  // measure 38
1000
0001
0010
0100
,  // measure 39
1001
0000
0000
0000
0010
0100
0010
0100
,  // measure 40
0010
1001
0101
0011
,  // measure 41
1001
0000
1010
0000
0010
1000
0010
0000
,  // measure 42
1010
1001
0101
1100
,  // measure 43
1001
0000
0101
0000
0010
1000
0010
0000
,  // measure 44
0010
1000
0100
0001
,  // measure 45
0010
1000
0100
0001
,  // measure 46
0001
0000
0002
0000
0000
0000
0000
0000
0000
0000
0000
0000
,  // measure 47
1003
0000
0000
0000
1000
0100
1000
0100
,  // measure 48
1000
0100
1000
0100
,  // measure 49
0010
0100
1000
0010
,  // measure 50
0100
0001
0100
0010
,  // measure 51
1000
0100
0010
0100
,  // measure 52
1000
0001
0100
0001
,  // measure 53
0100
0010
1000
0010
,  // measure 54
0100
0001
0010
0001
,  // measure 55
1000
0100
0010
0001
,  // measure 56
1000
0000
0000
0100
0000
0000
0001
0000
0000
0010
0000
0000
1000
0000
0100
0000
,  // measure 57
1000
0000
0000
0010
0000
0000
1000
0000
0000
0100
0000
0000
0100
0000
0000
0000
,  // measure 58
1000
0000
0000
0100
0000
0000
0001
0000
0000
0010
0000
0000
1000
0000
0100
0000
,  // measure 59
1000
0000
0000
0010
0000
0000
1000
0000
0000
0100
0000
0000
0100
0000
0100
0000
,  // measure 60
1000
0000
0000
0100
0000
0000
0001
0000
0000
0010
0000
0000
1000
0000
0100
0000
,  // measure 61
1000
0000
0000
0010
0000
0000
1000
0000
0000
0100
0000
0000
0100
0000
0000
0000
,  // measure 62
1000
0000
0000
0100
0000
0000
0001
0000
0000
0010
0000
0000
1000
0000
0100
0000
,  // measure 63
2000
0000
0000
0000
,  // measure 64
3002
0000
0000
0000
0000
0000
0003
0000
1000
0000
0000
1000
,  // measure 65
0020
0000
0000
0000
0000
0000
0030
0000
0001
0000
0000
1000
,  // measure 66
0002
0000
0000
0000
0000
0000
0003
0000
0010
0000
0000
1000
,  // measure 67
0020
0000
0030
0000
,  // measure 68
2000
0000
0000
0000
0000
0000
3000
0000
0001
0000
0000
1000
,  // measure 69
0002
0000
0000
0000
0000
0000
0003
0000
0010
0000
0000
0001
,  // measure 70
2000
0000
0000
0000
0000
0000
3000
0000
0001
0000
0000
1000
,  // measure 71
0200
0000
0300
0000
,  // measure 72
0200
0000
0000
0000
,  // measure 73
2300
0000
0000
0000
,  // measure 74
3002
0000
0000
0000
,  // measure 75
0000
0000
0003
0000
,  // measure 76
2002
0000
3003
0000
,  // measure 77
0220
0000
0330
0000
,  // measure 78
2002
0000
3003
0000
,  // measure 79
0220
0000
0330
0000
;

//---------------dance-single - ----------------
#NOTEDATA:;
#CHARTNAME:;
#STEPSTYPE:dance-single;
#DESCRIPTION:;
#CHARTSTYLE:;
#DIFFICULTY:Easy;
#METER:8;
#RADARVALUES:0.289647,0.424181,0.221633,0.180590,0.000000,247.000000,220.000000,27.000000,22.000000,0.000000,0.000000,0.000000,0.000000,0.000000,0.289647,0.424181,0.221633,0.180590,0.000000,247.000000,220.000000,27.000000,22.000000,0.000000,0.000000,0.000000,0.000000,0.000000;
#CREDIT:;
#NOTES:
// measure 0
0000
0000
0000
0000
,  // measure 1
0000
0000
0000
0000
,  // measure 2
0000
0000
0000
0000
,  // measure 3
0000
0000
0000
0000
,  // measure 4
0000
0000
0000
0000
,  // measure 5
0000
0000
0000
0000
,  // measure 6
0000
0000
0000
0000
,  // measure 7
0000
0000
0000
0000
,  // measure 8
1000
1000
1000
0110
,  // measure 9
0001
0001
0001
0110
,  // measure 10
1000
1000
1000
0110
,  // measure 11
0001
0001
0001
0110
,  // measure 12
1000
0100
0010
0001
,  // measure 13
1000
0100
0010
0001
,  // measure 14
2002
0000
0000
0000
,  // measure 15
3003
0000
0000
0000
,  // measure 16
1000
0100
1000
1100
,  // measure 17
0001
0100
0001
0101
,  // measure 18
1000
0010
1000
1010
,  // measure 19
0001
0010
0001
0011
,  // measure 20
1000
0100
0010
0001
,  // measure 21
0010
0100
1000
0010
,  // measure 22
0100
0010
1000
0100
,  // measure 23
0010
0001
0100
0101
,  // measure 24
1001
0001
0001
0001
,  // measure 25
1001
0100
1000
1000
,  // measure 26
1000
0010
1000
0010
,  // measure 27
0100
0100
0001
0100
,  // measure 28
0010
0010
1001
1000
,  // measure 29
1001
0101
0100
0001
,  // measure 30
0001
0001
1000
1000
,  // measure 31
0020
0000
0000
0000
,  // measure 32
1030
1000
0100
1000
,  // measure 33
0010
0100
0001
0100
,  // measure 34
0100
0001
0001
0010
,  // measure 35
0001
0001
0100
0001
,  // measure 36
1000
0010
1000
0100
,  // measure 37
0100
0100
1000
0010
,  // measure 38
1000
0001
0010
0100
,  // measure 39
2002
0000
0000
3003
,  // measure 40
0010
1001
0001
0011
,  // measure 41
1000
1010
0010
0010
,  // measure 42
1000
1001
0001
1100
,  // measure 43
1000
0101
0010
0010
,  // measure 44
0010
1000
0100
0001
,  // measure 45
0010
1000
0100
0001
,  // measure 46
0002
0000
0000
0000
,  // measure 47
2003
0000
0000
0000
,  // measure 48
3100
0100
1000
0100
,  // measure 49
0010
0100
1000
0010
,  // measure 50
0100
0001
0100
0010
,  // measure 51
1000
0100
0010
0100
,  // measure 52
1000
0001
0100
0001
,  // measure 53
0100
0010
1000
0010
,  // measure 54
0100
0001
0010
0001
,  // measure 55
1000
0100
0010
0001
,  // measure 56
1000
0100
1000
1100
,  // measure 57
0001
0100
0001
0101
,  // measure 58
1000
0010
1000
1010
,  // measure 59
0001
0010
0001
0011
,  // measure 60
1000
0100
0010
0001
,  // measure 61
0010
0100
1000
0010
,  // measure 62
0100
0010
1000
0100
,  // measure 63
0010
0001
0100
0101
,  // measure 64
0002
0000
0000
0000
,  // measure 65
0023
0000
0000
0000
,  // measure 66
0032
0000
0000
0000
,  // measure 67
2003
0000
0000
0000
,  // measure 68
3200
0000
0000
0000
,  // measure 69
2300
0000
0000
0000
,  // measure 70
3020
0000
0000
0000
,  // measure 71
0230
0000
0000
0000
,  // measure 72
0302
0000
0000
0000
,  // measure 73
2003
0000
0000
0000
,  // measure 74
3002
0000
0000
0000
,  // measure 75
0000
0000
0000
0000
,  // measure 76
2003
0000
0000
0000
,  // measure 77
3200
0000
0000
0000
,  // measure 78
2300
0000
0000
0000
,  // measure 79
3020
0000
0030
0000
;

//---------------dance-single - ----------------
#NOTEDATA:;
#CHARTNAME:;
#STEPSTYPE:dance-single;
#DESCRIPTION:;
#CHARTSTYLE:;
#DIFFICULTY:Beginner;
#METER:3;
#RADARVALUES:0.146583,0.226969,0.016417,0.098504,0.000000,125.000000,123.000000,2.000000,12.000000,0.000000,0.000000,0.000000,0.000000,0.000000,0.146583,0.226969,0.016417,0.098504,0.000000,125.000000,123.000000,2.000000,12.000000,0.000000,0.000000,0.000000,0.000000,0.000000;
#CREDIT:;
#NOTES:
// measure 0
0000
0000
0000
0000
,  // measure 1
0000
0000
0000
0000
,  // measure 2
0000
0000
0000
0000
,  // measure 3
0000
0000
0000
0000
,  // measure 4
0000
0000
0000
0000
,  // measure 5
0000
0000
0000
0000
,  // measure 6
0000
0000
0000
0000
,  // measure 7
0000
0000
0000
0000
,  // measure 8
1000
1000
1000
0000
,  // measure 9
0001
0001
0001
0000
,  // measure 10
1000
1000
1000
0000
,  // measure 11
0001
0001
0001
0000
,  // measure 12
1000
0000
0010
0000
,  // measure 13
0100
0000
0001
0000
,  // measure 14
2002
0000
0000
0000
,  // measure 15
3003
0000
0000
0000
,  // measure 16
1000
1000
1000
0000
,  // measure 17
0001
0001
0001
0000
,  // measure 18
1000
1000
1000
0000
,  // measure 19
0001
0001
0001
0000
,  // measure 20
1000
0000
0010
0000
,  // measure 21
0001
0000
0100
0000
,  // measure 22
0100
0000
1000
0000
,  // measure 23
0010
0000
0001
0000
,  // measure 24
0001
0000
0001
0000
,  // measure 25
1000
0000
1000
0000
,  // measure 26
1000
0000
1000
0000
,  // measure 27
0100
0000
0001
0000
,  // measure 28
0010
0000
1000
0000
,  // measure 29
0001
0000
0100
0000
,  // measure 30
0001
0000
1000
0000
,  // measure 31
0010
0010
0010
0000
,  // measure 32
1000
0000
0100
0000
,  // measure 33
0010
0000
0001
0000
,  // measure 34
0100
0000
0001
0000
,  // measure 35
0001
0000
0100
0000
,  // measure 36
1000
0000
1000
0000
,  // measure 37
0100
0000
1000
0000
,  // measure 38
1000
0000
1000
0000
,  // measure 39
1001
0000
0000
0000
,  // measure 40
0010
0000
0001
0000
,  // measure 41
1000
0000
0010
0000
,  // measure 42
1000
0000
0001
0000
,  // measure 43
1000
0000
0010
0000
,  // measure 44
0010
0000
0100
0000
,  // measure 45
0010
0000
0100
0000
,  // measure 46
0002
0000
0003
0000
,  // measure 47
2000
0000
3000
0000
,  // measure 48
0100
0100
0000
0000
,  // measure 49
0010
0010
0000
0000
,  // measure 50
0100
0100
0000
0000
,  // measure 51
1000
1000
0000
0000
,  // measure 52
0001
0001
0000
0000
,  // measure 53
0100
0100
0000
0000
,  // measure 54
0001
0001
0000
0000
,  // measure 55
1000
1000
0000
0000
,  // measure 56
1000
0000
1000
0000
,  // measure 57
0001
0000
0001
0000
,  // measure 58
1000
0000
1000
0000
,  // measure 59
0001
0000
0001
0000
,  // measure 60
1000
0000
0010
0000
,  // measure 61
0001
0000
0100
0000
,  // measure 62
1000
0000
1000
0000
,  // measure 63
0001
0000
0001
0000
,  // measure 64
0002
0000
0000
0000
,  // measure 65
0003
0000
0000
0000
,  // measure 66
0002
0000
0000
0000
,  // measure 67
0003
0000
0000
0000
,  // measure 68
2000
0000
0000
0000
,  // measure 69
3000
0000
0000
0000
,  // measure 70
2000
0000
0000
0000
,  // measure 71
3000
0000
0000
0000
,  // measure 72
0002
0000
0000
0000
,  // measure 73
0003
0000
0000
0000
,  // measure 74
0002
0000
0000
0000
,  // measure 75
0003
0000
0000
0000
,  // measure 76
2000
0000
0000
0000
,  // measure 77
3000
0000
0000
0000
,  // measure 78
2000
0000
0000
0000
,  // measure 79
3000
0000
0000
0000
;
