#VERSION:0.83;
#TITLE:Summer Night In Seattle;
#SUBTITLE:;
#ARTIST:JENNA DREY;
#TITLETRANSLIT:;
#SUBTITLETRANSLIT:;
#ARTISTTRANSLIT:;
#GENRE:;
#ORIGIN:;
#CREDIT:;
#BANNER:;
#BACKGROUND:Summer Night in Seattle-bg.jpg;
#PREVIEWVID:;
#JACKET:Summer Night in Seattle-jacket.jpg;
#CDIMAGE:;
#DISCIMAGE:;
#LYRICSPATH:;
#CDTITLE:;
#MUSIC:Summer Night in Seattle.ogg;
#OFFSET:-0.780000;
#SAMPLESTART:60.920189;
#SAMPLELENGTH:15.000000;
#SELECTABLE:YES;
#BPMS:0.000=130.000;
#STOPS:;
#DELAYS:;
#WARPS:;
#TIMESIGNATURES:0.000=4=4;
#TICKCOUNTS:0.000=4;
#COMBOS:0.000=1;
#SPEEDS:0.000=1.000=0.000=0;
#SCROLLS:0.000=1.000;
#FAKES:;
#LABELS:0.000=Song Start;
#BGCHANGES:;
#KEYSOUNDS:;
#ATTACKS:
;

//---------------dance-single - ----------------
#NOTEDATA:;
#CHARTNAME:;
#STEPSTYPE:dance-single;
#DESCRIPTION:;
#CHARTSTYLE:;
#DIFFICULTY:Hard;
#METER:10;
#RADARVALUES:0.423959,0.475913,0.140292,0.194250,0.048563,275.000000,262.000000,13.000000,18.000000,0.000000,0.000000,0.000000,0.000000,0.000000,0.423959,0.475913,0.140292,0.194250,0.048563,275.000000,262.000000,13.000000,18.000000,0.000000,0.000000,0.000000,0.000000,0.000000;
#CREDIT:;
#NOTES:
// measure 0
0000
0000
0000
0000
,  // measure 1
0000
0000
0000
0000
,  // measure 2
0000
0000
0000
0000
,  // measure 3
0000
0000
0000
0000
,  // measure 4
0100
0000
0000
0100
0000
0000
0100
0000
0000
0100
0000
0000
0010
0000
0000
0010
,  // measure 5
0000
0000
0010
0000
0000
0010
0000
0000
1000
0000
0000
0001
0000
0000
0100
0000
,  // measure 6
0001
0000
0000
0010
0000
0000
0010
0000
0000
0010
0000
0000
0001
0000
0000
0001
,  // measure 7
0000
0000
1000
0000
0000
1000
0000
0000
1000
0000
0001
0000
1000
0000
0000
0000
,  // measure 8
1002
0000
0103
0000
0010
1000
0010
1000
,  // measure 9
0100
0000
1000
0001
0100
0000
1001
0000
,  // measure 10
0010
1000
0010
0100
0010
1000
0010
1000
,  // measure 11
0100
1000
0010
0100
0010
1000
0100
0000
,  // measure 12
1001
0000
0001
0010
0100
0010
0001
0010
,  // measure 13
0001
1000
0001
0010
0100
0010
0001
0100
,  // measure 14
0010
0000
1001
0000
0100
0001
0100
0010
,  // measure 15
0100
0001
1000
0100
1000
0010
0100
0000
,  // measure 16
1001
0000
1000
0000
0010
0100
0001
0000
,  // measure 17
1000
0100
0010
0000
0001
0010
0100
0000
,  // measure 18
1001
0000
0100
0000
0010
0100
0010
0000
,  // measure 19
1000
0010
1000
0000
0100
1000
0001
0000
,  // measure 20
0110
0000
0110
0000
0001
1000
0001
0000
,  // measure 21
1000
0100
1000
0000
0001
0100
0001
0000
,  // measure 22
1001
0100
0100
0100
,  // measure 23
0001
0001
0001
0000
1000
1000
1000
0000
,  // measure 24
1200
0000
1000
2300
0000
0010
3020
0000
,  // measure 25
0100
0100
0100
0100
,  // measure 26
0230
0000
0001
0302
0000
0010
0023
0000
,  // measure 27
0001
0000
0001
0000
0000
0001
0030
0001
,  // measure 28
0001
1000
0001
1000
0010
0100
0010
0100
,  // measure 29
0001
0010
0100
1000
0010
0100
0001
1000
,  // measure 30
0010
1000
0010
0100
0010
1000
0010
0100
,  // measure 31
0001
0100
0010
0100
0001
0100
0010
0100
,  // measure 32
2002
0000
0000
0000
3000
0100
0100
0100
,  // measure 33
0000
0100
0000
1000
0000
1000
1000
1000
,  // measure 34
0000
0200
0000
0000
0003
0010
0010
0010
,  // measure 35
0000
0001
0000
0001
0000
0010
0010
0010
,  // measure 36
0000
0020
0300
0000
0000
1000
1000
1000
,  // measure 37
0000
2030
0000
3002
0000
0203
0001
0302
,  // measure 38
0000
2000
0000
0000
0000
0000
0000
0000
,  // measure 39
0000
0000
0000
0000
3003
1000
0001
0000
,  // measure 40
1001
0000
1000
0001
0100
0010
1000
0100
,  // measure 41
1000
0001
0100
0001
1000
0010
1000
0010
,  // measure 42
0100
0001
0100
0010
1000
0100
0010
0001
,  // measure 43
0100
0001
1000
0010
1000
0010
0100
0001
,  // measure 44
0100
0010
0100
0001
0010
0001
1000
0001
,  // measure 45
0100
0010
1000
1000
0001
0001
0100
0010
,  // measure 46
0100
0001
1000
0100
1000
0001
0100
0001
,  // measure 47
1000
0100
0010
0001
1000
0100
0010
0000
,  // measure 48
2002
0000
0000
0000
,  // measure 49
3003
0000
0000
0000
;

//---------------dance-single - ----------------
#NOTEDATA:;
#CHARTNAME:;
#STEPSTYPE:dance-single;
#DESCRIPTION:;
#CHARTSTYLE:;
#DIFFICULTY:Medium;
#METER:6;
#RADARVALUES:0.288292,0.343715,0.086333,0.442459,0.048563,187.000000,179.000000,8.000000,41.000000,0.000000,0.000000,0.000000,0.000000,0.000000,0.288292,0.343715,0.086333,0.442459,0.048563,187.000000,179.000000,8.000000,41.000000,0.000000,0.000000,0.000000,0.000000,0.000000;
#CREDIT:;
#NOTES:
// measure 0
0000
0000
0000
0000
,  // measure 1
0000
0000
0000
0000
,  // measure 2
0000
0000
0000
0000
,  // measure 3
0000
0000
0000
0000
,  // measure 4
1000
0000
0000
1000
0000
0000
1000
0000
0000
1000
0000
0000
1000
0000
0000
1000
,  // measure 5
0000
0000
0001
0000
0000
0001
0000
0000
0001
0000
0000
0001
0000
0000
0001
0000
,  // measure 6
1000
0000
0000
1000
0000
0000
1000
0000
0000
1000
0000
0000
1000
0000
0000
1000
,  // measure 7
0000
0000
0001
0000
0000
0001
0000
0000
0001
0000
0100
0000
0001
0000
0000
0000
,  // measure 8
1001
0100
0001
1000
,  // measure 9
0010
1000
0100
1000
,  // measure 10
0001
0100
0010
1000
,  // measure 11
0100
1000
0001
0100
,  // measure 12
0010
1000
0100
1000
,  // measure 13
0001
0100
0010
1000
,  // measure 14
0100
1000
0010
0100
,  // measure 15
0001
0000
0010
0000
0100
1000
0001
0000
,  // measure 16
1001
0100
0100
0010
,  // measure 17
1000
0100
1000
0001
,  // measure 18
0010
0001
1000
0010
,  // measure 19
0100
0010
1000
0100
,  // measure 20
1000
0001
0100
0010
,  // measure 21
0100
0001
0010
0001
,  // measure 22
1000
0100
1000
0001
,  // measure 23
0100
0001
0100
0000
0001
0100
0001
0000
,  // measure 24
1200
0000
0000
2300
0000
0000
3020
0000
,  // measure 25
0100
0100
0100
0100
,  // measure 26
0230
0000
0000
0302
0000
0000
0023
0000
,  // measure 27
0001
0000
0001
0000
0000
0001
0030
0002
,  // measure 28
0000
0203
0000
0320
0000
2030
0000
3200
,  // measure 29
0000
2300
0000
3020
0000
0230
0000
0302
,  // measure 30
0000
2003
0000
3200
0000
0320
0000
0032
,  // measure 31
0000
2003
0000
0002
0000
0000
0000
0000
,  // measure 32
3003
0000
0000
0000
0000
0100
0010
0200
,  // measure 33
0000
0302
0000
0023
0000
0032
0000
2003
,  // measure 34
0000
3200
0000
0000
0000
1300
0010
0200
,  // measure 35
0000
0302
0000
2003
0000
3020
0000
0230
,  // measure 36
0000
0302
0000
0000
0000
0000
0000
2000
,  // measure 37
0003
3200
0000
2300
0000
3020
0000
0230
,  // measure 38
0000
0302
0000
0000
0000
0013
0001
0010
,  // measure 39
0000
0001
0000
1000
0000
0010
0010
0000
,  // measure 40
1001
1000
0100
1000
,  // measure 41
0010
0100
0001
1000
,  // measure 42
0110
0001
1000
0100
,  // measure 43
1000
0010
0100
0001
,  // measure 44
1001
0001
1000
0010
,  // measure 45
0100
0100
0010
0010
,  // measure 46
1001
1000
0100
0010
,  // measure 47
0001
0100
0010
0100
,  // measure 48
2002
0000
0000
0000
,  // measure 49
3003
0000
0000
0000
;

//---------------dance-single - ----------------
#NOTEDATA:;
#CHARTNAME:;
#STEPSTYPE:dance-single;
#DESCRIPTION:;
#CHARTSTYLE:;
#DIFFICULTY:Easy;
#METER:4;
#RADARVALUES:0.251292,0.290836,0.129500,0.420875,0.000000,163.000000,151.000000,12.000000,39.000000,0.000000,0.000000,0.000000,0.000000,0.000000,0.251292,0.290836,0.129500,0.420875,0.000000,163.000000,151.000000,12.000000,39.000000,0.000000,0.000000,0.000000,0.000000,0.000000;
#CREDIT:;
#NOTES:
// measure 0
0000
0000
0000
0000
,  // measure 1
0000
0000
0000
0000
,  // measure 2
0000
0000
0000
0000
,  // measure 3
0000
0000
0000
0000
,  // measure 4
1000
1000
2000
3000
,  // measure 5
0001
0001
0002
0003
,  // measure 6
0100
0100
0200
0300
,  // measure 7
0020
0030
0010
0010
,  // measure 8
1001
0100
0001
1000
,  // measure 9
0010
1000
0100
1000
,  // measure 10
0001
0100
0010
1000
,  // measure 11
0100
1000
0001
0100
,  // measure 12
0010
1000
0100
1000
,  // measure 13
0001
0100
0010
1000
,  // measure 14
0100
1000
0010
0100
,  // measure 15
0001
0010
0100
1000
,  // measure 16
1001
0100
0100
0010
,  // measure 17
1000
0100
1000
0001
,  // measure 18
0010
0001
1000
0010
,  // measure 19
0100
0010
1000
0100
,  // measure 20
1000
0001
0100
0010
,  // measure 21
0100
0001
0010
0001
,  // measure 22
1000
0100
1000
0001
,  // measure 23
0100
1001
0100
1001
,  // measure 24
2000
0000
3002
0000
,  // measure 25
0203
0000
0320
0000
,  // measure 26
2030
0000
3200
0000
,  // measure 27
0320
0000
0032
0000
,  // measure 28
1003
1000
0100
0100
,  // measure 29
0001
0001
0010
0010
,  // measure 30
1000
0001
1000
0001
,  // measure 31
2002
0000
0000
3003
,  // measure 32
0220
0000
0000
0000
0000
0000
0330
0200
,  // measure 33
0000
0302
0000
0023
0000
0032
0000
2003
,  // measure 34
0000
3200
0000
0000
0000
2300
0000
3002
,  // measure 35
0000
0203
0000
0302
0000
2003
0000
3200
,  // measure 36
0000
2300
0000
0000
0000
0000
0000
3020
,  // measure 37
0000
0230
0000
0302
0000
0023
0000
0230
,  // measure 38
0000
2300
0000
0000
0000
0000
0000
3000
,  // measure 39
2002
0000
0000
3003
,  // measure 40
1001
1000
0100
1000
,  // measure 41
0010
0100
0001
1000
,  // measure 42
0110
0001
1000
0100
,  // measure 43
1000
0010
0100
0001
,  // measure 44
1001
0001
1000
0010
,  // measure 45
0100
0100
0010
0010
,  // measure 46
1001
1000
0100
0010
,  // measure 47
0001
0100
0010
0100
,  // measure 48
2002
0000
0000
0000
,  // measure 49
3003
0000
0000
0000
;

//---------------dance-single - ----------------
#NOTEDATA:;
#CHARTNAME:;
#STEPSTYPE:dance-single;
#DESCRIPTION:;
#CHARTSTYLE:;
#DIFFICULTY:Beginner;
#METER:1;
#RADARVALUES:0.111000,0.155400,0.010792,0.086333,0.000000,72.000000,71.000000,1.000000,8.000000,0.000000,0.000000,0.000000,0.000000,0.000000,0.111000,0.155400,0.010792,0.086333,0.000000,72.000000,71.000000,1.000000,8.000000,0.000000,0.000000,0.000000,0.000000,0.000000;
#CREDIT:;
#NOTES:
// measure 0
0000
0000
0000
0000
,  // measure 1
0000
0000
0000
0000
,  // measure 2
0000
0000
0000
0000
,  // measure 3
0000
0000
0000
0000
,  // measure 4
1000
1000
0000
0000
,  // measure 5
0001
0001
0000
0000
,  // measure 6
0100
0100
0000
0000
,  // measure 7
0010
0010
0000
0000
,  // measure 8
0001
0000
0001
0000
,  // measure 9
0010
0000
0100
0000
,  // measure 10
0001
0000
0010
0000
,  // measure 11
0100
0000
0001
0000
,  // measure 12
0010
0000
0100
0000
,  // measure 13
0001
0000
0010
0000
,  // measure 14
0100
0000
0010
0000
,  // measure 15
0001
0000
0100
0000
,  // measure 16
1000
0000
0100
0000
,  // measure 17
1000
0000
1000
0000
,  // measure 18
0010
0000
1000
0000
,  // measure 19
0100
0000
1000
0000
,  // measure 20
1000
0000
0100
0000
,  // measure 21
0100
0000
0010
0000
,  // measure 22
1000
0000
1000
0000
,  // measure 23
0100
0000
0100
0000
,  // measure 24
2000
0000
3000
0000
,  // measure 25
0200
0000
0300
0000
,  // measure 26
0020
0000
0030
0000
,  // measure 27
0002
0000
0003
0000
,  // measure 28
1000
1000
0000
0000
,  // measure 29
0001
0001
0000
0000
,  // measure 30
1000
0000
0001
0000
,  // measure 31
0200
0000
0000
0000
,  // measure 32
0000
0000
0000
0000
,  // measure 33
0300
0000
0000
0000
,  // measure 34
0020
0000
0000
0000
,  // measure 35
0030
0000
0000
0000
,  // measure 36
2000
0000
0000
0000
,  // measure 37
3000
0000
0000
0000
,  // measure 38
0002
0000
0000
0000
,  // measure 39
0003
0000
0000
0000
,  // measure 40
1000
0000
0100
0000
,  // measure 41
0010
0000
0001
0000
,  // measure 42
0010
0000
1000
0000
,  // measure 43
1000
0000
0100
0000
,  // measure 44
0001
0000
1000
0000
,  // measure 45
0100
0000
0010
0000
,  // measure 46
0001
0000
0100
0000
,  // measure 47
0001
0000
0010
0000
,  // measure 48
1001
0000
0000
0000
;
