#TITLE:Summer (speedy mix);
#SUBTITLE:;
#ARTIST:\:);
#TITLETRANSLIT:;
#SUBTITLETRANSLIT:;
#ARTISTTRANSLIT:;
#GENRE:;
#CREDIT:;
#BANNER:;
#BACKGROUND:DDR CD-bg.JPG;
#LYRICSPATH:;
#CDTITLE:;
#MUSIC:Summer (speedy mix).ogg;
#OFFSET:-0.100000;
#SAMPLESTART:10.479979;
#SAMPLELENGTH:15.000000;
#SELECTABLE:YES;
#BPMS:0.000000=185.000000
;
#STOPS:
;
#BGCHANGES:;
#KEYSOUNDS:;
#ATTACKS:;

//---------------dance-single - ----------------
#NOTES:
     dance-single:
     :
     Hard:
     17:
     0.944544,1.249693,0.347990,0.245640,0.839270,646.000000,612.000000,34.000000,24.000000,0.000000,0.000000,0.944544,1.249693,0.347990,0.245640,0.839270,646.000000,612.000000,34.000000,24.000000,0.000000,0.000000:
0000
0000
0000
0000
,
0000
0000
0000
0000
,
0000
0000
0000
0000
,
0000
0000
0000
0000
,
0000
0000
0000
0000
,
1001
0000
0000
0000
0100
0000
0000
0001
0100
0000
0010
0000
1000
0000
0100
0000
,
1000
0000
0001
0000
0100
0000
0001
0000
1000
0000
0100
0000
0100
0000
0000
1000
,
0001
0000
0101
0000
1000
0010
0000
0100
,
2002
0000
0000
3003
,
1000
0000
0001
0000
0100
0000
0010
1000
0000
0100
0000
1000
0010
0000
0100
0000
,
0001
0000
0100
0000
0010
0000
1000
0010
0000
0100
0000
0001
0100
0000
0010
0000
,
1000
0000
0100
0000
1000
0000
0010
0100
0000
0100
0000
0100
0001
0000
0010
0000
,
0001
0000
1000
0000
0100
0000
1000
0001
0000
0001
0000
0001
0010
0000
0001
0000
,
0100
0000
0010
0000
1000
0000
0010
1000
0000
1000
0000
0100
1000
0000
0010
0000
,
0100
0000
0001
0000
0100
0000
0010
0100
0000
0001
0000
0010
0001
0000
0010
0000
,
0001
0000
0001
0000
0100
0000
0010
1000
0000
1000
0000
1000
0001
0000
0001
0000
,
0100
0000
0010
0000
1000
0000
0001
0100
0010
0100
0000
0010
1000
0000
0010
0000
,
1001
0000
1000
0100
0010
0000
0100
0010
0001
0000
0010
0001
1000
0000
1002
0000
,
0000
0103
0010
0000
2010
0000
3100
0000
,
1000
0000
0001
0010
0100
0000
0010
0100
1000
0000
0100
1000
0001
0000
2002
0000
,
0003
0000
3010
0100
0001
0000
0000
0000
2002
0000
0000
0000
0000
0000
3003
0000
,
1000
0010
0100
0001
1000
0100
0010
0100
,
1000
0010
0100
0010
1000
0001
0100
0010
,
0100
0001
0010
0001
0100
0001
0010
0001
,
2002
3003
0220
0330
,
1000
0100
1000
0100
1000
0001
1000
0001
1000
0010
1000
0010
0100
0010
0100
0001
,
0100
0001
0100
0010
1000
0100
1000
0010
0100
0001
0100
0010
1000
0100
1000
0001
,
0100
0010
1000
0100
1000
0010
0100
0001
1000
0100
0010
0001
0100
0010
1000
0100
,
0020
0030
2002
3003
,
1000
0000
0001
0000
0100
0000
0010
1000
0000
0100
0000
1000
0010
0000
0100
0000
,
0001
0000
0100
0000
0010
0000
1000
0010
0000
0100
0000
0001
0100
0000
0010
0000
,
1000
0000
0100
0000
1000
0000
0010
0100
0000
0100
0000
0100
0001
0000
0010
0000
,
0001
0000
1000
0000
0100
0000
1000
0001
1000
0001
1000
0001
1000
0001
1000
0010
,
0100
0000
0010
0000
1000
0000
0010
1000
0000
1000
0000
0100
1000
0000
0010
0000
,
1000
0000
0100
1000
0100
0000
0010
0000
1002
0000
0000
0000
0023
0000
0000
0000
,
0031
0000
0001
0000
0100
0000
0010
1000
0000
1000
0000
1000
0001
0000
0001
0000
,
1000
0000
0001
0100
0010
0100
0010
0000
1001
0000
0000
0000
0110
0000
0000
0000
,
1000
0100
1000
0100
1000
0001
1000
0001
1000
0010
1000
0010
0100
0010
0100
0001
,
0100
0001
0100
0010
1000
0100
1000
0010
0100
0001
0100
0010
1000
0100
1000
0001
,
0100
0010
1000
0100
1000
0010
0100
0001
1000
0100
0010
0001
0100
0010
1000
0100
,
0010
0001
0100
0010
0100
0001
0100
0010
1000
0100
1000
0100
1000
0001
1000
0001
,
1000
0000
1000
0100
0010
0000
0100
0010
0001
0000
0010
0001
1000
0000
1002
0000
,
0000
0103
0010
0000
2010
0000
3100
0000
,
1000
0000
0001
0010
0100
0000
0010
0100
1000
0000
0100
1000
0001
0000
2002
0000
,
0003
0000
3010
0100
0001
0000
0000
0000
2002
0000
0000
0000
0000
0000
3003
0000
,
1000
0010
1000
0010
0100
0001
0100
0001
,
1000
0100
0001
0100
1000
0100
0001
0100
,
1000
0010
0001
0010
1000
0010
0001
0010
,
1000
0100
0010
0001
0100
0010
1000
0001
,
1001
0000
0100
0001
0100
0000
0100
0000
0000
0000
0010
0000
0000
0000
0010
0000
,
0110
0000
0001
0100
0001
0000
1000
0000
0000
0000
0100
0000
0000
0100
0000
0000
,
1001
0000
0100
0010
0100
0000
0010
0000
0000
0000
1000
0000
0010
0000
0000
0000
,
0100
0000
0010
1000
0100
0010
0001
0100
0010
1000
0100
0010
0001
0100
0001
0100
,
0010
0000
0100
0001
0100
0000
0100
0000
0000
0000
0010
0000
0010
0000
0000
0000
,
0110
0000
0001
0100
0001
0000
1000
0000
0000
0000
0100
0000
0000
0100
0000
0000
,
1001
0000
0000
0010
0100
0000
0010
0000
0000
0000
1000
0000
0010
0000
0000
0000
,
1002
0100
1000
0100
,
1003
0010
0100
0001
1000
0100
0010
0100
,
1000
0010
0100
0010
1000
0001
0100
0010
,
0100
0001
0010
0001
0100
0001
0010
0001
,
1000
0100
1000
0010
1000
0001
1000
1000
,
0001
1000
0001
1000
0001
1000
0001
1000
0010
0100
0010
0100
0010
0100
0010
0100
,
0001
1000
0100
0010
0001
0100
0010
1000
0100
0010
0001
0100
0010
1000
0100
0010
,
0001
1000
0010
0100
0010
1000
0010
0100
0010
1000
0100
0010
0100
1000
0100
0010
,
0100
1000
0010
0100
0001
0100
0001
0010
0001
0010
0001
0010
0001
0000
0000
0000
,
1000
0001
1000
0100
0100
0100
1001
0000
,
0110
0000
1001
0000
1000
0001
0100
0010
,
1000
0100
1000
0001
0100
0010
0100
0000
,
1001
0000
0110
0000
1000
0010
0100
0001
,
1000
0010
0100
0001
1000
0010
0100
0000
,
0110
0000
1001
0000
0001
0010
0100
1000
,
0010
0100
0001
0010
0100
1000
0010
0000
,
1001
0000
0110
0000
1000
0001
0100
0001
,
1000
0100
1000
0010
0100
0010
0010
0000
,
1001
0000
0000
0000
;

//---------------dance-single - ----------------
#NOTES:
     dance-single:
     :
     Medium:
     12:
     0.526371,0.643781,0.204700,0.296815,0.000000,360.000000,340.000000,20.000000,29.000000,0.000000,0.000000,0.526371,0.643781,0.204700,0.296815,0.000000,360.000000,340.000000,20.000000,29.000000,0.000000,0.000000:
0000
0000
0000
0000
,
0000
0000
0000
0000
,
0000
0000
0000
0000
,
0000
0000
0000
0000
,
0000
0000
0000
0000
,
1000
0000
0101
0000
1000
0010
1000
0000
,
0001
0100
0010
0000
0100
0001
0100
0000
,
0001
0000
1100
0000
0001
1000
0010
1000
,
0020
0000
0000
0000
0000
0100
0130
0000
,
1000
0000
1000
0000
0001
0100
0001
0000
,
0100
0000
0100
0000
0010
1000
0010
0000
,
1000
0000
1000
0000
0001
0100
0001
0000
,
0001
0000
0010
0000
0001
0100
0010
0000
,
1000
0000
0010
0000
0100
0010
1000
0000
,
0001
0000
1000
0000
0100
1000
0010
0000
,
0100
0000
0010
0000
1000
0001
1000
0000
,
0100
0000
1000
0000
0010
0100
0001
0000
,
0002
2003
3020
0230
,
0302
2003
3200
2300
,
3020
0230
0302
2003
,
3020
0230
0302
0203
,
0310
1000
0010
1000
0010
1000
0010
0000
,
0100
0001
0100
0001
0100
0001
0100
0000
,
0001
1000
0001
1000
0010
0100
0010
0100
,
0002
0000
2003
0000
,
3010
0100
0001
0100
0010
1000
0100
1000
,
0100
1000
0010
0100
0001
0100
0010
0100
,
0001
0100
0010
1000
0100
1000
0010
1000
,
0002
0000
2003
0000
,
3010
0000
0101
0000
0010
1000
0100
0000
,
1000
0000
0101
0000
1000
0010
0100
0000
,
0010
0000
1100
0000
0001
0100
0010
0000
,
1000
0000
0101
0000
0001
0010
0001
0000
,
1000
0000
0001
0000
1000
0001
1000
0000
,
0001
0000
1000
0000
0001
1000
0001
0000
,
0100
0000
0010
0000
0100
0010
0100
0000
,
0010
0000
0100
0000
0010
0100
0010
0000
,
1000
0000
0010
0000
1000
0010
1000
0000
,
0001
0000
0100
0000
0001
0100
0001
0000
,
0010
0000
0001
0000
0010
0001
0010
0000
,
0100
0000
1000
0000
0100
1000
0100
0000
,
2002
0000
0000
0000
,
0000
0000
3003
0000
,
0220
0000
0000
0000
,
0000
0000
0330
0110
,
1001
0000
1000
0000
0100
1000
0010
0000
,
0100
0000
0001
0000
0010
0001
0100
0000
,
0010
0000
1000
0000
0001
1000
0001
0000
,
1000
0000
0010
0000
1000
0010
0100
0000
,
1001
0000
0001
0000
0100
0010
0100
0000
,
0001
0000
1000
0000
0100
1000
0010
0000
,
1000
0000
0001
0000
0100
0010
0100
0000
,
0001
0100
0010
0100
0001
0010
0001
0000
,
1001
1000
1100
1000
,
0110
0001
0101
0010
,
1001
1000
0101
0001
,
1000
0100
1000
0100
1000
0100
1000
0000
,
0010
1000
0010
1000
0010
1000
0010
0000
,
0100
0001
0100
0001
0100
0001
0100
0000
,
0001
1000
0001
1000
0010
0100
0010
0100
,
0002
0000
2003
0000
,
3010
0100
0001
0100
0010
1000
0100
1000
,
0100
1000
0010
0100
0001
0100
0010
0100
,
0001
0100
0010
1000
0100
1000
0010
1000
,
0002
0000
2003
0000
,
3001
0100
0010
0100
0001
1000
0010
0000
,
1001
1000
0100
0001
,
0010
1000
0100
0001
,
0010
1000
0100
0001
,
0010
0010
0010
0010
,
1001
0001
0100
1000
,
0010
0001
0100
1000
,
0010
0001
0100
1000
,
0010
0010
0010
0010
,
1001
0000
0000
0000
;

//---------------dance-single - ----------------
#NOTES:
     dance-single:
     :
     Easy:
     9:
     0.421097,0.530173,0.481045,0.347990,0.000000,288.000000,241.000000,47.000000,34.000000,0.000000,0.000000,0.421097,0.530173,0.481045,0.347990,0.000000,288.000000,241.000000,47.000000,34.000000,0.000000,0.000000:
0000
0000
0000
0000
,
0000
0000
0000
0000
,
0000
0000
0000
0000
,
0000
0000
0000
0000
,
0000
0000
0000
0000
,
1000
0101
1000
1000
,
0001
0010
0100
0100
,
0001
1100
0001
0010
,
0020
0000
0000
0030
,
1000
1000
0001
0001
,
0100
0100
0010
0010
,
1000
1000
0001
0001
,
0010
0010
0100
0100
,
1000
1000
0100
0100
,
0001
0001
0100
0100
,
0010
0010
1000
1000
,
0100
0100
0001
0001
,
0002
2003
3020
0230
,
0302
2003
3200
2300
,
3020
0230
0302
2003
,
3020
0230
0302
0203
,
0310
0010
0010
0010
,
0100
0100
0100
0100
,
0001
1001
0010
0110
,
0002
0000
2003
0000
,
3001
1001
1000
1001
,
0100
1001
0010
1001
,
0100
1001
0010
1001
,
0002
0000
2003
0000
,
3010
0101
0010
0100
,
1000
0101
1000
0100
,
0010
1100
0001
0010
,
1000
0101
0001
0001
,
1000
0001
1000
1001
,
0001
1000
0001
1001
,
0100
0010
0100
0110
,
0010
0100
0010
0110
,
1000
0010
1000
1010
,
0001
0100
0001
0101
,
0010
0001
0010
0011
,
0100
1000
0100
1100
,
2002
0000
0000
0000
,
0000
0000
3003
0000
,
0220
0000
0000
0000
,
0000
0000
0000
0330
,
1001
1000
0100
0010
,
0100
0001
0010
0100
,
0010
1000
0001
0001
,
1000
0010
1000
0100
,
2002
0000
0000
3000
,
0200
0000
0000
0003
,
0020
0000
0000
0300
,
2000
0000
0000
3030
,
1001
1000
1100
1000
,
0110
0001
0101
0010
,
1001
1000
0101
0001
,
1000
1000
1000
1000
,
0010
1010
0010
1010
,
0100
0101
0100
0101
,
0001
1001
0010
0110
,
0002
0000
2003
0000
,
3001
1001
1000
1001
,
0100
1001
0010
1001
,
0100
1001
0010
1001
,
0002
0000
2003
0000
,
3001
0000
0001
0000
0001
1000
0001
0000
,
1001
1000
0100
0001
,
0010
1000
0100
0001
,
0010
1000
0100
0001
,
0010
0010
0010
0010
,
1001
0001
0100
1000
,
0010
0001
0100
1000
,
0010
0001
0100
1000
,
0010
0010
0010
0010
,
1001
0000
0000
0000
;

//---------------dance-single - ----------------
#NOTES:
     dance-single:
     :
     Beginner:
     3:
     0.191541,0.265086,0.010235,0.071645,0.000000,131.000000,130.000000,1.000000,7.000000,0.000000,0.000000,0.191541,0.265086,0.010235,0.071645,0.000000,131.000000,130.000000,1.000000,7.000000,0.000000,0.000000:
// measure 0
0000
0000
0000
0000
,  // measure 1
0000
0000
0000
0000
,  // measure 2
0000
0000
0000
0000
,  // measure 3
0000
0000
0000
0000
,  // measure 4
0000
0000
0000
0000
,  // measure 5
1000
0000
1000
0000
,  // measure 6
0001
0000
0100
0000
,  // measure 7
0001
0000
0001
0000
,  // measure 8
0002
0000
0003
0000
,  // measure 9
1000
1000
0000
0000
,  // measure 10
0100
0100
0000
0000
,  // measure 11
1000
1000
0000
0000
,  // measure 12
0010
0010
0000
0000
,  // measure 13
0001
0001
0000
0000
,  // measure 14
0001
0001
0000
0000
,  // measure 15
0010
0010
0000
0000
,  // measure 16
0100
0100
0000
0000
,  // measure 17
0001
0000
0010
0000
,  // measure 18
0001
0000
0100
0000
,  // measure 19
0010
0000
0001
0000
,  // measure 20
0010
0000
1000
0000
,  // measure 21
0010
0010
0010
0000
,  // measure 22
0100
0100
0100
0000
,  // measure 23
0001
0000
0010
0000
,  // measure 24
0001
0000
1000
0000
,  // measure 25
0001
0000
1000
0000
,  // measure 26
0100
0000
0010
0000
,  // measure 27
0100
0000
0010
0000
,  // measure 28
0001
0000
1000
0000
,  // measure 29
0010
0000
0010
0000
,  // measure 30
1000
0000
1000
0000
,  // measure 31
0010
0000
0001
0000
,  // measure 32
1000
0000
0001
0000
,  // measure 33
1000
0000
1000
0000
,  // measure 34
0001
0000
0001
0000
,  // measure 35
0100
0000
0100
0000
,  // measure 36
0010
0000
0010
0000
,  // measure 37
1000
0000
1000
0000
,  // measure 38
0001
0000
0001
0000
,  // measure 39
0010
0000
0010
0000
,  // measure 40
0100
0000
0100
0000
,  // measure 41
2000
0000
0000
0000
,  // measure 42
3000
0000
0000
0000
,  // measure 43
0002
0000
0000
0000
,  // measure 44
0003
0000
0000
0000
,  // measure 45
1000
0000
0100
0000
,  // measure 46
0100
0000
0010
0000
,  // measure 47
0010
0000
0001
0000
,  // measure 48
1000
0000
1000
0000
,  // measure 49
0002
0000
0000
0000
,  // measure 50
0003
0000
0000
0000
,  // measure 51
2000
0000
0000
0000
,  // measure 52
3000
0000
0000
0000
,  // measure 53
0020
0000
0000
0000
,  // measure 54
0030
0000
0000
0000
,  // measure 55
0200
0000
0000
0000
,  // measure 56
0300
0000
0000
0000
,  // measure 57
0010
0010
0010
0000
,  // measure 58
0100
0100
0100
0000
,  // measure 59
0001
0001
0001
0000
,  // measure 60
1000
1000
1000
0000
,  // measure 61
0001
0000
1000
0000
,  // measure 62
0100
0000
0010
0000
,  // measure 63
0100
0000
0010
0000
,  // measure 64
0001
0000
1000
0000
,  // measure 65
0001
0001
0001
0001
,  // measure 66
0001
0000
0100
0000
,  // measure 67
0010
0000
0100
0000
,  // measure 68
0010
0000
0100
0000
,  // measure 69
0010
0010
0010
0000
,  // measure 70
0001
0000
0100
0000
,  // measure 71
0010
0000
0100
0000
,  // measure 72
0010
0000
0100
0000
,  // measure 73
0010
0010
0010
0000
,  // measure 74
1001
0000
0000
0000
;
