#TITLE:Stump To The Boomin Beat;
#SUBTITLE:;
#ARTIST:B.B.C.;
#TITLETRANSLIT:;
#SUBTITLETRANSLIT:;
#ARTISTTRANSLIT:;
#GENRE:;
#CREDIT:;
#BANNER:;
#BACKGROUND:Stump To The Boomin Beat Radio-bg.jpg;
#LYRICSPATH:;
#CDTITLE:;
#MUSIC:Stump To The Boomin Beat Radio + Blue Short.ogg;
#OFFSET:0.009000;
#SAMPLESTART:44.323566;
#SAMPLELENGTH:12.000000;
#SELECTABLE:YES;
#BPMS:0.000000=129.891006
;
#STOPS:
;
#BGCHANGES:;
#KEYSOUNDS:;
#ATTACKS:;

//---------------dance-single - ----------------
#NOTES:
     dance-single:
     :
     Hard:
     15:
     0.556453,0.755205,0.562886,0.105072,0.217649,519.000000,444.000000,75.000000,14.000000,0.000000,0.000000,0.556453,0.755205,0.562886,0.105072,0.217649,519.000000,444.000000,75.000000,14.000000,0.000000,0.000000:
0000
0000
0000
0000
,
0000
0000
0000
0000
,
0000
0000
0000
0000
,
0000
0000
0000
0000
,
0100
0000
0000
1000
0000
0000
0001
0000
0010
0000
0100
0000
1000
0000
0001
0000
,
0100
0000
0000
0001
0000
0000
1000
0000
0001
0000
0010
0000
0100
0000
1000
0000
,
0001
0000
0000
0010
0000
0000
0100
0000
1000
0000
0001
0000
0010
0000
1000
0000
,
0001
0000
0000
1000
0000
0000
0100
0000
1000
0000
0100
0000
0010
0000
0001
0000
,
1000
0000
0000
0010
0000
0000
0100
0000
0001
0000
0010
0000
0100
0000
1000
0000
,
0010
0000
0000
0100
0000
0000
0001
0000
1000
0000
0100
0000
0010
0000
0001
0000
,
1000
0000
0000
0010
0000
0000
1000
0000
0001
0000
0010
0000
0100
0000
1000
0000
,
0100
0000
0000
1000
0000
0000
0010
0000
1000
0000
0100
0000
0010
0000
0001
0000
,
0100
0000
0000
0010
0000
0000
1000
0000
0001
0000
0010
0000
0100
0000
1000
0000
,
0001
0000
0000
1000
0000
0000
0100
0000
1000
0000
0100
0000
0010
0000
0001
0000
,
1000
0000
0000
0010
0000
0000
1000
0000
0001
0000
0010
0000
0100
0000
1000
0000
,
0010
0000
0000
1000
0000
0000
0001
0000
1000
0000
0100
0000
0010
0000
0001
0000
,
1000
0000
0100
0000
0001
0010
1000
0000
,
1001
0100
1100
1001
,
0011
0001
0001
0001
1000
1000
1000
1001
,
0000
0100
0010
0001
0000
1000
0010
0100
,
0010
1000
0001
0100
0010
0100
0010
1000
,
0001
0100
0010
1000
0010
0100
0001
0100
,
0001
1000
0010
0100
0010
0100
0001
0100
,
0000
0000
0000
0000
0000
0000
0001
0000
0010
0000
1000
0010
1000
0010
1000
0000
,
1010
0000
0011
0000
1010
0000
1000
0001
1000
0001
0000
0001
0010
0001
0000
0010
,
0100
0010
0100
1000
1001
0001
1001
0001
,
1001
0000
1010
0000
1001
0000
1000
0001
1000
0001
0000
0001
0100
0001
0000
0001
,
1000
0001
1000
0001
1001
1000
1001
1000
,
1010
0000
1100
0000
1010
0000
1000
0010
1000
0010
0000
0010
0100
0001
0000
0001
,
1000
0010
0100
0001
1001
0010
1001
0010
,
1001
0000
1100
0000
1001
0000
1000
0001
1000
0001
0000
0001
0100
0001
0000
0001
,
1000
0001
1000
0001
1001
1000
1001
1000
,
1020
0100
0100
0100
0130
0000
0000
0000
,
2001
0001
0001
0001
3001
0000
0000
0000
,
0210
0010
0010
0010
0310
0000
0000
0000
,
2001
0001
0001
0001
3001
0000
0000
0000
,
2001
0001
0001
0001
3001
0000
0110
0000
,
1020
1000
1000
1000
1030
0000
1001
0000
,
2010
0010
0010
0010
3010
0000
0101
0000
,
2001
0001
0001
0001
3001
0000
1100
0000
,
0100
0000
0000
1000
0000
0000
0001
0000
0010
0000
0100
0000
1000
0000
0001
0000
,
0100
0000
0000
0001
0000
0000
1000
0000
0001
0000
0010
0000
0100
0000
1000
0000
,
0001
0000
0000
0010
0000
0000
0100
0000
1000
0000
0001
0000
0010
0000
1000
0000
,
0001
0000
0000
1000
0000
0000
0100
0000
1000
0000
0100
0000
0010
0000
0001
0000
,
1000
0000
0000
0010
0000
0000
0100
0000
0001
0000
0010
0000
0100
0000
1000
0000
,
0010
0000
0000
0100
0000
0000
0001
0000
1000
0000
0100
0000
0010
0000
0001
0000
,
1000
0000
0000
0010
0000
0000
1000
0000
0001
0000
0010
0000
0100
0000
1000
0000
,
0100
0000
0000
1000
0000
0000
0010
0000
1000
0000
0100
0000
0010
0000
0001
0000
,
0100
0000
0000
0010
0000
0000
1000
0000
0001
0000
0010
0000
0100
0000
1000
0000
,
0001
0000
0000
1000
0000
0000
0100
0000
1000
0000
0100
0000
0010
0000
0001
0000
,
1000
0000
0000
0010
0000
0000
1000
0000
0001
0000
0010
0000
0100
0000
1000
0000
,
0010
0000
0000
1000
0000
0000
0001
0000
1000
0000
0100
0000
0010
0000
0001
0000
,
1000
0000
0000
0010
0000
0000
0100
0000
0001
0000
0010
0000
0100
0000
1000
0000
,
0001
0000
0000
0010
0000
0000
0100
0000
1000
0000
0100
0000
0010
0000
0001
0000
,
1000
0000
0000
0010
0000
0000
0100
0000
0001
0000
0010
0000
0100
0000
1000
0000
,
0010
0000
0000
0100
0000
0000
0001
0000
1000
0000
0100
0000
0010
0000
0001
0000
,
1001
0000
0000
1000
0000
0000
1000
0000
1100
0000
0110
0000
0011
0000
1010
0000
,
0101
0000
0000
0100
0000
0000
1100
0000
0011
0000
1010
0000
0110
0000
1001
0000
,
0011
0000
0000
0001
0000
0000
1001
0000
1010
0000
0101
0000
0110
0000
1100
0000
,
1010
0000
0000
1000
0000
0000
1000
0000
1001
0000
0110
0000
1001
0000
0101
0000
,
1010
0000
0000
0010
0000
0000
0010
0000
0110
0000
1001
0000
0110
0000
1001
0000
,
0110
0000
0000
0100
0000
0000
0100
0000
1100
0000
0110
0000
0011
0000
0110
0000
,
1100
0000
0000
1000
0000
0000
1000
0000
1001
0000
1001
0000
1001
0000
1001
0000
,
1000
0000
0000
0010
0000
0000
0001
0000
1000
0000
0001
0000
1000
0000
0001
0000
,
2000
0000
0000
3000
,
0002
0000
0000
0003
,
2000
0000
0000
3000
,
0001
0010
0100
1000
,
0002
0000
0000
0003
,
2000
0000
0000
3000
,
0002
0000
0000
0003
,
1000
0100
0010
0001
0010
0100
1000
1001
;

//---------------dance-single - ----------------
#NOTES:
     dance-single:
     :
     Medium:
     11:
     0.380618,0.430795,0.337731,0.195134,0.090062,355.000000,310.000000,45.000000,26.000000,0.000000,0.000000,0.380618,0.430795,0.337731,0.195134,0.090062,355.000000,310.000000,45.000000,26.000000,0.000000,0.000000:
0000
0000
0000
0000
,
0000
0000
0000
0000
,
0000
0000
0000
0000
,
0000
0000
0000
0000
,
2100
0000
0000
3001
0010
0100
1000
0000
,
0102
0000
0000
1003
0001
0010
0100
0000
,
0021
0000
0000
0130
1000
0001
0010
0000
,
2001
0000
0000
3100
1000
0100
0010
0000
,
1020
0000
0000
0130
0001
0010
0100
0000
,
0210
0000
0000
0301
1000
0100
0010
0000
,
1002
0000
0000
1003
0001
0010
0100
0000
,
0120
0000
0000
1030
1000
0100
0010
0000
,
0120
0000
0000
0031
0001
0010
0100
1000
,
2001
0000
0000
3100
1000
0100
0010
0000
,
1002
0000
0000
1003
0001
0010
0100
1000
,
2010
0000
0000
3001
1000
0100
0010
0001
,
1000
0000
0100
0000
0001
0010
1000
0000
,
1001
0100
1100
1001
,
0011
0000
0001
0001
1000
1000
1000
0000
,
1001
0000
0010
0001
1000
0000
0010
0000
,
0010
1000
0001
0000
0010
0000
1000
0000
,
0001
0100
0010
0000
0010
0000
1000
0000
,
0001
1000
0010
0000
0010
0000
1000
0000
,
0000
0000
0000
0000
1000
1000
1000
1000
,
1000
1010
1000
0010
,
0100
0010
0100
0000
1001
0000
1001
0000
,
1001
0000
1000
0001
1000
0000
0100
0000
,
1000
0001
1000
0000
1001
0000
1001
0000
,
1010
0000
1000
1000
1000
0000
0100
0000
,
1000
0010
0100
0001
1000
0010
1000
0010
,
1000
1001
1000
0100
,
1001
0000
1000
0001
1000
1000
1000
0000
,
1020
1000
1030
0000
,
2001
0001
3001
0000
,
0210
0010
0310
0000
,
2001
0001
3001
0000
,
2001
0001
3001
0110
,
1020
1000
1030
1001
,
2010
0010
3010
0101
,
2001
0001
3001
1100
,
1000
0000
0000
1000
0000
0000
1000
0000
0010
0000
0000
0000
1000
0000
0000
0000
,
0001
0000
0000
0001
0000
0000
0001
0000
0001
0000
0000
0000
0100
0000
0000
0000
,
0010
0000
0000
0010
0000
0000
0010
0000
1000
0000
0000
0000
0010
0000
0000
0000
,
1000
0000
0000
1000
0000
0000
1000
0000
1000
0000
0000
0000
0010
0000
0000
0000
,
0010
0000
0000
0010
0000
0000
0010
0000
0001
0000
0000
0000
0100
0000
0000
0000
,
0100
0000
0000
0100
0000
0000
0100
0000
1000
0000
0000
0000
0010
0000
0000
0000
,
0010
0000
0000
0010
0000
0000
0010
0000
1000
0000
0000
0000
0100
0000
0000
0000
,
1000
0000
0000
1000
0000
0000
1000
0000
1000
0000
0000
0000
0010
0000
0000
0000
,
0010
0000
0000
0010
0000
0000
0010
0000
0001
0000
0000
0000
0100
0000
0000
0000
,
1000
0000
0000
1000
0000
0000
1000
0000
1000
0000
0000
0000
0010
0000
0000
0000
,
0001
0000
0000
0001
0000
0000
0001
0000
0001
0000
0000
0000
0100
0000
0000
0000
,
1000
0000
0000
1000
0000
0000
1000
0000
1000
0000
0000
0000
0010
0000
0000
0000
,
0010
0000
0000
0010
0000
0000
0010
0000
0001
0000
0010
0000
0100
0000
1000
0000
,
0001
0000
0000
0001
0000
0000
0001
0000
1000
0000
0000
0000
0010
0000
0000
0000
,
1000
0000
0000
1000
0000
0000
1000
0000
0001
0000
0000
0000
0100
0000
0000
0000
,
0010
0000
0000
0010
0000
0000
0010
0000
1000
0000
0000
0000
0001
0000
0000
0000
,
1000
0000
0000
1000
0000
0000
1000
0000
1000
0000
0000
0000
0011
0000
0000
0000
,
0100
0000
0000
0100
0000
0000
0100
0000
0010
0000
0000
0000
0110
0000
0000
0000
,
0001
0000
0000
0001
0000
0000
0001
0000
0010
0000
0000
0000
0110
0000
0000
0000
,
1000
0000
0000
1000
0000
0000
1000
0000
0001
0000
0000
0000
1001
0000
0000
0000
,
0010
0000
0000
0010
0000
0000
0010
0000
0100
0000
0000
0000
0110
0000
0000
0000
,
0100
0000
0000
0100
0000
0000
0100
0000
0100
0000
0000
0000
0011
0000
0000
0000
,
1000
0000
0000
1000
0000
0000
1000
0000
1000
0000
0000
0000
1001
0000
0000
0000
,
0010
0000
0000
0010
0000
0000
0010
0000
1000
0000
0001
0000
1000
0000
0001
0000
,
2000
0000
0000
3000
,
0002
0000
0000
0003
,
2000
0000
0000
3000
,
0001
0010
0100
1000
,
0002
0000
0000
0003
,
2000
0000
0000
3000
,
0002
0000
0000
0003
,
1000
0100
0010
0001
;

//---------------dance-single - ----------------
#NOTES:
     dance-single:
     :
     Easy:
     6:
     0.272329,0.350021,0.232659,0.390267,0.000000,254.000000,223.000000,31.000000,52.000000,0.000000,0.000000,0.272329,0.350021,0.232659,0.390267,0.000000,254.000000,223.000000,31.000000,52.000000,0.000000,0.000000:
0000
0000
0000
0000
,
0000
0000
0000
0000
,
0000
0000
0000
0000
,
0000
0000
0000
0000
,
2100
0000
0100
3000
0010
0000
1000
0000
,
0102
0000
1000
0003
0001
0000
0100
0000
,
0021
0000
0001
0030
0010
0000
0010
0000
,
2001
0000
0100
3000
1000
0000
0010
0000
,
1020
0000
0100
0030
1000
0000
0100
0000
,
0210
0000
1000
0300
1000
0000
0010
0000
,
1002
0000
0100
0003
0001
0000
0001
0000
,
0120
0000
1000
0030
1000
0000
0001
0000
,
0120
0000
0100
0030
0001
0000
0100
0000
,
2001
0000
0100
3000
1000
0000
0010
0000
,
1002
0000
1000
0003
0001
0000
0100
0000
,
2010
0000
0001
3000
1000
0000
0010
0000
,
1000
0100
0001
0100
,
1001
0100
1100
1000
,
0011
0001
1000
1000
,
1001
0010
1000
0010
,
0010
0001
0010
1000
,
0001
0010
0010
1000
,
0001
0010
0010
1000
,
2002
0000
0000
3003
,
1000
0010
1000
0010
,
0100
0100
1001
1001
,
1000
1000
1000
0001
,
1000
0010
1001
1001
,
0010
1000
1000
0100
,
1000
0001
0001
0001
,
0010
1001
1000
0100
,
1001
1000
0100
1000
,
1020
1000
1030
0000
,
2001
0001
3001
0000
,
0210
0010
0310
0000
,
2001
0001
3001
0000
,
2001
0001
3001
0001
,
1020
1000
1030
1000
,
2010
0010
3010
0010
,
2001
0001
3001
0001
,
2000
0000
3010
1000
,
0002
0000
0103
0100
,
0020
0000
1030
0010
,
2000
0000
3001
0010
,
0020
0000
0031
1000
,
0200
0000
1300
0010
,
0020
0000
1030
0100
,
2000
0000
3001
0010
,
0020
0000
0031
1000
,
2000
0000
3001
0010
,
0002
0000
1003
0100
,
2000
0000
3001
0010
,
0020
0000
0031
0100
,
0002
0000
1003
0010
,
2000
0000
3001
0100
,
0020
0000
1030
0001
,
2000
0000
3001
0010
,
0200
0000
0310
0100
,
0002
0000
0013
0100
,
2000
0000
3001
1000
,
0020
0000
0130
0010
,
0200
0000
0310
0010
,
2000
0000
3001
0001
,
0020
0000
1030
1000
,
2000
0000
0000
3000
,
0002
0000
0000
0003
,
2000
0000
0000
3000
,
0001
0010
0100
1000
,
0002
0000
0000
0003
,
2000
0000
0000
3000
,
0002
0000
0000
0003
,
1000
0100
0010
0001
;

//---------------dance-single - ----------------
#NOTES:
     dance-single:
     :
     Beginner:
     3:
     0.149031,0.187816,0.000000,0.007505,0.000000,139.000000,139.000000,0.000000,1.000000,0.000000,0.000000,0.149031,0.187816,0.000000,0.007505,0.000000,139.000000,139.000000,0.000000,1.000000,0.000000,0.000000:
// measure 0
0000
0000
0000
0000
,  // measure 1
0000
0000
0000
0000
,  // measure 2
0000
0000
0000
0000
,  // measure 3
0000
0000
0000
0000
,  // measure 4
0100
0100
0000
0000
,  // measure 5
0100
0100
0000
0000
,  // measure 6
0001
0001
0000
0000
,  // measure 7
0001
0001
0000
0000
,  // measure 8
1000
1000
0000
0000
,  // measure 9
0010
0010
0000
0000
,  // measure 10
1000
1000
0000
0000
,  // measure 11
0100
0100
0000
0000
,  // measure 12
0100
0100
0000
0000
,  // measure 13
0001
0001
0000
0000
,  // measure 14
0001
0001
0000
0000
,  // measure 15
0010
0010
0000
0000
,  // measure 16
1000
0000
0001
0000
,  // measure 17
1000
0000
0100
0000
,  // measure 18
0001
0000
1000
0000
,  // measure 19
0001
0000
1000
0000
,  // measure 20
0010
0000
0010
0000
,  // measure 21
0001
0000
0010
0000
,  // measure 22
0001
0000
0010
0000
,  // measure 23
2000
0000
0000
3000
,  // measure 24
1000
0000
1000
0000
,  // measure 25
0100
0000
0001
0000
,  // measure 26
1000
0000
1000
0000
,  // measure 27
1000
0000
0001
0000
,  // measure 28
0010
0000
1000
0000
,  // measure 29
1000
0000
0001
0000
,  // measure 30
0010
0000
1000
0000
,  // measure 31
0001
0000
0100
0000
,  // measure 32
1000
1000
1000
0000
,  // measure 33
0001
0001
0001
0000
,  // measure 34
0010
0010
0010
0000
,  // measure 35
0001
0001
0001
0000
,  // measure 36
0001
0001
0001
0000
,  // measure 37
1000
1000
1000
0000
,  // measure 38
0010
0010
0010
0000
,  // measure 39
0001
0001
0001
0000
,  // measure 40
1000
0000
0010
0000
,  // measure 41
0001
0000
0100
0000
,  // measure 42
0010
0000
1000
0000
,  // measure 43
1000
0000
0001
0000
,  // measure 44
0010
0000
0001
0000
,  // measure 45
0100
0000
1000
0000
,  // measure 46
0010
0000
1000
0000
,  // measure 47
1000
0000
0001
0000
,  // measure 48
0010
0000
0001
0000
,  // measure 49
1000
0000
0001
0000
,  // measure 50
0001
0000
1000
0000
,  // measure 51
1000
0000
0001
0000
,  // measure 52
0010
0000
0001
0000
,  // measure 53
0001
0000
1000
0000
,  // measure 54
1000
0000
0001
0000
,  // measure 55
0010
0000
1000
0000
,  // measure 56
1000
0000
0001
0000
,  // measure 57
0100
0000
0010
0000
,  // measure 58
0001
0000
0010
0000
,  // measure 59
1000
0000
0001
0000
,  // measure 60
0010
0000
0100
0000
,  // measure 61
0100
0000
0010
0000
,  // measure 62
1000
0000
0001
0000
,  // measure 63
0010
0000
1000
0000
,  // measure 64
1000
0000
0000
0000
,  // measure 65
0001
0000
0000
0000
,  // measure 66
1000
0000
0000
0000
,  // measure 67
0001
0001
0001
0000
,  // measure 68
0001
0000
0000
0000
,  // measure 69
1000
0000
0000
0000
,  // measure 70
0001
0000
0000
0000
,  // measure 71
1000
1000
1000
0000
;
