#VERSION:0.83;
#TITLE:Staring at the sun;
#SUBTITLE:;
#ARTIST:The Offspring;
#TITLETRANSLIT:;
#SUBTITLETRANSLIT:;
#ARTISTTRANSLIT:;
#GENRE:;
#ORIGIN:;
#CREDIT:;
#BANNER:;
#BACKGROUND:Staring at the sun-bg.jpg;
#PREVIEWVID:;
#JACKET:Staring at the sun-jacket.jpg;
#CDIMAGE:;
#DISCIMAGE:;
#LYRICSPATH:;
#CDTITLE:;
#MUSIC:Staring at the sun.ogg;
#OFFSET:-0.260000;
#SAMPLESTART:28.820004;
#SAMPLELENGTH:12.000000;
#SELECTABLE:YES;
#BPMS:0.000=152.500,
63.000=154.800,
68.000=155.700,
72.000=151.200,
80.000=151.140,
104.000=176.220,
112.000=352.759,
272.000=352.339,
284.000=352.119,
348.000=351.519,
404.000=350.899,
424.000=347.559,
432.000=348.539,
448.000=351.639,
464.000=353.079,
476.000=353.279,
540.000=350.979;
#STOPS:;
#DELAYS:;
#WARPS:;
#TIMESIGNATURES:0.000=4=4;
#TICKCOUNTS:0.000=4;
#COMBOS:0.000=1;
#SPEEDS:0.000=1.000=0.000=0;
#SCROLLS:0.000=1.000;
#FAKES:;
#LABELS:0.000=Song Start;
#BGCHANGES:;
#KEYSOUNDS:;
#ATTACKS:
;

//---------------dance-single - ----------------
#NOTEDATA:;
#CHARTNAME:;
#STEPSTYPE:dance-single;
#DESCRIPTION:;
#CHARTSTYLE:;
#DIFFICULTY:Hard;
#METER:18;
#RADARVALUES:0.881320,1.516511,0.456150,0.186947,0.044867,825.000000,764.000000,61.000000,25.000000,0.000000,0.000000,0.000000,0.000000,0.000000,0.881320,1.516511,0.456150,0.186947,0.044867,825.000000,764.000000,61.000000,25.000000,0.000000,0.000000,0.000000,0.000000,0.000000;
#CREDIT:;
#NOTES:
0000
0000
0000
0000
,
0000
0000
0000
0000
,
0000
0001
0000
0001
0010
0001
0100
0010
,
1000
0100
0000
0100
1000
0000
1001
0000
,
0000
1000
0000
1000
0010
0100
0010
1000
,
0100
0010
0000
0001
0010
0001
0100
0000
,
0000
1000
0000
0010
0100
0001
0100
0010
,
1000
0100
0010
0001
0010
0000
0001
0100
,
0010
0000
1001
0000
0110
0000
1001
1000
,
0100
0000
1000
0000
0010
0100
0001
1000
,
1100
0000
0000
1000
0100
0000
1000
0000
0010
0000
0100
0000
0001
0000
0010
0000
,
0001
0100
0010
1000
0100
1000
0010
0100
,
0011
0000
0000
0001
0100
0000
0010
0000
1000
0000
0010
0000
0100
0000
0001
0000
,
0010
0001
0010
0001
1000
0100
1000
0010
,
0101
0000
0000
0001
1000
0000
0100
0000
1000
0000
0010
0000
1000
0000
0100
0000
,
1000
0010
0100
0001
0010
0001
0100
0010
,
1010
0000
0000
0000
0101
0000
0000
0000
1010
0000
0000
0000
0101
0000
0000
0001
,
1000
0100
1000
0010
0100
0010
1000
0100
0010
0100
1000
0010
0100
0001
0010
0001
,
0100
0000
0102
0000
0100
0000
1000
1003
,
1000
0100
0010
0100
1000
0010
0100
0010
,
2010
0000
0001
0000
0010
0000
0001
3001
,
0001
0100
0010
1000
0010
0100
0001
1000
,
1020
0000
0100
0000
0001
0000
0100
0130
,
0010
1000
0100
0010
0001
0100
0010
1000
,
0001
0101
1001
1100
,
1001
0110
1001
0110
,
2002
0000
0000
0000
,
0000
0000
0000
3003
,
1000
0000
0001
0000
0100
0001
0100
0000
,
0010
0000
1000
0000
0100
1000
0100
0000
,
1000
0000
0010
0000
0100
0001
0010
0000
,
0001
0000
0100
0000
0010
1000
0100
0000
,
1000
0000
0100
0000
0010
0001
0010
0000
,
0001
0000
0010
0000
0100
1000
0100
0000
,
1000
0000
0010
0000
0100
0001
0100
0000
,
0010
0000
1000
0000
0001
0100
0001
0000
,
1000
0000
0100
0000
1000
0010
0100
0000
,
0001
0000
0100
0000
0010
1000
0001
0000
,
1000
0100
0010
0001
,
0010
0100
1000
0100
,
1002
0000
0203
0000
,
0320
0000
2030
0000
,
3100
0010
0100
1000
0010
0100
0001
0100
,
0010
1000
0100
0010
0001
0100
0010
1000
,
0100
0000
1000
0000
0001
0100
0010
0000
,
1000
0000
0100
0000
1000
0010
0100
0000
,
0001
0000
0010
0000
0100
1000
0010
0000
,
0100
0000
0001
0000
0010
0001
0100
0000
,
0010
0000
1000
0000
0100
1000
0010
0000
,
1000
0000
0100
0000
1000
0010
0100
0000
,
0001
0000
0100
0000
0010
1000
0100
0000
,
1000
0000
0001
0000
0100
0001
0010
0000
,
0001
0000
0100
0000
0010
0100
0001
0000
,
0010
0000
0001
0000
1000
0100
1000
0000
,
0010
0000
0100
0000
0010
1000
0100
0000
,
1000
0100
0010
0001
,
2001
0000
3020
0000
,
0230
0000
0302
0000
,
0103
0010
1000
0100
0010
0001
0100
0010
,
1000
0100
0010
0001
0100
0010
1000
0100
,
1000
0000
0100
0000
1000
0010
0100
0000
,
0001
0000
0100
0000
0010
0100
0001
0000
,
1000
0000
0100
0000
1000
0010
0100
0000
,
0001
0000
0100
0000
0010
0100
0001
0000
,
0010
0000
0001
0000
1000
0100
1000
0000
,
0010
0000
0100
0000
0001
0100
0010
0000
,
1001
0100
0010
0001
,
0101
0100
0010
1000
,
1100
0000
1000
0000
0001
0010
0001
0000
,
1000
0000
0010
0000
1000
0100
1000
0000
,
0010
0000
0100
0000
0001
0100
0001
0000
,
0100
0000
0010
0000
1000
0100
1000
0000
,
0010
0000
1000
0000
0100
1000
0100
0000
,
1000
0000
0010
0000
0100
0001
0100
0000
,
0010
0000
1000
0000
0100
0010
0001
0000
,
0010
0000
0100
0000
1000
0100
0010
0000
,
0001
0000
0100
0000
0010
1000
0001
0000
,
1000
0000
0100
0000
1000
0010
0100
0000
,
0001
0000
0010
0000
0001
0010
0001
0000
,
0100
0010
1000
0100
,
0012
0000
0203
0000
,
0320
0000
2030
0000
,
3100
1000
0100
0010
0001
0010
0100
1000
,
0010
0100
0001
0100
0010
1000
0100
0010
,
0100
0000
1000
0000
0010
0100
0010
0000
,
1000
0000
0100
0000
1000
0010
0100
0000
,
0001
0000
0100
0000
0001
0010
0001
0000
,
1000
0000
0100
0000
1000
0010
0100
0000
,
0001
0000
0100
0000
0010
1000
0100
0000
,
1000
0000
0100
0000
0010
0001
0010
0000
,
0001
0000
0100
0000
0010
1000
0010
0000
,
1000
0000
0100
0000
1000
0010
0100
0000
,
0001
0000
0100
0000
0010
0100
0001
0000
,
0010
0000
0001
0000
1000
0100
1000
0000
,
0010
0000
0100
0000
0001
0100
0001
0000
,
1000
0100
1000
0000
0010
0100
0010
0000
,
2001
0000
3020
0000
,
0230
0000
0302
0000
,
1003
0100
1000
0010
0100
0001
1000
0100
,
0010
0001
1000
0100
1000
0001
1000
0001
,
1000
0000
0100
0000
1000
0010
0100
0000
,
0001
0000
0100
0000
0010
0100
0001
0000
,
1000
0000
0100
0000
1000
0010
0100
0000
,
0001
0000
0100
0000
0010
0100
0001
0000
,
0010
0000
0001
0000
1000
0100
1000
0000
,
0010
0000
0100
0000
0001
0100
0010
0000
,
1001
0100
0010
0001
,
0101
0100
0010
1000
,
1001
0000
1001
0000
,
1001
0000
1001
0000
,
1001
0000
1001
0000
,
1001
0100
1001
0010
,
1001
0000
1100
0000
,
1001
0000
0011
0000
,
0101
0000
1010
0000
,
0110
1000
0010
0100
,
0101
0000
0011
0000
,
0101
0000
0011
0000
,
1100
0000
1010
0000
,
1100
1000
0010
0100
,
0001
1000
0100
0010
,
0001
0010
0100
1000
,
0001
0010
0100
1000
0001
0100
0010
1000
,
0001
1000
0001
1000
0100
1000
0100
1000
,
0010
0000
0100
0000
0001
0100
0010
0000
,
1000
0000
0100
0000
1000
0010
0100
0000
,
0001
0000
0100
0000
0010
1000
0100
0000
,
1000
0000
0010
0000
0100
0001
0010
0000
,
0001
0000
0100
0000
0010
1000
0100
0000
,
1000
0000
0001
0000
0100
0001
0010
0000
,
0001
0000
0100
0000
0010
1000
0100
0000
,
1000
0000
0001
0000
0100
0010
1000
0000
,
0100
0000
1000
0000
0010
0100
0001
0000
,
0100
0000
0001
0000
0010
0001
0100
0000
,
0001
0000
1000
0000
0010
1000
0100
0000
,
1000
0000
0010
0000
0100
0001
0100
0000
,
1020
0000
0230
0000
,
0302
0000
0023
0000
,
0031
1000
0100
1000
0010
1000
0100
1000
,
0010
1000
0001
1000
0100
1000
0001
0100
,
0010
0000
1000
0000
0100
0010
0001
0000
,
0010
0000
0100
0000
1000
0100
0010
0000
,
0001
0000
0010
0000
0100
1000
0100
0000
,
0010
0000
0001
0000
0010
0100
1000
0000
,
0100
0000
0010
0000
0001
0010
0100
0000
,
1000
0000
0100
0000
0010
0001
0010
0000
,
0100
0000
1000
0000
0100
0010
0001
0000
,
0010
0000
0100
0000
1000
0100
0010
0000
,
0001
0000
0010
0000
0100
1000
0100
0000
,
0010
0000
0001
0000
0010
0100
1000
0000
,
0100
0000
0010
0000
0001
0010
0100
0000
,
1000
0000
0100
0000
0010
0001
0010
0000
,
1001
0000
0110
0000
,
1001
0000
0110
0000
,
1001
1000
0100
0010
,
1001
0001
0010
0100
,
1001
0000
0000
0000
;

//---------------dance-single - ----------------
#NOTEDATA:;
#CHARTNAME:;
#STEPSTYPE:dance-single;
#DESCRIPTION:;
#CHARTSTYLE:;
#DIFFICULTY:Medium;
#METER:13;
#RADARVALUES:0.617458,0.991565,0.411283,0.246770,0.000000,578.000000,523.000000,55.000000,33.000000,0.000000,0.000000,0.000000,0.000000,0.000000,0.617458,0.991565,0.411283,0.246770,0.000000,578.000000,523.000000,55.000000,33.000000,0.000000,0.000000,0.000000,0.000000,0.000000;
#CREDIT:;
#NOTES:
0000
0000
0000
0000
,
0000
0000
0000
0000
,
0000
0001
0000
0001
0010
0001
0000
0010
,
0000
0100
0000
0100
1000
0000
1000
0000
,
0000
1000
0000
1000
0010
0100
0000
0010
,
0000
1000
0000
0001
0000
0001
0100
0000
,
0000
0010
0000
0010
0100
0001
0000
0010
,
0000
0100
0000
1000
0010
0000
0100
0000
,
0110
0000
1001
0000
0110
0000
0000
1000
,
0100
0000
1000
0000
0010
0100
0001
1000
,
0100
0000
0100
0000
0010
0100
0001
0010
,
0001
0100
0010
1000
0100
1000
0010
0100
,
0010
0000
1000
0000
1000
0010
0100
0001
,
0010
0001
0010
0001
1000
0100
1000
0010
,
0100
0000
0010
0000
1000
0010
1000
0100
,
1000
0010
0100
0001
0010
0001
0100
0010
,
1000
0101
1010
0101
,
2001
0100
0100
3100
,
1100
0000
0102
0000
0100
0000
1000
0003
,
1000
0010
1000
0100
,
2010
0000
0001
0000
0010
0000
0001
3000
,
0001
0010
0010
0001
,
1020
0000
0100
0000
1000
0000
0100
0030
,
0010
0100
0001
0010
,
0001
0101
1000
1100
,
0001
0110
1001
0100
,
2002
0000
0000
0000
,
0000
0000
0000
3003
,
1000
0001
0000
0001
,
0010
1000
0100
1000
,
1000
0010
0000
0010
,
0001
0100
0010
0000
,
1000
0100
0000
0010
,
0001
0010
0100
0100
,
1000
0010
0000
0100
,
0010
1000
0001
0000
,
1000
0100
1000
0100
,
0010
0100
0010
0001
,
1000
0100
0010
0001
,
0010
0000
0100
1000
,
0002
0000
0203
0000
,
0320
0000
2030
0000
,
3100
1000
0010
0100
,
0010
1000
0001
0010
,
0100
0000
1000
0010
,
0100
0010
0100
0001
,
0010
0010
0000
0100
,
0100
1000
0010
0100
,
0010
0000
0100
0000
,
0100
0010
0100
0001
,
0100
0010
0000
1000
,
0001
0100
0010
0100
,
0001
0000
1000
0000
,
0010
1000
0100
1000
,
0010
0100
0000
1000
,
0001
0100
0010
1000
,
2001
0000
3020
0000
,
0230
0000
0302
0000
,
1003
0100
0010
0001
,
1000
0100
0010
0001
,
1001
0000
1000
0000
,
0001
0000
0010
0001
,
1000
0000
1000
1000
,
0001
0100
0010
0100
,
0001
0000
1000
0000
,
0010
0000
1000
0010
,
0100
0010
0100
0001
,
0100
0010
1000
0100
,
1000
0001
0000
0001
,
0010
1000
0100
1000
,
1000
0010
0000
0010
,
0001
0100
0010
0000
,
1000
0100
0000
0010
,
0001
0010
0100
0100
,
1000
0010
0000
0100
,
0010
1000
0001
0000
,
1000
0100
1000
0100
,
0010
0100
0010
0001
,
1000
0100
0010
0001
,
0010
0000
0100
1000
,
0002
0000
0203
0000
,
0320
0000
2030
0000
,
3100
1000
0010
0100
,
0010
1000
0001
0010
,
0100
0000
1000
0010
,
0100
0010
0100
0001
,
0010
0010
0000
0100
,
0100
1000
0010
0100
,
0010
0000
0100
0000
,
0100
0010
0100
0001
,
0100
0010
0000
1000
,
0001
0100
0010
0100
,
0001
0000
1000
0000
,
0010
1000
0100
1000
,
0010
0100
0000
1000
,
0001
0100
0010
1000
,
2001
0000
3020
0000
,
0230
0000
0302
0000
,
1003
0100
0010
0001
,
1000
0100
0010
0001
,
1001
0000
1000
0000
,
0001
0000
0010
0001
,
1000
0000
1000
1000
,
0001
0100
0010
0100
,
0001
0000
1000
0000
,
0010
0000
1000
0010
,
0100
0010
0100
0001
,
0101
0100
0010
1000
,
1001
0000
1001
0000
,
1001
0000
1001
0000
,
1001
0000
1001
0000
,
1001
0000
1001
0000
,
1001
0000
1100
0000
,
1001
0000
0011
0000
,
0101
0000
1010
0000
,
0110
0000
0110
0000
,
0101
0000
0011
0000
,
0101
0000
0011
0000
,
1100
0000
1010
0000
,
1100
0000
0110
0000
,
0002
0000
0203
0000
,
0320
0000
2030
0000
,
3200
0000
0320
0000
,
0032
0000
0103
0010
,
0100
0000
1000
0010
,
0100
0010
0100
0001
,
0010
0010
0000
0100
,
0100
1000
0010
0100
,
0010
0000
0100
0000
,
0100
0010
0100
0001
,
0100
0010
0000
1000
,
0001
0100
0010
0100
,
0001
0000
1000
0000
,
0010
1000
0100
1000
,
0010
0100
0000
1000
,
0001
0100
0010
1000
,
2001
0000
3020
0000
,
0230
0000
0302
0000
,
1003
0100
0010
0001
,
1000
0100
0010
0001
,
1001
0000
1000
0000
,
0001
0000
0010
0001
,
1000
0000
1000
1000
,
0001
0100
0010
0100
,
0001
0000
1000
0000
,
0010
0000
1000
0010
,
0100
0010
0100
0001
,
0101
0100
0010
1000
,
0001
0000
0010
0000
0100
1000
0100
0000
,
0010
0000
0001
0000
0010
0100
1000
0000
,
0100
0000
0010
0000
0001
0010
0100
0000
,
1000
0000
0100
0000
0010
0001
0010
0000
,
1001
0000
0110
0000
,
1001
0000
0110
0000
,
1001
1000
0100
0010
,
1001
0001
0010
0100
,
1001
0000
0000
0000
;

//---------------dance-single - ----------------
#NOTEDATA:;
#CHARTNAME:;
#STEPSTYPE:dance-single;
#DESCRIPTION:;
#CHARTSTYLE:;
#DIFFICULTY:Easy;
#METER:10;
#RADARVALUES:0.450808,0.874910,0.186947,0.433716,0.000000,422.000000,397.000000,25.000000,58.000000,0.000000,0.000000,0.000000,0.000000,0.000000,0.450808,0.874910,0.186947,0.433716,0.000000,422.000000,397.000000,25.000000,58.000000,0.000000,0.000000,0.000000,0.000000,0.000000;
#CREDIT:;
#NOTES:
0000
0000
0000
0000
,
0000
0000
0000
0000
,
1000
1000
0010
0100
,
0010
0010
1000
1000
,
0001
0100
0010
0010
,
1000
0001
0001
0100
,
0010
1000
0001
0010
,
0100
1000
0010
0100
,
0110
1001
0110
0000
,
0100
1000
0010
0001
,
0100
0100
0010
1000
,
0001
0010
0100
1000
,
0010
1000
1000
0100
,
1000
0001
1000
0100
,
0010
0001
1000
0001
,
1000
0100
0010
0100
,
1000
0101
1010
0101
,
2001
0100
0100
3100
,
1100
0000
0102
0000
0100
0000
1000
0003
,
1000
0010
1000
0100
,
2010
0000
0001
0000
0010
0000
0001
3000
,
0001
0010
0010
0001
,
1020
0000
0100
0000
1000
0000
0100
0030
,
0010
0100
0001
0010
,
0001
0101
1000
1100
,
0001
0110
1001
0100
,
2002
0000
0000
0000
,
0000
0000
0000
3003
,
1000
0000
0100
0000
,
0010
0000
0100
0000
,
1000
0000
0010
0000
,
0001
0000
0010
0000
,
1000
0000
0100
0000
,
0001
0000
0100
0000
,
1000
0000
0100
0000
,
0010
0000
0001
0000
,
1000
0000
1000
0000
,
0010
0000
0010
0000
,
1000
0000
0010
0000
,
0010
0000
0100
0000
,
0002
0000
0203
0000
,
0320
0000
2030
0000
,
3100
1000
0010
0100
,
0010
1000
0001
0010
,
0100
0000
1000
0000
,
0100
0000
0100
0000
,
0010
0000
0100
0000
,
0100
0000
0010
0000
,
0010
0000
0100
0000
,
0100
0000
0100
0000
,
0100
0000
1000
0000
,
0001
0000
0010
0000
,
0001
0000
1000
0000
,
0010
0000
0100
0000
,
0010
0000
0100
0000
,
0001
0000
0010
0000
,
2001
0000
3020
0000
,
0230
0000
0302
0000
,
1003
0100
0010
0001
,
1000
0100
0010
0001
,
1000
0000
1000
0000
,
0001
0000
0010
0001
,
1000
0000
1000
0000
,
0001
0000
0010
0000
,
0001
0000
1000
0000
,
0010
0000
1000
0000
,
0100
0000
0100
0001
,
0100
0010
1000
0100
,
1000
0000
0100
0000
,
0010
0000
0100
0000
,
1000
0000
0010
0000
,
0001
0000
0010
0000
,
1000
0000
0100
0000
,
0001
0000
0100
0000
,
1000
0000
0100
0000
,
0010
0000
0001
0000
,
1000
0000
1000
0000
,
0010
0000
0010
0000
,
1000
0000
0010
0000
,
0010
0000
0100
0000
,
0002
0000
0203
0000
,
0320
0000
2030
0000
,
3100
1000
0010
0100
,
0010
1000
0001
0010
,
0100
0000
1000
0000
,
0100
0000
0100
0000
,
0010
0000
0100
0000
,
0100
0000
0010
0000
,
0010
0000
0100
0000
,
0100
0000
0100
0000
,
0100
0000
1000
0000
,
0001
0000
0010
0000
,
0001
0000
1000
0000
,
0010
0000
0100
0000
,
0010
0000
0100
0000
,
0001
0000
0010
0000
,
2001
0000
3020
0000
,
0230
0000
0302
0000
,
1003
0100
0010
0001
,
1000
0100
0010
0001
,
1000
0000
1000
0000
,
0001
0000
0010
0001
,
1000
0000
1000
0000
,
0001
0000
0010
0000
,
0001
0000
1000
0000
,
0010
0000
1000
0000
,
0100
0000
0100
0001
,
0100
0010
1000
0100
,
2001
0000
3002
0000
,
2003
0000
3002
0000
,
2003
0000
3002
0000
,
2003
0000
3002
0000
,
2003
0000
3200
0000
,
2300
0000
3020
0000
,
0230
0000
0320
0000
,
0230
0000
0302
0000
,
0203
0000
0320
0000
,
0230
0000
0302
0000
,
2003
0000
3020
0000
,
0230
0000
0320
0000
,
2030
0000
3200
0000
,
0320
0000
0032
0000
,
0203
0000
0320
0000
,
2030
0000
3200
0000
,
1300
0000
1000
0000
,
0100
0000
0100
0000
,
0010
0000
0010
0000
,
0001
0000
0001
0000
,
0010
0000
0100
0000
,
0100
0000
0100
0000
,
0100
0000
1000
0000
,
0001
0000
0010
0000
,
0001
0000
1000
0000
,
0010
0000
0100
0000
,
0010
0000
1000
0000
,
0001
0000
0010
0000
,
2001
0000
3020
0000
,
0230
0000
0302
0000
,
1003
0100
0010
0001
,
1000
0100
0010
0001
,
1000
0000
1000
0000
,
0001
0000
0010
0001
,
1000
0000
1000
0000
,
0001
0100
0010
0100
,
0001
0000
1000
0000
,
0010
0000
1000
0010
,
0100
0000
0100
0001
,
0100
0001
0010
0001
,
0010
0000
0100
1000
,
0010
0000
0010
1000
,
0100
0010
0001
0010
,
0100
1000
0100
0010
,
0001
0000
0110
0000
,
1001
0000
0110
0000
,
1001
0100
0000
0010
,
0100
0001
0010
0100
,
1001
0000
0000
0000
;

//---------------dance-single - ----------------
#NOTEDATA:;
#CHARTNAME:;
#STEPSTYPE:dance-single;
#DESCRIPTION:;
#CHARTSTYLE:;
#DIFFICULTY:Beginner;
#METER:4;
#RADARVALUES:0.196561,0.408291,0.000000,0.097212,0.000000,184.000000,184.000000,0.000000,13.000000,0.000000,0.000000,0.000000,0.000000,0.000000,0.196561,0.408291,0.000000,0.097212,0.000000,184.000000,184.000000,0.000000,13.000000,0.000000,0.000000,0.000000,0.000000,0.000000;
#CREDIT:;
#NOTES:
// measure 0
0000
0000
0000
0000
,  // measure 1
0000
0000
0000
0000
,  // measure 2
1000
1000
0000
0000
,  // measure 3
0010
0010
0000
0000
,  // measure 4
0001
0001
0000
0000
,  // measure 5
0100
0100
0000
0000
,  // measure 6
0010
0010
0000
0000
,  // measure 7
0100
0100
0000
0000
,  // measure 8
0001
0001
0000
0000
,  // measure 9
1000
1000
0000
0000
,  // measure 10
0100
0100
0000
0000
,  // measure 11
0001
0001
0000
0000
,  // measure 12
1000
1000
0000
0000
,  // measure 13
1000
1000
0000
0000
,  // measure 14
0010
0010
0000
0000
,  // measure 15
0100
0100
0000
0000
,  // measure 16
1000
1000
1000
1000
,  // measure 17
2000
0000
0000
3000
,  // measure 18
1000
0000
0100
0000
,  // measure 19
1000
0000
1000
0000
,  // measure 20
0010
0000
0010
0000
,  // measure 21
0001
0000
0010
0000
,  // measure 22
0010
0000
1000
0000
,  // measure 23
0010
0000
0001
0000
,  // measure 24
0001
0000
1000
0000
,  // measure 25
0001
0000
0001
0000
,  // measure 26
2000
0000
0000
0000
,  // measure 27
0000
0000
0000
3000
,  // measure 28
1000
0000
0000
0000
,  // measure 29
0010
0000
0000
0000
,  // measure 30
1000
0000
0000
0000
,  // measure 31
0001
0000
0000
0000
,  // measure 32
1000
0000
0000
0000
,  // measure 33
0001
0000
0000
0000
,  // measure 34
1000
0000
0000
0000
,  // measure 35
0010
0000
0000
0000
,  // measure 36
1000
0000
0000
0000
,  // measure 37
0010
0000
0000
0000
,  // measure 38
1000
0000
0000
0000
,  // measure 39
0010
0000
0000
0000
,  // measure 40
0002
0000
0003
0000
,  // measure 41
2000
0000
3000
0000
,  // measure 42
0100
0000
0000
0000
,  // measure 43
0010
0000
0000
0000
,  // measure 44
0100
0000
0000
0000
,  // measure 45
0100
0000
0000
0000
,  // measure 46
0010
0000
0000
0000
,  // measure 47
0100
0000
0000
0000
,  // measure 48
0010
0000
0000
0000
,  // measure 49
0100
0000
0000
0000
,  // measure 50
0100
0000
0000
0000
,  // measure 51
0001
0000
0000
0000
,  // measure 52
0001
0000
0000
0000
,  // measure 53
0010
0000
0000
0000
,  // measure 54
0010
0000
0000
0000
,  // measure 55
0001
0000
0000
0000
,  // measure 56
2000
0000
3000
0000
,  // measure 57
0002
0000
0003
0000
,  // measure 58
1000
0000
0000
0000
,  // measure 59
1000
0000
0000
0000
,  // measure 60
1000
0000
0000
0000
,  // measure 61
0001
0000
0000
0000
,  // measure 62
1000
0000
0000
0000
,  // measure 63
0001
0000
0000
0000
,  // measure 64
0001
0000
0000
0000
,  // measure 65
0010
0000
0000
0000
,  // measure 66
0100
0000
0000
0000
,  // measure 67
0100
0000
0000
0000
,  // measure 68
1000
0000
0000
0000
,  // measure 69
0010
0000
0000
0000
,  // measure 70
1000
0000
0000
0000
,  // measure 71
0001
0000
0000
0000
,  // measure 72
1000
0000
0000
0000
,  // measure 73
0001
0000
0000
0000
,  // measure 74
1000
0000
0000
0000
,  // measure 75
0010
0000
0000
0000
,  // measure 76
1000
0000
0000
0000
,  // measure 77
0010
0000
0000
0000
,  // measure 78
1000
0000
0000
0000
,  // measure 79
0010
0000
0000
0000
,  // measure 80
0002
0000
0003
0000
,  // measure 81
2000
0000
3000
0000
,  // measure 82
0100
0000
0000
0000
,  // measure 83
0010
0000
0000
0000
,  // measure 84
0100
0000
0000
0000
,  // measure 85
0100
0000
0000
0000
,  // measure 86
0010
0000
0000
0000
,  // measure 87
0100
0000
0000
0000
,  // measure 88
0010
0000
0000
0000
,  // measure 89
0100
0000
0000
0000
,  // measure 90
0100
0000
0000
0000
,  // measure 91
0001
0000
0000
0000
,  // measure 92
0001
0000
0000
0000
,  // measure 93
0010
0000
0000
0000
,  // measure 94
0010
0000
0000
0000
,  // measure 95
0001
0000
0000
0000
,  // measure 96
2000
0000
3000
0000
,  // measure 97
0002
0000
0003
0000
,  // measure 98
1000
0000
0000
0000
,  // measure 99
1000
0000
0000
0000
,  // measure 100
1000
0000
0000
0000
,  // measure 101
0001
0000
0000
0000
,  // measure 102
1000
0000
0000
0000
,  // measure 103
0001
0000
0000
0000
,  // measure 104
0001
0000
0000
0000
,  // measure 105
0010
0000
0000
0000
,  // measure 106
0100
0000
0000
0000
,  // measure 107
0100
0000
0000
0000
,  // measure 108
0100
0000
0100
0000
,  // measure 109
0100
0000
0000
0000
,  // measure 110
0100
0000
0100
0000
,  // measure 111
0100
0000
0000
0000
,  // measure 112
0010
0000
0010
0000
,  // measure 113
0010
0000
0000
0000
,  // measure 114
0010
0000
0010
0000
,  // measure 115
0010
0000
0000
0000
,  // measure 116
1000
0000
0000
0000
,  // measure 117
0001
0000
0000
0000
,  // measure 118
1000
0000
0000
0000
,  // measure 119
0001
0000
0000
0000
,  // measure 120
0100
0000
0100
0000
,  // measure 121
0100
0000
0100
0000
,  // measure 122
0200
0000
0000
0000
,  // measure 123
0000
0000
0300
0000
,  // measure 124
0100
0000
0000
0000
,  // measure 125
0100
0000
0000
0000
,  // measure 126
0010
0000
0000
0000
,  // measure 127
0001
0000
0000
0000
,  // measure 128
0010
0000
0000
0000
,  // measure 129
0100
0000
0000
0000
,  // measure 130
0100
0000
0000
0000
,  // measure 131
0001
0000
0000
0000
,  // measure 132
0001
0000
0000
0000
,  // measure 133
0010
0000
0000
0000
,  // measure 134
0010
0000
0000
0000
,  // measure 135
0001
0000
0000
0000
,  // measure 136
2000
0000
3000
0000
,  // measure 137
0002
0000
0003
0000
,  // measure 138
1000
0000
0000
0000
,  // measure 139
1000
0000
0000
0000
,  // measure 140
1000
0000
0000
0000
,  // measure 141
0001
0000
0000
0000
,  // measure 142
1000
0000
0000
0000
,  // measure 143
0001
0000
0000
0000
,  // measure 144
0001
0000
0000
0000
,  // measure 145
0010
0000
0000
0000
,  // measure 146
0100
0000
0000
0000
,  // measure 147
0100
0000
0000
0000
,  // measure 148
0010
0000
0000
0000
,  // measure 149
0010
0000
0000
0000
,  // measure 150
0100
0000
0000
0000
,  // measure 151
0100
0000
0000
0000
,  // measure 152
0001
0000
0000
0000
,  // measure 153
0001
0000
0000
0000
,  // measure 154
1000
0000
0000
0000
,  // measure 155
0001
0000
0000
0000
,  // measure 156
0001
0000
0000
0000
;
