#VERSION:0.83;
#TITLE:Speed;
#SUBTITLE:;
#ARTIST:Atari Teenage Riot;
#TITLETRANSLIT:;
#SUBTITLETRANSLIT:;
#ARTISTTRANSLIT:;
#GENRE:;
#ORIGIN:;
#CREDIT:;
#BANNER:;
#BACKGROUND:Speed-bg.jpg;
#PREVIEWVID:;
#JACKET:Speed-jacket.png;
#CDIMAGE:;
#DISCIMAGE:;
#LYRICSPATH:;
#CDTITLE:;
#MUSIC:Atari Teenage Riot - Speed).ogg;
#OFFSET:-0.117000;
#SAMPLESTART:20.472000;
#SAMPLELENGTH:13.813000;
#SELECTABLE:YES;
#BPMS:0.000=165.066,
76.000=660.262,
192.000=165.066,
218.000=660.262,
346.000=330.131,
354.000=660.262,
370.000=330.131,
378.000=660.262,
394.000=330.131,
402.000=660.262,
418.000=330.131,
426.000=660.262,
440.000=165.066,
470.500=660.262,
476.000=165.066;
#STOPS:28.000=0.909,
29.500=0.545,
32.000=0.909,
33.500=0.545,
36.000=0.909,
37.500=0.545,
188.000=0.182,
189.000=0.182,
190.000=0.182,
191.000=0.182,
209.000=0.182,
209.500=0.182,
210.000=0.182,
210.500=0.182,
211.000=0.182,
211.500=0.182,
212.000=0.182,
212.500=0.182,
213.000=0.182,
213.500=0.182,
214.000=0.182,
214.500=0.182,
215.000=0.091,
215.500=0.091,
216.000=0.091,
216.500=0.091,
456.000=0.545,
458.500=0.909,
460.000=0.545,
462.500=0.909,
464.000=0.545,
466.500=0.909,
468.000=0.545,
470.500=0.909;
#DELAYS:;
#WARPS:;
#TIMESIGNATURES:0.000=4=4;
#TICKCOUNTS:0.000=4;
#COMBOS:0.000=1;
#SPEEDS:0.000=1.000=0.000=0;
#SCROLLS:0.000=1.000;
#FAKES:;
#LABELS:0.000=Song Start;
#BGCHANGES:;
#KEYSOUNDS:;
#ATTACKS:
;

//---------------dance-single - ----------------
#NOTEDATA:;
#CHARTNAME:;
#STEPSTYPE:dance-single;
#DESCRIPTION:;
#CHARTSTYLE:;
#DIFFICULTY:Medium;
#METER:12;
#RADARVALUES:0.368680,1.007892,0.418502,0.000000,0.000000,259.000000,217.000000,42.000000,0.000000,0.000000,0.000000,0.000000,0.000000,0.000000,0.368680,1.007892,0.418502,0.000000,0.000000,259.000000,217.000000,42.000000,0.000000,0.000000,0.000000,0.000000,0.000000,0.000000;
#CREDIT:;
#NOTES:
0000
0000
0000
0000
,
0000
0000
0000
0000
,
0000
0000
0000
0000
,
0000
0000
0000
0000
,
0000
0000
0000
0000
,
0000
0000
0000
0000
,
0000
0000
0000
0000
,
1001
1100
0000
1100
0000
0000
0000
0000
,
1001
0110
0000
1001
0000
0000
0000
0000
,
0011
0110
0000
1100
0000
0000
0000
0000
,
1001
0000
0000
0000
,
0100
1000
0001
0010
0100
1000
0010
0100
,
0010
0100
0001
0010
0100
1000
0001
0100
,
0010
0100
0010
0100
0001
0010
0100
1000
,
0001
1000
0001
0100
0010
0100
0010
1000
,
0100
0010
0001
0100
0001
0100
0010
1000
,
0001
0100
0001
0010
0100
1000
0100
1000
,
0001
0010
0100
1000
0001
1000
0010
0100
,
0001
0010
0001
0010
0100
1000
0001
1000
,
0010
0000
1000
0000
,
0010
0000
1000
0000
,
0010
0000
1000
0000
,
0100
0000
0010
0000
,
0001
0000
0100
0000
,
0010
0000
0100
0000
,
0010
0000
0000
0000
,
0110
0000
0000
0000
,
1000
0000
0100
0000
,
0010
0000
0000
0000
,
0010
0000
0001
0000
,
1000
0000
0100
0000
,
0010
0000
0100
0000
,
0010
0000
0001
0000
,
0010
0000
1000
0000
,
0010
0000
0100
0000
,
0010
0000
1000
0000
,
0010
0000
1000
0000
,
0010
0000
0001
0000
,
0010
0000
1000
0000
,
0010
0000
0001
0000
,
0010
0000
1000
0000
,
0010
0000
0001
0000
,
0010
0000
1000
0000
,
0010
0000
0001
0000
,
0010
0000
1000
0000
,
0010
0000
0001
0000
,
0010
0000
1000
0000
,
0010
0010
0010
0010
,
1000
0000
0000
0000
,
0000
0000
0000
0000
,
0000
0000
0000
0000
,
0000
0000
0000
0000
,
0000
1000
0000
0010
,
0000
0000
1000
0000
0000
0000
0100
1000
,
0001
0010
1000
0001
1001
0000
0000
0000
,
0000
0000
0000
0000
,
1000
0000
0001
0000
,
1000
0000
0001
0000
,
1000
0000
1001
0000
,
0000
0000
0000
0000
,
0010
0000
0100
0000
,
0010
0000
0100
0000
,
0010
0000
0110
0000
,
0000
0000
0000
0000
,
1000
0000
0001
0000
,
1000
0000
0001
0000
,
1000
0000
1001
0000
,
0000
0000
1000
0000
,
0000
0000
0001
0000
,
0000
0000
1000
0000
,
0000
0000
1001
0000
,
0000
0000
0000
0000
,
1000
0000
0001
0000
,
1000
0000
0001
0000
,
1000
0000
1001
0000
,
0000
0000
0000
0000
,
0100
0000
0010
0000
,
0100
0000
0010
0000
,
0100
0000
0110
0000
,
0000
0000
0000
0000
,
1000
0000
0001
0000
,
1000
0000
0001
0000
,
1000
0000
1001
0000
,
0000
0000
1001
0000
,
0000
0000
1001
0000
,
0000
0000
1001
0000
,
0000
0000
1001
0000
,
0000
0000
0000
0000
,
0000
0000
1001
0000
,
0000
0000
0000
0000
,
0000
0000
0000
0000
,
0000
0000
0000
0000
,
0000
0000
0101
0000
,
0000
0000
0000
0000
,
0000
0000
1100
0000
,
0000
0000
0000
0000
,
0000
0000
0000
0000
,
0000
0000
0000
0000
,
0000
0000
0110
0000
,
0000
0000
0000
0000
,
0000
0000
1001
0000
,
0000
0000
0000
0000
,
0000
0000
0000
0000
,
0000
0000
0000
0000
,
0000
0000
0011
0000
,
0000
0000
0000
0000
,
0000
0000
1100
0000
,
0000
0000
0000
0000
,
0000
0000
0000
0000
,
0000
0000
0000
0000
,
1000
0100
1000
0000
0000
0000
0000
0000
,
0010
0001
0010
0000
0000
0000
0000
0000
,
1000
0100
1000
0000
0000
0000
0000
0000
,
0010
0001
0010
0000
0000
0000
0000
0000
,
1100
0000
0000
0000
0000
1001
0011
0000
,
0101
0000
0000
0000
0000
1001
0110
0000
,
1010
0000
0000
0000
0000
1001
0000
0000
,
0011
0000
0000
0000
0000
1010
0000
0000
,
0000
1010
0000
0000
,
1001
0000
0000
0000
;

//---------------dance-single - ----------------
#NOTEDATA:;
#CHARTNAME:;
#STEPSTYPE:dance-single;
#DESCRIPTION:;
#CHARTSTYLE:;
#DIFFICULTY:Hard;
#METER:18;
#RADARVALUES:0.772947,1.956496,0.448395,0.069750,0.024911,543.000000,498.000000,45.000000,7.000000,0.000000,0.000000,0.000000,0.000000,0.000000,0.772947,1.956496,0.448395,0.069750,0.024911,543.000000,498.000000,45.000000,7.000000,0.000000,0.000000,0.000000,0.000000,0.000000;
#CREDIT:;
#NOTES:
0000
0000
0000
0000
,
0000
0000
0000
0000
,
0000
0000
0000
0000
,
0000
0000
0000
0000
,
0000
0000
0000
0000
,
0000
0000
0000
0000
,
1100
0000
0000
0000
,
0101
1100
0000
1100
1000
0100
1000
0000
,
1001
1010
0000
0101
1000
0100
1000
0000
,
0011
1100
0000
0110
1000
0100
1000
0000
,
1000
0000
0000
0000
,
0001
0000
1000
0000
0100
0000
1000
0010
0100
0000
0001
0000
1000
0000
0010
0000
,
0100
0001
1001
1001
1001
1000
0010
0100
,
0001
1000
0010
1000
0001
0100
0010
1000
,
0100
0000
0010
0000
0001
0000
0010
0000
0100
0000
1000
0000
0001
1000
0100
0010
,
0001
0001
1000
1000
0010
1000
0001
1000
,
0100
0001
0010
0001
0100
1000
0010
0100
,
0001
1000
0010
0100
0001
0010
0100
1000
,
0100
0010
0001
0010
0100
1000
0100
1000
,
0010
1000
0010
0100
,
0001
1000
0100
0010
,
0001
0010
0100
1000
,
0001
1000
0001
0100
,
0010
0100
0001
1000
,
0100
0010
0001
0100
,
0001
0010
0100
1000
,
0100
1000
0100
0010
,
0001
0100
0001
0100
,
0010
1000
0001
0100
,
0001
0010
0100
1000
,
0010
1000
0100
1000
,
0010
0100
0010
1000
,
0100
1000
0001
0010
,
0001
1000
0010
0100
,
0001
1000
0010
1000
,
0001
1000
0100
0010
,
0001
1000
0100
0010
,
0001
0100
0001
1000
,
0010
0100
0001
1000
,
0010
1000
0001
0010
,
0100
0010
0001
1000
,
0010
0100
0010
1000
,
0010
1000
0001
0100
,
0010
1000
0010
0100
,
0010
0100
0001
0100
,
0010
1000
0010
0100
,
0001
1000
0100
1000
,
1100
0011
1100
0011
,
1000
0000
0010
0000
0001
0000
0000
0000
0000
0000
0000
0000
1000
0100
0010
0000
,
0000
0000
0000
0000
0001
0000
0000
0000
1000
0000
0000
0000
1000
0010
0100
0000
,
0010
1000
0001
0100
,
0001
1000
0010
1000
,
0100
0000
1010
0110
0011
1100
0101
1010
,
0110
1010
0101
0110
1001
0110
1001
1100
,
0110
1001
0010
0000
0100
0000
0001
0000
,
1000
0010
1000
0010
,
0100
0001
0010
0001
,
0100
0010
1000
0100
,
1000
0010
0100
0001
,
1000
0001
0010
0001
,
0100
0010
1000
0100
,
1000
0001
0100
0001
,
0100
0001
0010
0100
,
1000
0001
1000
0010
,
0100
0010
0100
0001
,
0010
0100
1000
0010
,
0100
0001
1000
0010
,
0100
0001
0100
0001
,
0010
0001
0100
0010
,
1000
0100
1000
0001
,
0010
0100
1000
0010
,
1000
0100
0010
0100
,
1000
0100
1000
0010
,
1000
0100
0010
0001
,
1000
0010
1000
0100
,
0010
0100
0010
0001
,
0100
0010
1000
0001
,
0010
0001
0100
0010
,
1000
0001
1000
0001
,
0010
0001
0100
0010
,
1000
0100
0010
0100
,
0010
0001
0100
0001
,
1000
0100
1000
0001
,
0010
0100
1000
0100
,
1000
0010
0100
0001
,
0010
0100
1000
0100
,
1000
0010
2001
0010
,
0100
0010
0001
0010
,
0100
0010
3002
0000
,
1000
0000
1000
0000
,
1000
0000
1000
0000
,
1000
0000
1000
0000
,
1000
0000
2003
0001
,
0010
0100
0010
0001
,
0010
0100
3020
0000
,
0100
0000
0100
0000
,
0100
0000
0100
0000
,
0100
0000
0100
0000
,
0100
0000
0230
0010
,
0010
0010
0010
0010
,
0010
0010
0320
0000
,
0100
0000
1000
0000
,
0100
0000
1000
0000
,
0100
0000
1000
0000
,
0100
0000
2030
0001
,
0010
0001
0010
0001
,
0010
0001
3010
1000
,
0010
1000
0010
1000
,
0010
1000
0010
1000
,
0010
1000
0010
1000
,
0100
0010
0001
0100
0010
0100
0001
0100
,
0001
0010
0100
1000
0001
0100
0001
0010
,
0100
1000
0010
1000
0100
1000
0001
0010
,
0001
0100
0010
0100
0010
1000
0100
1000
,
1100
1000
0100
1000
0000
1001
0110
0000
,
1001
0001
1000
0100
0000
1100
0011
0000
,
1100
1000
0010
0001
0000
1001
0110
0000
,
1001
0001
1000
0100
0000
0110
0000
0000
,
1000
0001
1000
0001
,
1000
0000
0000
0000
;

//---------------dance-single - ----------------
#NOTEDATA:;
#CHARTNAME:;
#STEPSTYPE:dance-single;
#DESCRIPTION:;
#CHARTSTYLE:;
#DIFFICULTY:Easy;
#METER:9;
#RADARVALUES:0.197863,0.592878,0.199287,0.019929,0.000000,139.000000,119.000000,20.000000,2.000000,0.000000,0.000000,0.000000,0.000000,0.000000,0.197863,0.592878,0.199287,0.019929,0.000000,139.000000,119.000000,20.000000,2.000000,0.000000,0.000000,0.000000,0.000000,0.000000;
#CREDIT:;
#NOTES:
0000
0000
0000
0000
,
0000
0000
0000
0000
,
0000
0000
0000
0000
,
0000
0000
0000
0000
,
0000
0000
0000
0000
,
0000
0000
0000
0000
,
0000
0000
0000
0000
,
1001
0000
0000
1100
0000
0000
0000
0000
,
1001
0000
0000
1001
0000
0000
0000
0000
,
0011
0000
0000
1100
0000
0000
0000
0000
,
1001
0000
0000
0000
,
1000
0001
0100
0010
,
1000
0001
0100
0001
,
1000
0010
0001
0100
,
1000
0001
0010
0010
,
1000
0001
0001
0010
,
1000
0001
0100
0100
,
1000
0100
0001
0010
,
1000
0001
0100
0001
,
0010
0000
0000
0000
,
0010
0000
0000
0000
,
0010
0000
0000
0000
,
0100
0000
0000
0000
,
0001
0000
0000
0000
,
0010
0000
0000
0000
,
0010
0000
0000
0000
,
0010
0000
0000
0000
,
1000
0000
0000
0000
,
0010
0000
0000
0000
,
0010
0000
0000
0000
,
1000
0000
0000
0000
,
0010
0000
0000
0000
,
0010
0000
0000
0000
,
0010
0000
0000
0000
,
0010
0000
0000
0000
,
0010
0000
0000
0000
,
0010
0000
0000
0000
,
0010
0000
0000
0000
,
0010
0000
0000
0000
,
0010
0000
0000
0000
,
0010
0000
0000
0000
,
0010
0000
0000
0000
,
0010
0000
0000
0000
,
0010
0000
0000
0000
,
0010
0000
0000
0000
,
0010
0000
0000
0000
,
0010
0000
0000
0000
,
0020
0000
0000
0000
,
0030
0000
0000
0000
,
0000
0000
0000
0000
,
0000
0000
0000
0000
,
0000
0000
0000
0000
,
0000
1000
0000
0100
,
0000
0010
0000
0002
,
0000
0003
1001
0000
,
0000
0000
0000
0000
,
0000
0000
0001
0000
,
0000
0000
0001
0000
,
0000
0000
0001
0000
,
0000
0000
0000
0000
,
0000
0000
0100
0000
,
0000
0000
0100
0000
,
0000
0000
0100
0000
,
0000
0000
0000
0000
,
0000
0000
0001
0000
,
0000
0000
0001
0000
,
0000
0000
0001
0000
,
0000
0000
1000
0000
,
0000
0000
0001
0000
,
0000
0000
1000
0000
,
0000
0000
1000
0000
,
0000
0000
1000
0000
,
0000
0000
1000
0000
,
0000
0000
1000
0000
,
0000
0000
1000
0000
,
0000
0000
0000
0000
,
0000
0000
0100
0000
,
0000
0000
0100
0000
,
0000
0000
0100
0000
,
0000
0000
0000
0000
,
0000
0000
0010
0000
,
0000
0000
0010
0000
,
0000
0000
0010
0000
,
0000
0000
0010
0000
,
0000
0000
0010
0000
,
0000
0000
0010
0000
,
0000
0000
0010
0000
,
0000
0000
0000
0000
,
0000
0000
1001
0000
,
0000
0000
0000
0000
,
0000
0000
0000
0000
,
0000
0000
0000
0000
,
0000
0000
0100
0000
,
0000
0000
0000
0000
,
0000
0000
1100
0000
,
0000
0000
0000
0000
,
0000
0000
0000
0000
,
0000
0000
0000
0000
,
0000
0000
0010
0000
,
0000
0000
0000
0000
,
0000
0000
1001
0000
,
0000
0000
0000
0000
,
0000
0000
0000
0000
,
0000
0000
0000
0000
,
0000
0000
0001
0000
,
0000
0000
0000
0000
,
0000
0000
1100
0000
,
0000
0000
0000
0000
,
0000
0000
0000
0000
,
0000
0000
0000
0000
,
0000
0000
0000
0000
,
0000
0001
0000
0000
0000
0000
0000
0000
,
0000
1000
0000
0000
0000
0000
0000
0000
,
0000
0001
0000
0000
0000
0000
0000
0000
,
1000
0000
0000
0000
0000
1001
0000
0000
,
0101
0000
0000
0000
0000
1001
0000
0000
,
1010
0000
0000
0000
0000
1001
0000
0000
,
0011
0000
0000
0000
0000
1010
0000
0000
,
0000
0000
0000
0000
,
1001
0000
0000
0000
;

//---------------dance-single - ----------------
#NOTEDATA:;
#CHARTNAME:;
#STEPSTYPE:dance-single;
#DESCRIPTION:;
#CHARTSTYLE:;
#DIFFICULTY:Beginner;
#METER:3;
#RADARVALUES:0.095373,0.296439,0.000000,0.139501,0.000000,67.000000,67.000000,0.000000,14.000000,0.000000,0.000000,0.000000,0.000000,0.000000,0.095373,0.296439,0.000000,0.139501,0.000000,67.000000,67.000000,0.000000,14.000000,0.000000,0.000000,0.000000,0.000000,0.000000;
#CREDIT:;
#NOTES:
// measure 0
0000
0000
0000
0000
,  // measure 1
0000
0000
0000
0000
,  // measure 2
0000
0000
0000
0000
,  // measure 3
0000
0000
0000
0000
,  // measure 4
0000
0000
0000
0000
,  // measure 5
0000
0000
0000
0000
,  // measure 6
0000
0000
0000
0000
,  // measure 7
2000
0000
0000
3000
0000
0000
0000
0000
,  // measure 8
0002
0000
0000
0003
0000
0000
0000
0000
,  // measure 9
0020
0000
0000
0030
0000
0000
0000
0000
,  // measure 10
0200
0000
0000
0300
0000
0000
0000
0000
,  // measure 11
1000
0000
0100
0000
,  // measure 12
1000
0000
0100
0000
,  // measure 13
0001
0000
0001
0000
,  // measure 14
1000
0000
0010
0000
,  // measure 15
1000
0000
0001
0000
,  // measure 16
1000
0000
0100
0000
,  // measure 17
1000
0000
0001
0000
,  // measure 18
1000
0000
0100
0000
,  // measure 19
0020
0000
0000
0000
,  // measure 20
0000
0000
0000
0000
,  // measure 21
0030
0000
0000
0000
,  // measure 22
0000
0000
0000
0000
,  // measure 23
0002
0000
0000
0000
,  // measure 24
0000
0000
0000
0000
,  // measure 25
0003
0000
0000
0000
,  // measure 26
0000
0000
0000
0000
,  // measure 27
2000
0000
0000
0000
,  // measure 28
0000
0000
0000
0000
,  // measure 29
3000
0000
0000
0000
,  // measure 30
0000
0000
0000
0000
,  // measure 31
0200
0000
0000
0000
,  // measure 32
0000
0000
0000
0000
,  // measure 33
0300
0000
0000
0000
,  // measure 34
0000
0000
0000
0000
,  // measure 35
0020
0000
0000
0000
,  // measure 36
0000
0000
0000
0000
,  // measure 37
0030
0000
0000
0000
,  // measure 38
0000
0000
0000
0000
,  // measure 39
0200
0000
0000
0000
,  // measure 40
0000
0000
0000
0000
,  // measure 41
0300
0000
0000
0000
,  // measure 42
0000
0000
0000
0000
,  // measure 43
0002
0000
0000
0000
,  // measure 44
0000
0000
0000
0000
,  // measure 45
0003
0000
0000
0000
,  // measure 46
0000
0000
0000
0000
,  // measure 47
2000
0000
0000
0000
,  // measure 48
3000
0000
0000
0000
,  // measure 49
0000
0000
0000
0000
,  // measure 50
0000
0000
0000
0000
,  // measure 51
0000
0000
0000
0000
,  // measure 52
0000
1000
0000
1000
,  // measure 53
0000
0001
0000
0002
,  // measure 54
0000
0003
0001
0000
,  // measure 55
0000
0000
0000
0000
,  // measure 56
0000
0000
0001
0000
,  // measure 57
0000
0000
0000
0000
,  // measure 58
0000
0000
0001
0000
,  // measure 59
0000
0000
0000
0000
,  // measure 60
0000
0000
1000
0000
,  // measure 61
0000
0000
0000
0000
,  // measure 62
0000
0000
1000
0000
,  // measure 63
0000
0000
0000
0000
,  // measure 64
0000
0000
0001
0000
,  // measure 65
0000
0000
0000
0000
,  // measure 66
0000
0000
0001
0000
,  // measure 67
0000
0000
0000
0000
,  // measure 68
0000
0000
0001
0000
,  // measure 69
0000
0000
0000
0000
,  // measure 70
0000
0000
1000
0000
,  // measure 71
0000
0000
0000
0000
,  // measure 72
0000
0000
1000
0000
,  // measure 73
0000
0000
0000
0000
,  // measure 74
0000
0000
0001
0000
,  // measure 75
0000
0000
0000
0000
,  // measure 76
0000
0000
0001
0000
,  // measure 77
0000
0000
0000
0000
,  // measure 78
0000
0000
1000
0000
,  // measure 79
0000
0000
0000
0000
,  // measure 80
0000
0000
1000
0000
,  // measure 81
0000
0000
0000
0000
,  // measure 82
0000
0000
0001
0000
,  // measure 83
0000
0000
0000
0000
,  // measure 84
0000
0000
0001
0000
,  // measure 85
0000
0000
0000
0000
,  // measure 86
0000
0000
1000
0000
,  // measure 87
0000
0000
0000
0000
,  // measure 88
0000
0000
0001
0000
,  // measure 89
0000
0000
0000
0000
,  // measure 90
0000
0000
0000
0000
,  // measure 91
0000
0000
0000
0000
,  // measure 92
0000
0000
0100
0000
,  // measure 93
0000
0000
0000
0000
,  // measure 94
0000
0000
0010
0000
,  // measure 95
0000
0000
0000
0000
,  // measure 96
0000
0000
0000
0000
,  // measure 97
0000
0000
0000
0000
,  // measure 98
0000
0000
1000
0000
,  // measure 99
0000
0000
0000
0000
,  // measure 100
0000
0000
0001
0000
,  // measure 101
0000
0000
0000
0000
,  // measure 102
0000
0000
0000
0000
,  // measure 103
0000
0000
0000
0000
,  // measure 104
0000
0000
0100
0000
,  // measure 105
0000
0000
0000
0000
,  // measure 106
0000
0000
0010
0000
,  // measure 107
0000
0000
0000
0000
,  // measure 108
0000
0000
0000
0000
,  // measure 109
0000
0000
0000
0000
,  // measure 110
0000
0000
0000
0000
,  // measure 111
0000
0001
0000
0000
0000
0000
0000
0000
,  // measure 112
0000
1000
0000
0000
0000
0000
0000
0000
,  // measure 113
0000
0001
0000
0000
0000
0000
0000
0000
,  // measure 114
1000
0000
0000
0000
0000
0001
0000
0000
,  // measure 115
1000
0000
0000
0000
0000
0001
0000
0000
,  // measure 116
0100
0000
0000
0000
0000
0010
0000
0000
,  // measure 117
0100
0000
0000
0000
0000
0020
0000
0000
,  // measure 118
0000
0000
0000
0000
,  // measure 119
0030
0000
0000
0000
;
