#VERSION:0.83;
#TITLE:Speed Bump;
#SUBTITLE:;
#ARTIST:Misery;
#TITLETRANSLIT:;
#SUBTITLETRANSLIT:;
#ARTISTTRANSLIT:;
#GENRE:;
#ORIGIN:;
#CREDIT:;
#BANNER:;
#BACKGROUND:;
#PREVIEWVID:;
#JACKET:;
#CDIMAGE:;
#DISCIMAGE:;
#LYRICSPATH:;
#CDTITLE:;
#MUSIC:Speed Bump.ogg;
#OFFSET:0.000000;
#SAMPLESTART:58.639969;
#SAMPLELENGTH:12.000000;
#SELECTABLE:YES;
#BPMS:0.000=180.000,
160.000=360.019;
#STOPS:;
#DELAYS:;
#WARPS:;
#TIMESIGNATURES:0.000=4=4;
#TICKCOUNTS:0.000=4;
#COMBOS:0.000=1;
#SPEEDS:0.000=1.000=0.000=0;
#SCROLLS:0.000=1.000;
#FAKES:;
#LABELS:0.000=Song Start;
#BGCHANGES:;
#KEYSOUNDS:;
#ATTACKS:
;

//---------------dance-single - ----------------
#NOTEDATA:;
#CHARTNAME:;
#STEPSTYPE:dance-single;
#DESCRIPTION:;
#CHARTSTYLE:;
#DIFFICULTY:Hard;
#METER:16;
#RADARVALUES:0.746037,1.143035,0.310849,0.293086,0.142102,588.000000,553.000000,35.000000,33.000000,0.000000,0.000000,0.000000,0.000000,0.000000,0.746037,1.143035,0.310849,0.293086,0.142102,588.000000,553.000000,35.000000,33.000000,0.000000,0.000000,0.000000,0.000000,0.000000;
#CREDIT:;
#NOTES:
0000
0000
0000
0000
,
0000
0000
0000
0000
,
0000
0000
0000
0000
,
0000
0000
0000
0000
,
1001
1100
1001
0101
,
1001
0000
1100
0000
1001
0000
0100
0001
,
0100
0101
0110
1010
,
1100
0000
1010
0000
1100
0000
1000
0100
,
1000
0101
0011
0101
,
1010
0000
1100
0000
1010
0000
0100
0010
,
0100
0101
0011
0101
,
0011
0000
1010
0000
0101
0000
0001
0100
,
0001
1000
0001
1000
0010
0100
0010
0100
,
0001
1000
0100
1000
0010
0100
0001
0100
,
0010
0100
0001
0100
0010
1000
0100
1000
,
0010
0100
0001
0100
0010
1000
0100
0010
,
0001
1000
0100
0010
0001
1000
0001
0100
,
0010
1000
0001
0100
0010
1000
0010
0100
,
0010
1000
0100
0010
0100
1000
0010
0100
,
0001
0100
0010
0100
0001
0010
0001
0100
,
0010
0000
1000
0000
0100
0000
0010
0000
0001
0100
0001
0000
0100
0000
0010
0100
,
0010
0000
1000
0000
0100
0000
1000
0100
1000
0000
0010
0100
0010
0000
1000
0000
,
0001
0000
1000
0000
0010
0000
0100
0000
0001
0010
0001
0000
0100
0000
0010
1000
,
0010
0000
1000
0000
0100
0000
1000
0010
0100
0000
0001
0100
0010
0000
0100
0000
,
0001
0000
0010
0000
0001
0000
0100
0000
0010
1000
0010
0000
0100
0000
0010
1000
,
0010
0000
1000
0000
0100
0000
1000
0100
1000
0000
0010
0100
0001
0000
0100
0000
,
0001
0000
0010
0000
0001
0000
0100
0000
0001
1000
0001
0000
0010
0000
0001
0100
,
0010
0000
0100
0000
0001
0000
1000
0100
0010
0000
0010
0100
1000
0000
1000
0000
,
0010
0000
0100
0000
0010
0000
0100
0000
0001
0100
0001
0000
0100
0000
0010
1000
,
0010
0000
0100
0000
0010
0000
0100
0001
0100
0000
0010
1000
0010
0000
0100
0000
,
0001
0000
1000
0000
0010
0000
0100
0000
0001
0100
0001
0000
0100
0000
0010
1000
,
0100
0000
1000
0000
0100
0000
1000
0010
0100
0000
0010
0100
0001
0000
1000
0000
,
0100
0000
1000
0000
0010
0000
0100
0000
0001
0100
0010
0000
1000
0000
0100
1000
,
0100
0000
1000
0000
0010
0000
0100
0001
0100
0000
0010
1000
0100
0000
1000
0000
,
0001
0000
0010
0000
0100
0000
1000
0000
0001
0010
0100
0000
1000
0000
0100
0010
,
0001
0000
0010
0000
0100
0000
1000
0100
0010
0000
0001
0010
0100
0000
1000
0000
,
1001
0000
0100
0000
0100
0010
0000
0010
,
0000
0000
1000
0000
0001
1000
0000
0100
,
0010
0000
0010
0000
0001
0100
0000
0010
,
0000
0000
1000
0000
0100
1000
0000
0010
,
0100
0000
1001
0000
,
0100
0000
1001
0000
,
0010
0000
1001
0000
,
0010
0000
1001
0000
,
1000
0000
0110
0000
,
1000
0000
0110
0000
,
0001
0000
0110
0000
,
0001
0000
0110
0000
,
1000
0100
0010
0100
,
1000
0010
0100
0001
,
0100
0010
1000
0100
,
0010
0100
1000
0001
,
0100
0010
0100
0001
,
0100
0010
1000
0100
,
1000
0010
0100
0001
,
0100
0000
0010
1000
0001
0000
0100
0000
,
0010
0100
0001
1000
,
0100
1000
0010
1000
,
0100
0010
0001
0100
,
0010
1000
0100
0010
,
0001
1000
0100
1000
,
0001
0100
0001
1000
,
0100
1000
0001
0100
,
0001
0000
1000
0001
0100
0000
0001
0000
,
1000
0010
0100
0001
,
0100
0010
1000
0010
,
0100
0001
0100
0010
,
1000
0001
1000
0001
,
0100
0010
0100
0001
,
0100
0010
1000
0010
,
0100
0010
1000
0100
,
0010
0000
0100
1000
0100
0000
1000
0000
,
0001
0100
0010
1000
,
0010
0100
0001
0100
,
0010
1000
0010
0100
,
0010
1000
0100
0010
,
0001
0100
0001
0010
,
0001
1000
0010
1000
,
0100
1000
0010
0100
,
0001
0000
1000
0010
1000
0000
0100
0000
,
1000
0001
1000
1000
,
0001
1000
0001
0001
,
0100
0010
0100
0100
,
0010
0100
0010
0010
,
1000
0100
1000
1000
,
0001
0100
0001
0001
,
1000
0010
0100
0001
,
1000
0000
0100
1000
0010
0000
0100
0000
,
0001
0001
1000
1000
,
0001
1000
0001
1000
,
0010
0010
0100
0100
,
0010
0100
0010
0100
,
0010
1000
0010
0100
,
0010
0001
0010
0100
,
0010
1000
0010
0100
,
0010
0000
0100
0001
0010
0000
0001
0000
,
1002
0000
0203
0000
,
0320
0000
2030
0000
,
3200
0000
0320
0000
,
0230
0000
2300
0010
,
3020
0000
0230
0000
,
0302
0000
0203
0000
,
0320
0000
0230
0000
,
0320
0000
2030
0001
,
3002
0000
2003
0000
,
3200
0000
0320
0000
,
0230
0000
2300
0000
,
3020
0000
2030
0001
,
3002
0000
0203
0000
,
0320
0000
0230
0000
,
0302
0000
2003
0000
,
3002
0000
0203
0010
,
0310
1000
0100
0010
,
0001
1000
0001
0100
,
0010
1000
0100
0010
0100
1000
0010
0100
,
0010
1000
0001
0100
0010
0100
0001
0010
,
0200
0000
0000
0000
,
0300
0000
0000
0000
;

//---------------dance-single - ----------------
#NOTEDATA:;
#CHARTNAME:;
#STEPSTYPE:dance-single;
#DESCRIPTION:;
#CHARTSTYLE:;
#DIFFICULTY:Medium;
#METER:13;
#RADARVALUES:0.544302,0.727386,0.195391,0.293086,0.000000,429.000000,407.000000,22.000000,33.000000,0.000000,0.000000,0.000000,0.000000,0.000000,0.544302,0.727386,0.195391,0.293086,0.000000,429.000000,407.000000,22.000000,33.000000,0.000000,0.000000,0.000000,0.000000,0.000000;
#CREDIT:;
#NOTES:
0000
0000
0000
0000
,
0000
0000
0000
0000
,
0000
0000
0000
0000
,
0000
0000
0000
0000
,
1000
1100
0001
0101
,
1000
0000
1100
0000
0001
0000
0100
0001
,
0100
0101
0010
1010
,
0100
0000
1010
0000
0100
0000
1000
0100
,
1000
0101
0001
0101
,
1000
0000
1100
0000
0010
0000
0100
0010
,
0100
0101
0001
0101
,
0010
0000
1010
0000
0001
0000
0001
0100
,
0001
1000
0001
0000
0010
0100
0010
0000
,
0001
1000
0100
0000
0010
0100
0001
0000
,
0010
0100
0001
0000
0010
1000
0100
0000
,
0010
0100
0001
0000
0010
1000
0100
0000
,
0001
1000
0100
0000
0001
1000
0001
0000
,
0010
1000
0001
0000
0010
1000
0010
0000
,
0010
1000
0100
0000
0100
1000
0010
0000
,
0001
0100
0010
0000
0001
0010
0001
0000
,
0010
1000
0100
0000
0001
0001
0100
0000
,
0010
1000
0100
0000
1000
0010
0010
0000
,
0001
1000
0010
0000
0001
0001
0100
0000
,
0010
1000
0100
0000
0100
0001
0010
0000
,
0001
0010
0001
0000
0010
0010
0100
0000
,
0010
1000
0100
0000
1000
0010
1000
0000
,
0001
0010
0001
0000
0001
0001
0010
0000
,
0010
0100
0001
0000
0010
0010
1000
0000
,
0010
0100
0010
0000
0001
0001
0100
0000
,
0010
0100
0010
0000
0100
0010
0010
0000
,
0001
1000
0010
0000
0001
0001
0100
0000
,
0100
1000
0100
0000
0100
0010
0100
0000
,
0100
0001
0010
0000
0001
0010
0001
0000
,
0100
1000
0010
0000
0100
0010
0100
0000
,
0001
0010
0100
0000
1000
0100
1000
0000
,
0001
0010
0001
0000
0010
0001
0100
0000
,
1001
0000
0100
0000
0100
0010
0000
0010
,
0000
0000
1000
0000
0001
1000
0000
0100
,
0010
0000
0010
0000
0001
0100
0000
0010
,
0000
0000
1000
0000
0100
1000
0000
0010
,
0100
0000
1001
0000
,
0100
0000
1001
0000
,
0010
0000
1001
0000
,
0010
0000
1001
0000
,
1000
0000
0110
0000
,
1000
0000
0110
0000
,
0001
0000
0110
0000
,
0001
0000
0110
0000
,
1000
0100
0010
0000
,
1000
0010
0100
0000
,
0100
0010
1000
0000
,
0010
0100
1000
0000
,
0100
0010
0100
0000
,
0100
0010
1000
0000
,
1000
0010
0100
0000
,
0100
0010
0001
0000
,
0010
0100
0001
0000
,
0100
1000
0010
0000
,
0100
0010
0001
0000
,
0010
1000
0100
0000
,
0001
1000
0100
0000
,
0001
0100
0001
0000
,
0100
1000
0001
0000
,
0001
1000
0100
0000
,
1000
0010
0100
0000
,
0100
0010
1000
0000
,
0100
0001
0100
0000
,
1000
0001
1000
0000
,
0100
0010
0100
0000
,
0100
0010
1000
0000
,
0100
0010
1000
0000
,
0010
0100
0100
0000
,
0001
0100
0010
0000
,
0010
0100
0001
0000
,
0010
1000
0010
0000
,
0010
1000
0100
0000
,
0001
0100
0001
0000
,
0001
1000
0010
0000
,
0100
1000
0010
0000
,
0001
1000
1000
0000
,
1000
0001
1000
0000
,
0001
1000
0001
0000
,
0100
0010
0100
0000
,
0010
0100
0010
0000
,
1000
0100
1000
0000
,
0001
0100
0001
0000
,
1000
0010
0100
0000
,
1000
0100
0010
0000
,
0001
0001
1000
0000
,
0001
1000
0001
0000
,
0010
0010
0100
0000
,
0010
0100
0010
0000
,
0010
1000
0010
0000
,
0010
0001
0010
0000
,
0010
1000
0010
0000
,
0010
0100
0010
0000
,
1002
0000
0203
0000
,
0320
0000
2030
0000
,
3200
0000
0320
0000
,
0230
0000
2300
0000
,
3020
0000
0230
0000
,
0302
0000
0203
0000
,
0320
0000
0230
0000
,
0320
0000
2030
0000
,
3002
0000
2003
0000
,
3200
0000
0320
0000
,
0230
0000
2300
0000
,
3020
0000
2030
0000
,
3002
0000
0203
0000
,
0320
0000
0230
0000
,
0302
0000
2003
0000
,
3002
0000
0203
0000
,
0310
1000
0100
0010
,
0001
1000
0001
0100
,
0010
0100
0001
0010
,
0100
1000
0100
1000
,
0200
0000
0000
0000
,
0300
0000
0000
0000
;

//---------------dance-single - ----------------
#NOTEDATA:;
#CHARTNAME:;
#STEPSTYPE:dance-single;
#DESCRIPTION:;
#CHARTSTYLE:;
#DIFFICULTY:Easy;
#METER:9;
#RADARVALUES:0.397125,0.571517,0.159865,0.293086,0.000000,313.000000,295.000000,18.000000,33.000000,0.000000,0.000000,0.000000,0.000000,0.000000,0.397125,0.571517,0.159865,0.293086,0.000000,313.000000,295.000000,18.000000,33.000000,0.000000,0.000000,0.000000,0.000000,0.000000;
#CREDIT:;
#NOTES:
// measure 0
0000
0000
0000
0000
,  // measure 1
0000
0000
0000
0000
,  // measure 2
0000
0000
0000
0000
,  // measure 3
0000
0000
0000
0000
,  // measure 4
1000
1000
0001
0001
,  // measure 5
1000
1100
0001
0100
,  // measure 6
0100
0100
0010
0010
,  // measure 7
0100
1010
0100
1000
,  // measure 8
1000
0001
1000
0001
,  // measure 9
1000
1100
0010
0100
,  // measure 10
0100
1000
0001
0010
,  // measure 11
0010
1001
0100
0001
,  // measure 12
1000
0001
0010
0010
,  // measure 13
0001
0100
0010
1000
,  // measure 14
0010
0100
0010
0100
,  // measure 15
1000
0001
0010
0100
,  // measure 16
1000
0100
1000
0001
,  // measure 17
0010
0001
0010
0001
,  // measure 18
1000
0100
1000
0010
,  // measure 19
0100
0010
0100
0001
,  // measure 20
0010
0100
1000
0100
,  // measure 21
0010
0100
1000
0100
,  // measure 22
1000
0010
0001
0100
,  // measure 23
1000
0100
0001
0010
,  // measure 24
0001
0001
0010
0100
,  // measure 25
1000
0100
1000
1000
,  // measure 26
0001
0001
1000
0010
,  // measure 27
0010
0100
0001
1000
,  // measure 28
0010
0010
1000
0100
,  // measure 29
0010
0010
0001
0010
,  // measure 30
0001
0010
0001
0100
,  // measure 31
0100
0100
0100
0100
,  // measure 32
0100
0010
1000
0001
,  // measure 33
0100
0010
0100
0100
,  // measure 34
0001
0100
0010
1000
,  // measure 35
0001
0001
0010
0100
,  // measure 36
1001
0000
0000
0000
0000
0010
0000
0010
,  // measure 37
0000
1000
0001
0000
,  // measure 38
0010
0000
0010
0000
0000
0100
0000
0010
,  // measure 39
0000
0000
1000
0000
0000
1000
0000
1000
,  // measure 40
1000
0000
1001
0000
,  // measure 41
0100
0000
1001
0000
,  // measure 42
0010
0000
1001
0000
,  // measure 43
0010
0000
1001
0000
,  // measure 44
1000
0000
0110
0000
,  // measure 45
1000
0000
0110
0000
,  // measure 46
0001
0000
0110
0000
,  // measure 47
0001
0000
0110
0000
,  // measure 48
1000
0000
0010
0000
,  // measure 49
1000
0000
0100
0000
,  // measure 50
0100
0000
1000
0000
,  // measure 51
0010
0000
1000
0000
,  // measure 52
0100
0000
0100
0000
,  // measure 53
0100
0000
1000
0000
,  // measure 54
1000
0000
0100
0000
,  // measure 55
0100
0000
0001
0000
,  // measure 56
0010
0000
0001
0000
,  // measure 57
0100
0000
0010
0000
,  // measure 58
0100
0000
0001
0000
,  // measure 59
0010
0000
0100
0000
,  // measure 60
0001
0000
0100
0000
,  // measure 61
0001
0000
0001
0000
,  // measure 62
0100
0000
0001
0000
,  // measure 63
0001
0000
0100
0000
,  // measure 64
1000
0000
0100
0000
,  // measure 65
0100
0000
1000
0000
,  // measure 66
0100
0000
0100
0000
,  // measure 67
1000
0000
1000
0000
,  // measure 68
0100
0000
0100
0000
,  // measure 69
0100
0000
1000
0000
,  // measure 70
0100
0000
1000
0000
,  // measure 71
0010
0000
0100
0000
,  // measure 72
0001
0000
0010
0000
,  // measure 73
0010
0000
0001
0000
,  // measure 74
0010
0000
0010
0000
,  // measure 75
0010
0000
0100
0000
,  // measure 76
0001
0000
0001
0000
,  // measure 77
0001
0000
0010
0000
,  // measure 78
0100
0000
0010
0000
,  // measure 79
0001
0000
1000
0000
,  // measure 80
1000
0000
1000
0000
,  // measure 81
0001
0000
0001
0000
,  // measure 82
0100
0000
0100
0000
,  // measure 83
0010
0000
0010
0000
,  // measure 84
1000
0000
1000
0000
,  // measure 85
0001
0000
0001
0000
,  // measure 86
1000
0000
0100
0000
,  // measure 87
1000
0000
0010
0000
,  // measure 88
0001
0000
1000
0000
,  // measure 89
0001
0000
0001
0000
,  // measure 90
0010
0000
0100
0000
,  // measure 91
0010
0000
0100
0000
,  // measure 92
0010
0000
1001
0000
,  // measure 93
0010
0000
1001
0000
,  // measure 94
0010
0000
1001
0000
,  // measure 95
0010
0000
1001
0000
,  // measure 96
1002
0000
0203
0000
,  // measure 97
0320
0000
2030
0000
,  // measure 98
3200
0000
0320
0000
,  // measure 99
0230
0000
2300
0000
,  // measure 100
3020
0000
0230
0000
,  // measure 101
0302
0000
0203
0000
,  // measure 102
0320
0000
0230
0000
,  // measure 103
0320
0000
2030
0000
,  // measure 104
3002
0000
2003
0000
,  // measure 105
3200
0000
0320
0000
,  // measure 106
0230
0000
2300
0000
,  // measure 107
3020
0000
2030
0000
,  // measure 108
3002
0000
0203
0000
,  // measure 109
0320
0000
0230
0000
,  // measure 110
0302
0000
2003
0000
,  // measure 111
3002
0000
0203
0000
,  // measure 112
0310
0000
0100
0000
,  // measure 113
0001
0000
0001
0000
,  // measure 114
0010
0000
0001
0000
,  // measure 115
1000
0001
1000
0001
,  // measure 116
0200
0000
0000
0000
,  // measure 117
0300
0000
0000
0000
;

//---------------dance-single - ----------------
#NOTEDATA:;
#CHARTNAME:;
#STEPSTYPE:dance-single;
#DESCRIPTION:;
#CHARTSTYLE:;
#DIFFICULTY:Beginner;
#METER:4;
#RADARVALUES:0.187778,0.311737,0.026644,0.195391,0.000000,148.000000,145.000000,3.000000,22.000000,0.000000,0.000000,0.000000,0.000000,0.000000,0.187778,0.311737,0.026644,0.195391,0.000000,148.000000,145.000000,3.000000,22.000000,0.000000,0.000000,0.000000,0.000000,0.000000;
#CREDIT:;
#NOTES:
// measure 0
0000
0000
0000
0000
,  // measure 1
0000
0000
0000
0000
,  // measure 2
0000
0000
0000
0000
,  // measure 3
0000
0000
0000
0000
,  // measure 4
1000
1000
0000
0000
,  // measure 5
0001
0001
0000
0000
,  // measure 6
0100
0100
0000
0000
,  // measure 7
0010
0010
0000
0000
,  // measure 8
1000
0000
1000
0000
,  // measure 9
1000
0000
0010
0000
,  // measure 10
0100
0000
0001
0000
,  // measure 11
0010
0000
0100
0000
,  // measure 12
1000
0000
0010
0000
,  // measure 13
0001
0000
0010
0000
,  // measure 14
0010
0000
0010
0000
,  // measure 15
1000
0000
0010
0000
,  // measure 16
1000
0000
1000
0000
,  // measure 17
0010
0000
0010
0000
,  // measure 18
1000
0000
1000
0000
,  // measure 19
0100
0000
0100
0000
,  // measure 20
0010
0000
1000
0000
,  // measure 21
0010
0000
1000
0000
,  // measure 22
1000
0000
0001
0000
,  // measure 23
1000
0000
0001
0000
,  // measure 24
0001
0000
0010
0000
,  // measure 25
1000
0000
1000
0000
,  // measure 26
0001
0000
1000
0000
,  // measure 27
0010
0000
0001
0000
,  // measure 28
0010
0000
1000
0000
,  // measure 29
0010
0000
0001
0000
,  // measure 30
0001
0000
0001
0000
,  // measure 31
0100
0000
0100
0000
,  // measure 32
0100
0000
1000
0000
,  // measure 33
0100
0000
0100
0000
,  // measure 34
0001
0000
0010
0000
,  // measure 35
0001
0000
0010
0000
,  // measure 36
2002
0000
0000
0000
,  // measure 37
3003
0000
0000
0000
,  // measure 38
0220
0000
0000
0000
,  // measure 39
0330
0000
0000
0000
,  // measure 40
1000
0000
0000
0000
,  // measure 41
0100
0000
0000
0000
,  // measure 42
0010
0000
0000
0000
,  // measure 43
0010
0000
0000
0000
,  // measure 44
1000
0000
0000
0000
,  // measure 45
1000
0000
0000
0000
,  // measure 46
0001
0000
0000
0000
,  // measure 47
0001
0000
0000
0000
,  // measure 48
1000
0000
0000
0000
,  // measure 49
1000
0000
0000
0000
,  // measure 50
0100
0000
0000
0000
,  // measure 51
0010
0000
0000
0000
,  // measure 52
0100
0000
0000
0000
,  // measure 53
0100
0000
0000
0000
,  // measure 54
1000
0000
0000
0000
,  // measure 55
0100
0000
0000
0000
,  // measure 56
0010
0000
0000
0000
,  // measure 57
0100
0000
0000
0000
,  // measure 58
0100
0000
0000
0000
,  // measure 59
0010
0000
0000
0000
,  // measure 60
0001
0000
0000
0000
,  // measure 61
0001
0000
0000
0000
,  // measure 62
0100
0000
0000
0000
,  // measure 63
0001
0000
0000
0000
,  // measure 64
1000
0000
0000
0000
,  // measure 65
0100
0000
0000
0000
,  // measure 66
0100
0000
0000
0000
,  // measure 67
1000
0000
0000
0000
,  // measure 68
0100
0000
0000
0000
,  // measure 69
0100
0000
0000
0000
,  // measure 70
0100
0000
0000
0000
,  // measure 71
0010
0000
0000
0000
,  // measure 72
0001
0000
0000
0000
,  // measure 73
0010
0000
0000
0000
,  // measure 74
0010
0000
0000
0000
,  // measure 75
0010
0000
0000
0000
,  // measure 76
0001
0000
0000
0000
,  // measure 77
0001
0000
0000
0000
,  // measure 78
0100
0000
0000
0000
,  // measure 79
0001
0000
0000
0000
,  // measure 80
1000
0000
0000
0000
,  // measure 81
0001
0000
0000
0000
,  // measure 82
0100
0000
0000
0000
,  // measure 83
0010
0000
0000
0000
,  // measure 84
1000
0000
0000
0000
,  // measure 85
0001
0000
0000
0000
,  // measure 86
1000
0000
0000
0000
,  // measure 87
1000
0000
0000
0000
,  // measure 88
0001
0000
0000
0000
,  // measure 89
0001
0000
0000
0000
,  // measure 90
0010
0000
0000
0000
,  // measure 91
0010
0000
0000
0000
,  // measure 92
0010
0000
0000
0000
,  // measure 93
0010
0000
0000
0000
,  // measure 94
0010
0000
0000
0000
,  // measure 95
0010
0000
0000
0000
,  // measure 96
0002
0000
0003
0000
,  // measure 97
0020
0000
0030
0000
,  // measure 98
0200
0000
0300
0000
,  // measure 99
2000
0000
3000
0000
,  // measure 100
0020
0000
0030
0000
,  // measure 101
0200
0000
0300
0000
,  // measure 102
0002
0000
0003
0000
,  // measure 103
2000
0000
3000
0000
,  // measure 104
0002
0000
0003
0000
,  // measure 105
0200
0000
0300
0000
,  // measure 106
0020
0000
0030
0000
,  // measure 107
2000
0000
3000
0000
,  // measure 108
0002
0000
0003
0000
,  // measure 109
2000
0000
3000
0000
,  // measure 110
0002
0000
0003
0000
,  // measure 111
2000
0000
3000
0000
,  // measure 112
0010
0000
0010
0000
,  // measure 113
0010
0000
0000
0000
,  // measure 114
0100
0000
0100
0000
,  // measure 115
0100
0000
0000
0000
,  // measure 116
2002
0000
0000
0000
,  // measure 117
3003
0000
0000
0000
;
