#VERSION:0.83;
#TITLE:Sound Stage Strut;
#SUBTITLE:;
#ARTIST:Jay Weinland;
#TITLETRANSLIT:;
#SUBTITLETRANSLIT:;
#ARTISTTRANSLIT:;
#GENRE:;
#ORIGIN:;
#CREDIT:;
#BANNER:;
#BACKGROUND:DDR CD-bg.JPG;
#PREVIEWVID:;
#JACKET:Sound Stage Strut-jacket.jpg;
#CDIMAGE:;
#DISCIMAGE:;
#LYRICSPATH:;
#CDTITLE:;
#MUSIC:Sound Stage Strut.ogg;
#OFFSET:-2.140000;
#SAMPLESTART:22.839966;
#SAMPLELENGTH:12.000000;
#SELECTABLE:YES;
#BPMS:0.000=162.040,
268.000=162.000;
#STOPS:;
#DELAYS:;
#WARPS:;
#TIMESIGNATURES:0.000=4=4;
#TICKCOUNTS:0.000=4;
#COMBOS:0.000=1;
#SPEEDS:0.000=1.000=0.000=0;
#SCROLLS:0.000=1.000;
#FAKES:;
#LABELS:0.000=Song Start;
#BGCHANGES:;
#KEYSOUNDS:;
#ATTACKS:
;

//---------------dance-single - ----------------
#NOTEDATA:;
#CHARTNAME:;
#STEPSTYPE:dance-single;
#DESCRIPTION:;
#CHARTSTYLE:;
#DIFFICULTY:Hard;
#METER:16;
#RADARVALUES:0.745681,1.055604,0.144052,0.016947,0.427919,616.000000,599.000000,17.000000,2.000000,0.000000,0.000000,0.000000,0.000000,0.000000,0.745681,1.055604,0.144052,0.016947,0.427919,616.000000,599.000000,17.000000,2.000000,0.000000,0.000000,0.000000,0.000000,0.000000;
#CREDIT:;
#NOTES:
// measure 0
0000
0000
0000
0000
,  // measure 1
0000
0000
0000
0000
,  // measure 2
0000
0000
0000
0000
,  // measure 3
0000
0000
0000
0000
,  // measure 4
0000
0000
0000
0000
,  // measure 5
0000
0000
0000
0000
,  // measure 6
0001
1000
0001
0001
,  // measure 7
0100
0001
1000
0010
,  // measure 8
1000
0100
1000
0001
,  // measure 9
1000
0001
0100
0001
,  // measure 10
1000
0010
0100
0100
,  // measure 11
0001
1000
0010
0010
,  // measure 12
1000
0100
1000
0001
,  // measure 13
0100
0010
1000
1001
,  // measure 14
1000
0001
0000
0100
0000
0010
0000
1000
0000
0001
0000
0100
0000
0010
0000
1000
,  // measure 15
0001
0100
0001
0100
0001
0100
0001
0100
,  // measure 16
0001
0000
1000
0010
0100
0010
1000
0000
0001
0100
0010
0100
0001
0100
0010
0100
,  // measure 17
0001
1000
0100
1000
0100
1000
0010
1000
,  // measure 18
0010
0000
0100
1000
0010
1000
0100
0000
1000
0010
0100
0010
1000
0100
0010
0100
,  // measure 19
1000
0001
0100
0010
0100
0001
0010
0001
,  // measure 20
1000
0000
0001
0100
0001
0100
0001
0100
0010
0100
0010
0100
0010
1000
0010
1000
,  // measure 21
0100
1000
0100
1000
0010
1000
0001
0100
,  // measure 22
0001
0000
1000
0010
0100
0001
0100
0010
1000
0100
1000
0001
0100
0000
0001
0100
,  // measure 23
0001
1000
0100
1000
0010
0100
0001
0100
,  // measure 24
0010
0000
1000
0100
1000
0100
1000
0000
1000
0010
0100
0010
0100
0010
1000
0001
,  // measure 25
0100
0010
0100
0001
0100
0010
1000
0001
,  // measure 26
0100
0000
0010
0100
0010
0100
0010
0000
0100
0001
0100
0001
0010
0001
0010
0001
,  // measure 27
1000
0100
1000
0010
0100
0001
0010
0001
,  // measure 28
1000
0000
0100
1000
0010
1000
0100
1000
0010
0100
0001
0100
0001
0000
0100
0010
,  // measure 29
0100
0001
0100
0010
1000
0100
1000
0010
,  // measure 30
0100
0000
0001
0100
0001
0100
0001
0010
0001
0010
0001
0010
0001
0000
0100
0001
,  // measure 31
0100
0010
1000
0100
1000
0010
0100
0010
,  // measure 32
1000
0100
1000
0010
0100
0001
0100
0001
,  // measure 33
1000
0010
0100
0001
1000
0100
0010
0001
,  // measure 34
0100
0010
1000
0100
0010
0001
0100
0010
,  // measure 35
1000
0100
0010
0001
0100
0010
0100
0010
,  // measure 36
1000
0010
0100
0010
0100
0010
0001
0010
,  // measure 37
0100
0010
1000
0010
0100
0010
0001
0010
,  // measure 38
0100
0010
1000
0010
0100
0010
0001
0010
,  // measure 39
0100
0010
1000
0100
1000
0001
0100
0001
,  // measure 40
1000
0010
0100
0001
1000
0100
1000
0001
,  // measure 41
1000
0001
0100
0001
0100
0010
0100
0010
,  // measure 42
1000
0100
1000
0001
0100
0001
0100
0001
,  // measure 43
0010
0001
1000
0001
1000
0010
1000
0100
,  // measure 44
1000
0100
0010
0001
0100
0010
1000
0100
,  // measure 45
0010
0001
0100
0010
1000
0001
0100
0010
,  // measure 46
1000
0100
1000
0100
1000
0100
1000
0100
,  // measure 47
0010
0001
0010
0001
0010
0001
0010
0001
,  // measure 48
1000
0001
0100
0010
1000
0001
0100
0010
,  // measure 49
1000
0001
0100
0010
1000
0001
1000
0100
,  // measure 50
1000
0001
0100
0001
1000
0100
1000
0001
,  // measure 51
0100
0001
0100
0001
0100
0001
0100
0001
0100
0001
0100
0001
0100
0001
0100
0001
,  // measure 52
1000
0010
1000
0010
1000
0010
1000
0010
1000
0010
1000
0010
1000
0010
1000
0010
,  // measure 53
0100
0001
0100
0010
0100
0001
0100
0010
0100
0001
0100
0010
0100
0001
0100
0010
,  // measure 54
1000
0100
0010
0100
1000
0100
0010
0100
1000
0100
0010
0100
1000
0010
0100
0010
,  // measure 55
1000
0101
0101
0101
,  // measure 56
0101
0101
0101
0101
,  // measure 57
0001
1100
1100
1100
,  // measure 58
1100
1100
1100
1100
,  // measure 59
1001
0100
0001
0100
0010
1000
0100
1000
,  // measure 60
0010
0100
0001
0100
0001
0100
0010
1000
,  // measure 61
0100
1000
0010
1000
0010
0100
0001
0100
,  // measure 62
0001
0010
0001
0100
0001
1000
0010
1000
,  // measure 63
0100
1000
0010
1000
0010
0100
0001
1000
,  // measure 64
0100
1000
0010
0100
0001
0100
0001
0010
,  // measure 65
0001
0100
0001
0100
0010
0100
0001
0010
,  // measure 66
0001
0100
0001
1000
0100
0010
0001
1000
,  // measure 67
0001
0000
1000
0001
1000
0000
0001
0000
0100
0010
0100
0000
0010
0000
0100
0000
,  // measure 68
0001
0000
0010
0001
0010
0000
0001
0000
0100
0010
0100
0000
0001
0000
0100
0000
,  // measure 69
0010
0000
1000
0010
1000
0000
0100
0000
0010
0001
0010
0000
0001
0000
1000
0000
,  // measure 70
0010
0000
0100
0001
0100
0000
0010
0000
1000
0010
1000
0000
0001
0000
0100
0000
,  // measure 71
0010
0000
0100
0010
0100
0000
0001
0000
1000
0001
1000
0000
0001
0000
1000
0000
,  // measure 72
0001
0000
0100
0001
0100
0000
0001
0000
0100
0010
0100
0000
0010
0000
1000
0000
,  // measure 73
0010
1000
0100
0010
0001
0100
0010
1000
,  // measure 74
0100
0010
0001
0100
0010
1000
0100
0010
,  // measure 75
2002
0000
3003
0000
;

//---------------dance-single - ----------------
#NOTEDATA:;
#CHARTNAME:;
#STEPSTYPE:dance-single;
#DESCRIPTION:;
#CHARTSTYLE:;
#DIFFICULTY:Medium;
#METER:11;
#RADARVALUES:0.447893,0.513503,0.321998,0.050842,0.000000,370.000000,332.000000,38.000000,6.000000,0.000000,0.000000,0.000000,0.000000,0.000000,0.447893,0.513503,0.321998,0.050842,0.000000,370.000000,332.000000,38.000000,6.000000,0.000000,0.000000,0.000000,0.000000,0.000000;
#CREDIT:;
#NOTES:
// measure 0
0000
0000
0000
0000
,  // measure 1
0000
0000
0000
0000
,  // measure 2
0000
0000
0000
0000
,  // measure 3
0000
0000
0000
0000
,  // measure 4
0000
0000
0000
0000
,  // measure 5
0000
0000
0000
0000
,  // measure 6
1001
0100
1001
0100
,  // measure 7
1000
0001
0100
0010
,  // measure 8
1001
0100
1001
0100
,  // measure 9
1000
0100
0010
0001
,  // measure 10
1001
0100
1001
0100
,  // measure 11
1000
0100
0001
0010
,  // measure 12
1001
0100
1001
0100
,  // measure 13
0001
1000
0010
0100
,  // measure 14
1000
0002
0000
0203
0000
0320
0000
2030
,  // measure 15
0001
3001
0100
0010
1000
0010
1000
0000
,  // measure 16
1000
1000
0100
1000
0010
0100
0001
0000
,  // measure 17
0001
0001
1000
0010
0100
0001
1000
0000
,  // measure 18
1000
1000
0010
0100
0001
0100
0010
0000
,  // measure 19
0010
1000
0100
1000
,  // measure 20
0010
0100
0001
0010
,  // measure 21
0001
0100
0010
1000
,  // measure 22
0100
0010
0001
0100
,  // measure 23
1001
0100
0100
0100
,  // measure 24
1001
0010
0010
0010
,  // measure 25
1001
0100
0100
0100
,  // measure 26
1001
0010
0010
0010
,  // measure 27
1001
1000
1000
1000
,  // measure 28
0001
1000
0001
1000
0001
1000
0100
0100
,  // measure 29
1000
0000
0010
0100
0001
0000
0100
0000
,  // measure 30
0010
0000
0100
0001
0010
0001
0010
0001
,  // measure 31
0100
1001
0100
0101
,  // measure 32
0001
0011
0010
0011
,  // measure 33
0001
0001
1000
1000
,  // measure 34
0010
0010
0100
0100
,  // measure 35
0010
1000
0100
0010
,  // measure 36
0001
0100
0010
1000
,  // measure 37
0010
0100
0010
1000
,  // measure 38
0001
0100
0001
0100
,  // measure 39
0010
1000
0100
1000
,  // measure 40
0010
0100
0001
0100
,  // measure 41
1001
0000
0100
0000
0100
0100
0100
0000
,  // measure 42
1001
0000
0010
0000
0010
0010
0010
0000
,  // measure 43
1001
1000
0100
1000
,  // measure 44
0010
0100
0001
0010
,  // measure 45
0001
0100
0010
1000
,  // measure 46
0100
1000
0001
0100
,  // measure 47
0010
0100
0001
0010
,  // measure 48
0001
1000
0100
1000
,  // measure 49
0010
0100
0010
1000
,  // measure 50
0100
0010
0001
0100
,  // measure 51
1001
0000
0100
0010
0100
0000
0001
1000
,  // measure 52
0001
0000
1000
0100
1000
0000
0010
1000
,  // measure 53
0010
0000
0100
0001
0100
0000
0001
0100
,  // measure 54
0001
0000
1000
0010
1000
0000
0010
0100
,  // measure 55
0010
0000
1000
0100
1000
0000
0001
0100
,  // measure 56
0001
0000
1000
0010
1000
0000
0010
0100
,  // measure 57
0010
0000
0100
0001
0100
0000
0001
0010
,  // measure 58
0001
0000
1000
0100
1000
0000
0001
0010
,  // measure 59
0001
0110
1000
0110
,  // measure 60
0001
1000
0100
0010
,  // measure 61
1000
0101
0001
1100
,  // measure 62
1000
0010
0100
0001
,  // measure 63
0100
1001
0010
1001
,  // measure 64
0010
1000
0001
0100
,  // measure 65
0010
0011
0100
1100
,  // measure 66
1000
0001
0100
0010
,  // measure 67
1001
0000
1000
0100
1000
0100
1000
0000
,  // measure 68
1001
0000
0001
0100
0001
0100
0001
0000
,  // measure 69
1001
0000
1000
0010
1000
0010
1000
0000
,  // measure 70
1001
0000
0001
0010
0001
0010
0001
0000
,  // measure 71
1001
0000
1000
0010
0100
0010
1000
0000
,  // measure 72
1001
0000
0001
0100
0010
0100
0001
0000
,  // measure 73
0110
0000
1000
0010
0100
0010
1000
0000
,  // measure 74
0110
0000
0001
0100
0010
0100
0001
0000
,  // measure 75
2002
0000
0000
3003
;

//---------------dance-single - ----------------
#NOTEDATA:;
#CHARTNAME:;
#STEPSTYPE:dance-single;
#DESCRIPTION:;
#CHARTSTYLE:;
#DIFFICULTY:Easy;
#METER:9;
#RADARVALUES:0.363156,0.385127,0.211841,0.067789,0.000000,300.000000,275.000000,25.000000,8.000000,0.000000,0.000000,0.000000,0.000000,0.000000,0.363156,0.385127,0.211841,0.067789,0.000000,300.000000,275.000000,25.000000,8.000000,0.000000,0.000000,0.000000,0.000000,0.000000;
#CREDIT:;
#NOTES:
// measure 0
0000
0000
0000
0000
,  // measure 1
0000
0000
0000
0000
,  // measure 2
0000
0000
0000
0000
,  // measure 3
0000
0000
0000
0000
,  // measure 4
0000
0000
0000
0000
,  // measure 5
0000
0000
0000
0000
,  // measure 6
1001
0100
0001
0100
,  // measure 7
1000
0001
0100
0010
,  // measure 8
1001
0100
1000
0100
,  // measure 9
1000
0100
0010
0001
,  // measure 10
1001
0100
0001
0100
,  // measure 11
1000
0100
0001
0010
,  // measure 12
1001
0100
0001
0100
,  // measure 13
0001
1000
0010
0100
,  // measure 14
2000
3002
0203
0320
,  // measure 15
1030
0100
1000
1000
,  // measure 16
1000
0100
0010
0001
,  // measure 17
0001
1000
0100
1000
,  // measure 18
1000
0010
0001
0010
,  // measure 19
0010
1000
0100
1000
,  // measure 20
0010
0100
0001
0010
,  // measure 21
0001
0100
0010
1000
,  // measure 22
0100
0010
0001
0100
,  // measure 23
1001
0100
0100
0100
,  // measure 24
1001
0010
0010
0010
,  // measure 25
1001
0100
0100
0100
,  // measure 26
1001
0010
0010
0010
,  // measure 27
1001
1000
1000
1000
,  // measure 28
1001
0001
0001
0001
,  // measure 29
1000
0010
0001
0100
,  // measure 30
0010
0100
0010
0010
,  // measure 31
0100
1001
0100
0001
,  // measure 32
0001
0011
0010
0001
,  // measure 33
0001
0001
1000
1000
,  // measure 34
0010
0010
0100
0100
,  // measure 35
0010
1000
0100
0010
,  // measure 36
0001
0100
0010
1000
,  // measure 37
0010
0100
0010
1000
,  // measure 38
0001
0100
0001
0100
,  // measure 39
0010
1000
0100
1000
,  // measure 40
0010
0100
0001
0100
,  // measure 41
1001
0100
0200
0300
,  // measure 42
1001
0010
0020
0030
,  // measure 43
1001
1000
0100
1000
,  // measure 44
0010
0100
0001
0010
,  // measure 45
0001
0100
0010
1000
,  // measure 46
0100
1000
0001
0100
,  // measure 47
0010
0100
0001
0010
,  // measure 48
0001
1000
0100
1000
,  // measure 49
0010
0100
0010
1000
,  // measure 50
0100
0010
0001
0100
,  // measure 51
1001
0100
0100
0001
,  // measure 52
0001
1000
1000
0010
,  // measure 53
0010
0100
0100
0001
,  // measure 54
0001
1000
1000
0010
,  // measure 55
0010
1000
1000
0001
,  // measure 56
0001
1000
1000
0010
,  // measure 57
0010
0100
0100
0001
,  // measure 58
0001
1000
1000
0001
,  // measure 59
0001
0010
1000
0100
,  // measure 60
0001
0010
1000
0100
,  // measure 61
0001
0001
1000
1000
,  // measure 62
0010
0010
0100
0001
,  // measure 63
0100
0001
0010
0001
,  // measure 64
1000
1000
0001
0100
,  // measure 65
0010
1000
0100
1000
,  // measure 66
1000
0001
0100
0010
,  // measure 67
1001
1000
1000
1000
,  // measure 68
1001
0001
0001
0001
,  // measure 69
1001
1000
1000
1000
,  // measure 70
1001
0001
0001
0001
,  // measure 71
1001
1000
0100
1000
,  // measure 72
1001
0001
0010
0001
,  // measure 73
0110
1000
0100
1000
,  // measure 74
0110
0001
0010
0001
,  // measure 75
2002
0000
0000
3003
;

//---------------dance-single - ----------------
#NOTEDATA:;
#CHARTNAME:;
#STEPSTYPE:dance-single;
#DESCRIPTION:;
#CHARTSTYLE:;
#DIFFICULTY:Beginner;
#METER:4;
#RADARVALUES:0.171894,0.220209,0.033895,0.000000,0.000000,142.000000,138.000000,4.000000,0.000000,0.000000,0.000000,0.000000,0.000000,0.000000,0.171894,0.220209,0.033895,0.000000,0.000000,142.000000,138.000000,4.000000,0.000000,0.000000,0.000000,0.000000,0.000000,0.000000;
#CREDIT:;
#NOTES:
// measure 0
0000
0000
0000
0000
,  // measure 1
0000
0000
0000
0000
,  // measure 2
0000
0000
0000
0000
,  // measure 3
0000
0000
0000
0000
,  // measure 4
0000
0000
0000
0000
,  // measure 5
0000
0000
0000
0000
,  // measure 6
1000
0000
0001
0000
,  // measure 7
1000
0000
0100
0000
,  // measure 8
1000
0000
1000
0000
,  // measure 9
1000
0000
0010
0000
,  // measure 10
0001
0000
0001
0000
,  // measure 11
1000
0000
0001
0000
,  // measure 12
0001
0000
0001
0000
,  // measure 13
0001
0000
0010
0000
,  // measure 14
1000
0000
0100
0000
,  // measure 15
1000
0000
1000
0000
,  // measure 16
1000
0000
0010
0000
,  // measure 17
0001
0000
0100
0000
,  // measure 18
1000
0000
0001
0000
,  // measure 19
0010
0000
0100
0000
,  // measure 20
0010
0000
0001
0000
,  // measure 21
0001
0000
0010
0000
,  // measure 22
0100
0000
0001
0000
,  // measure 23
1001
0000
0000
0000
,  // measure 24
1001
0000
0000
0000
,  // measure 25
1001
0000
0000
0000
,  // measure 26
1001
0000
0000
0000
,  // measure 27
1000
0000
1000
0000
,  // measure 28
0001
0000
0001
0000
,  // measure 29
1000
0000
0001
0000
,  // measure 30
0010
0000
0010
0000
,  // measure 31
0100
0000
0100
0000
,  // measure 32
0001
0000
0010
0000
,  // measure 33
0001
0001
0000
0000
,  // measure 34
0010
0010
0000
0000
,  // measure 35
0010
0000
0100
0000
,  // measure 36
0001
0000
0010
0000
,  // measure 37
0010
0000
0010
0000
,  // measure 38
0001
0000
0001
0000
,  // measure 39
0010
0000
0100
0000
,  // measure 40
0010
0000
0001
0000
,  // measure 41
1000
0000
0100
0000
,  // measure 42
0001
0000
0010
0000
,  // measure 43
1000
0000
0100
0000
,  // measure 44
0010
0000
0001
0000
,  // measure 45
0001
0000
0010
0000
,  // measure 46
0100
0000
0001
0000
,  // measure 47
0010
0000
0001
0000
,  // measure 48
0001
0000
0100
0000
,  // measure 49
0010
0000
0010
0000
,  // measure 50
0100
0000
0001
0000
,  // measure 51
1000
0000
0100
0000
,  // measure 52
0001
0000
1000
0000
,  // measure 53
0010
0000
0100
0000
,  // measure 54
0001
0000
1000
0000
,  // measure 55
0010
0000
1000
0000
,  // measure 56
0001
0000
1000
0000
,  // measure 57
0010
0000
0100
0000
,  // measure 58
0001
0000
1000
0000
,  // measure 59
0001
0000
1000
0000
,  // measure 60
0001
0000
1000
0000
,  // measure 61
0001
0001
0000
0000
,  // measure 62
0010
0010
0000
0000
,  // measure 63
0100
0000
0010
0000
,  // measure 64
1000
1000
0000
0000
,  // measure 65
0010
0000
0100
0000
,  // measure 66
1000
0000
0100
0000
,  // measure 67
1000
1000
1000
0000
,  // measure 68
0001
0001
0001
0000
,  // measure 69
1000
1000
1000
0000
,  // measure 70
0001
0001
0001
0000
,  // measure 71
1000
1000
0000
0000
,  // measure 72
0001
0001
0000
0000
,  // measure 73
0100
0100
0000
0000
,  // measure 74
0010
0010
0000
0000
;
