#TITLE:Sketches of You;
#SUBTITLE:(OtakuRave Yaoimix);
#ARTIST:MoriHime;
#TITLETRANSLIT:;
#SUBTITLETRANSLIT:;
#ARTISTTRANSLIT:;
#GENRE:;
#CREDIT:;
#BANNER:;
#BACKGROUND:;
#LYRICSPATH:;
#CDTITLE:;
#MUSIC:Sketches of You (OtakuRave Yaoimix).ogg;
#OFFSET:-0.020000;
#SAMPLESTART:66.780045;
#SAMPLELENGTH:12.000000;
#SELECTABLE:YES;
#BPMS:0.000000=160.000214
;
#STOPS:77.500000=0.200000,
269.000000=0.180000
;
#BGCHANGES:;
#KEYSOUNDS:;
#ATTACKS:;

//---------------dance-single - ----------------
#NOTES:
     dance-single:
     :
     Hard:
     15:
     0.769424,0.879106,0.386512,0.025207,0.399116,641.000000,595.000000,46.000000,3.000000,0.000000,0.000000,0.769424,0.879106,0.386512,0.025207,0.399116,641.000000,595.000000,46.000000,3.000000,0.000000,0.000000:
0000
0000
0000
0000
,
0000
0000
0000
0000
,
0000
0000
0000
0000
,
0000
0000
0000
0000
0000
0000
0000
0000
0000
0000
0000
0000
0000
0000
0010
1000
,
0001
0000
0100
0000
0001
0000
1000
0100
0010
0000
0100
0000
1000
0000
0001
0000
,
1000
0000
0010
0000
0100
0000
0100
0010
1000
0000
0100
0000
0010
0000
0100
1000
,
0001
0000
0100
0000
0010
0000
0100
0001
0010
0000
0001
0000
0100
0000
0010
0100
,
0001
0000
1000
0000
0100
0000
0010
0001
1000
0000
0100
0000
0010
0000
0001
1000
,
0100
0000
0010
0000
0001
0000
1000
0001
0200
0000
0000
0000
0000
0000
0010
0000
,
0000
0010
0000
0010
0000
0010
0000
0001
,
0000
0001
0000
0001
0000
0301
0100
0001
,
0100
0010
1000
0010
1000
0001
0100
0001
,
0100
0001
0010
0001
0100
0001
0010
0001
0100
0000
0001
0000
1000
0100
0000
1000
,
0100
0000
1000
0100
0000
1000
0100
0000
1000
0000
0010
0000
0100
0001
0000
0100
,
0001
0000
0100
0001
0000
0100
0001
0000
1000
0000
0010
0000
0100
0010
0000
0100
,
0001
0000
0100
0010
0000
0100
0001
0000
1000
0000
0010
0000
1000
0001
0000
1000
,
0100
0000
1000
0001
0000
1000
0100
0000
1000
0000
0100
0000
0010
0000
0100
0000
,
1000
0001
0100
0010
0100
0001
1000
0100
,
0010
0001
0010
0100
1000
0010
0100
0001
,
1000
0010
0100
0001
1000
0100
0010
0001
,
0100
0010
1000
0100
0000
1100
0000
1000
,
0000
1001
0000
0001
0000
0101
0000
0100
,
0000
0110
0000
0010
0000
1010
0000
1000
,
0000
1100
0000
0100
0000
0110
0000
0010
,
0000
0011
0000
0001
0000
1001
0000
1000
,
0000
1010
0000
0010
0000
0110
0000
0100
,
0000
0101
0000
0001
0000
1001
0000
1000
,
0000
1100
0000
0100
0000
1100
0000
1000
,
0000
1010
0000
0010
1000
0010
1000
0010
,
1000
0010
1000
0001
0100
0001
0100
0001
,
0100
0001
0100
0001
0010
0001
0010
0001
,
0010
0001
0010
0100
1000
0100
1000
0100
,
1000
0100
1000
0010
1000
0010
1000
0001
,
0100
0001
0100
0001
0010
0001
0010
0100
,
1000
0100
1000
0010
1000
0100
1000
0010
,
0100
0001
0010
0001
1000
0100
0010
0001
,
0100
0000
0010
0000
1000
0000
0100
0000
0010
0000
0001
0100
0000
0100
0001
0000
,
0001
1000
0000
1000
0010
0000
0010
0000
1000
0000
0100
1000
0000
1000
0100
0000
,
0100
0010
0000
0010
0001
0000
0001
0000
1000
0000
0010
1000
0000
1000
0010
0000
,
0010
0100
0000
0100
0001
0000
0001
0000
1000
0000
0100
1000
0000
1000
0010
0000
,
0010
0100
0000
0100
0001
0000
0001
0000
1000
0000
0100
0010
0000
0010
0100
0000
,
0100
1000
0000
1000
0001
0000
0001
0000
0100
0000
0010
1000
0000
1000
0010
0000
,
0010
0100
0000
0100
0001
0000
0001
0000
1000
0000
0001
0000
1000
0000
0010
0000
,
0100
0000
0010
0000
0100
0000
0001
0010
0100
1000
0001
0010
0100
1000
0001
0010
,
0100
1000
0001
0010
0100
1000
0010
0000
0100
0000
0101
0000
0100
0000
0001
0000
,
1000
1100
1000
0100
1000
1010
0010
0100
,
0001
0101
0001
0010
0001
1001
1000
0010
,
1000
1010
0010
0100
0001
0101
0001
0010
,
0100
1100
1000
0100
0010
0011
0001
0100
,
0010
1010
1000
0010
0100
0101
0001
1000
,
0100
1100
1000
0001
0100
0101
0001
1000
,
0010
1010
1000
0000
1001
0100
0100
0100
,
0100
0000
0010
0100
0010
0000
0100
0000
0010
0000
1010
0000
1000
0000
0100
0000
,
0010
0011
0001
0100
0010
1010
0010
1000
,
0100
1100
1000
0100
0010
0011
0001
1000
,
0010
1010
0010
1000
0001
1001
1000
0001
,
0100
0101
0100
0001
0010
0011
0001
1000
,
0100
1100
1000
0100
0010
0110
0100
0010
,
0001
1001
0001
1000
0010
1010
0010
1000
,
0100
1100
1000
0000
1001
0100
0100
0100
,
0100
0000
0010
0100
0010
0000
0100
0000
0001
0000
1000
0100
0000
1000
0100
0000
,
1000
0100
0000
1000
0100
0000
1000
0000
0010
0000
0100
0001
0000
0100
0001
0000
,
0100
0001
0000
0100
0001
0000
1000
0000
0010
0000
0100
0010
0000
0100
0001
0000
,
0100
0010
0000
0100
0001
0000
1000
0000
0010
0000
1000
0001
0000
1000
0100
0000
,
1000
0001
0000
1000
0100
0000
1000
0000
0100
0000
0010
0000
0100
0000
1000
0000
,
0001
0100
0010
0100
0001
1000
0100
0010
,
0001
0010
0100
1000
0010
0100
0001
1000
,
0010
0100
0001
0001
0100
0100
0001
0100
,
0100
0000
0001
0000
1000
0000
0001
0000
1000
0100
0000
1000
0100
0000
1000
0100
,
0000
1000
0100
0000
1000
0000
0010
0000
0100
0001
0000
0100
0001
0000
0100
0001
,
0000
0100
0001
0000
1000
0000
0010
0000
0100
0010
0000
0100
0001
0000
0100
0010
,
0000
0100
0001
0000
1000
0000
0010
0000
1000
0001
0000
1000
0100
0000
1000
0001
,
0000
1000
0100
0000
1000
0000
0100
0000
0010
0000
0100
0000
1000
0000
0001
0000
,
0100
0010
0100
0001
1000
0100
0010
0001
,
0010
0100
1000
0010
0100
0001
1000
0010
,
0100
0002
0000
1000
1000
0100
1000
1000
,
0100
1000
2000
0000
0000
0000
0000
0000
,
0000
0000
3003
0000
;

//---------------dance-single - ----------------
#NOTES:
     dance-single:
     :
     Medium:
     12:
     0.528154,0.553511,0.092427,0.042012,0.151244,440.000000,429.000000,11.000000,5.000000,0.000000,0.000000,0.528154,0.553511,0.092427,0.042012,0.151244,440.000000,429.000000,11.000000,5.000000,0.000000,0.000000:
0000
0000
0000
0000
,
0000
0000
0000
0000
,
0000
0000
0000
0000
,
0000
0000
0000
0000
,
0001
0100
0001
1000
0010
0010
1000
0001
,
1000
0010
0100
0010
1000
0100
0010
0100
,
0001
0100
0010
0100
0010
1000
0100
0010
,
0001
1000
0100
0010
0001
1000
0100
0010
,
0001
0010
0001
1000
0200
0000
0000
0010
,
0000
0010
0000
0010
0000
0010
0000
1000
,
0000
1000
0000
1000
0000
1300
0100
1000
,
0100
1000
0010
1000
0010
0100
0001
0100
,
0001
0000
0010
0000
0001
0000
0010
0000
0001
0000
0000
0000
1000
0000
0000
1000
,
0000
0000
1000
0000
0000
1000
0000
0000
1000
0000
0010
0000
0100
0000
0000
0100
,
0000
0000
0100
0000
0000
0100
0000
0000
0001
0000
0010
0000
0100
0000
0000
0100
,
0000
0000
0100
0000
0000
0100
0000
0000
1000
0000
0001
0000
0001
0000
0000
0001
,
0000
0000
0001
0000
0000
0001
0000
0000
0001
0000
0100
0000
0010
0000
0000
0000
,
1000
0001
0100
0000
0001
1000
0001
0000
,
0010
0001
0010
0000
0010
0100
0001
0000
,
1000
0010
0100
0001
0001
0100
0010
0100
,
0010
0100
0010
1000
0000
1100
0000
1000
,
0000
0001
0000
0001
0000
0101
0000
0100
,
0000
0100
0000
0010
0000
1010
0000
1000
,
0000
0100
0000
0100
0000
0110
0000
0010
,
0000
0001
0000
0001
0000
1001
0000
1000
,
0000
0010
0000
0010
0000
0110
0000
0100
,
0000
0001
0000
0001
0000
1001
0000
1000
,
0000
1000
0000
0100
0000
1100
0000
1000
,
0000
0010
0000
0010
1000
0010
1000
0010
,
1000
0010
0000
0100
0001
0100
0001
0100
,
0001
0100
0000
0001
0010
0001
0010
0001
,
0010
0001
0000
1000
0100
1000
0100
1000
,
0100
1000
0000
0010
1000
0010
0000
0100
,
0001
0100
0000
0001
0010
0001
0000
1000
,
0100
1000
0000
0010
1000
0100
0000
1000
,
0010
0100
0000
0001
0010
0001
0000
1000
,
0100
0000
0010
0000
0000
0000
0100
0000
0010
0000
0001
0000
0000
0100
0000
0000
,
0001
0000
0000
1000
0000
0000
0010
0000
1000
0000
0100
0000
0000
1000
0000
0000
,
0100
0000
0000
0010
0000
0000
0001
0000
1000
0000
0010
0000
0000
1000
0000
0000
,
0010
0000
0000
0100
0000
0000
0001
0000
1000
0000
0100
0000
0000
1000
0000
0000
,
0010
0000
0000
0100
0000
0000
0001
0000
1000
0000
0100
0000
0000
0010
0000
0000
,
0100
0000
0000
1000
0000
0000
0001
0000
0100
0000
0010
0000
0000
1000
0000
0000
,
0010
0000
0000
0100
0000
0000
0001
0000
1000
0000
0001
0000
1000
0000
0010
0000
,
0100
0010
0100
2002
0000
0000
0000
0000
,
0000
3003
0000
0010
0100
0001
0000
0001
,
1000
0100
0000
0100
1000
0010
0000
0100
,
0001
0100
0000
0010
0001
1000
0000
0010
,
1000
0010
0000
0100
0001
0100
0000
0010
,
0100
1000
0000
0100
0010
0001
0000
0100
,
0010
1000
0000
0010
0100
0001
0000
1000
,
0100
1000
0000
0001
0100
0001
0000
1000
,
0010
1000
0000
0000
0000
0100
0100
0100
,
0000
1001
0000
0100
0010
1000
0000
0100
,
0010
0001
0000
0100
0010
1000
0000
1000
,
0100
1000
0000
0100
0010
0001
0000
1000
,
0010
1000
0000
1000
0001
1000
0000
0001
,
0100
0001
0000
0001
0010
0001
0000
1000
,
0100
1000
0000
0100
0010
0100
0000
0010
,
0001
1000
0000
0010
1000
0010
0000
1000
,
0100
1000
0000
0000
0000
0010
0010
0010
,
0000
0000
1001
0000
0000
0000
0100
0000
0001
0000
1000
0000
0000
1000
0000
0000
,
1000
0000
0000
1000
0000
0000
1000
0000
0010
0000
0100
0000
0000
0100
0000
0000
,
0100
0000
0000
0100
0000
0000
0010
0000
0100
0000
0001
0000
0000
0001
0000
0000
,
0001
0000
0000
0001
0000
0000
1000
0000
0100
0000
0010
0000
0000
0010
0000
0000
,
0010
0000
0000
0010
0000
0000
0001
0000
0100
0000
0010
0000
0000
0000
1000
0000
,
0001
0100
0000
0001
1000
0100
0000
0010
,
0100
1000
0000
0010
0100
0001
0000
1000
,
0010
0100
0001
1000
0001
1000
0001
1000
,
0001
0000
0000
0000
0100
0000
0001
0000
1000
0000
0000
1000
0000
0000
1000
0000
,
0000
1000
0000
0000
1000
0000
0010
0000
0100
0000
0000
0100
0000
0000
0100
0000
,
0000
0100
0000
0000
0010
0000
0100
0000
0001
0000
0000
0001
0000
0000
0001
0000
,
0000
0001
0000
0000
1000
0000
0100
0000
0010
0000
0000
0010
0000
0000
0010
0000
,
0000
0010
0000
0000
0001
0000
0100
0000
0010
0000
0000
0000
1000
0000
0001
0000
,
0100
0000
0001
1000
0100
0000
0010
0100
,
1000
0000
0010
0100
0001
0000
1000
0010
,
0100
0001
0000
0001
1000
0001
1000
0001
,
1000
0002
2000
0000
0000
0000
0000
0000
,
0000
0000
3003
0000
;

//---------------dance-single - ----------------
#NOTES:
     dance-single:
     :
     Easy:
     8:
     0.370908,0.455833,0.319293,0.126037,0.000000,309.000000,271.000000,38.000000,15.000000,0.000000,0.000000,0.370908,0.455833,0.319293,0.126037,0.000000,309.000000,271.000000,38.000000,15.000000,0.000000,0.000000:
// measure 0
0000
0000
0000
0000
,  // measure 1
0000
0000
0000
0000
,  // measure 2
0000
0000
0000
0000
,  // measure 3
0000
0000
0000
0000
,  // measure 4
0001
1000
0010
1000
,  // measure 5
1000
0100
1000
0010
,  // measure 6
0010
0100
0001
0100
,  // measure 7
0001
1000
0010
1000
,  // measure 8
0100
0000
1000
0000
0200
0000
0000
1000
,  // measure 9
0000
1000
0000
1000
0000
1000
0000
1000
,  // measure 10
0000
1000
0000
1000
0000
1300
0000
0200
,  // measure 11
0000
0010
0000
0010
0000
0310
0000
0020
,  // measure 12
0000
0001
0000
0031
2000
0000
0000
0000
,  // measure 13
0000
3000
0002
0000
,  // measure 14
0000
0003
0200
0000
,  // measure 15
0000
0300
0020
0000
,  // measure 16
0000
0030
1000
0010
,  // measure 17
1000
0100
1000
0001
,  // measure 18
0010
0001
0010
0001
,  // measure 19
1000
0000
0200
0000
0000
0310
0000
0100
,  // measure 20
0000
0100
0000
1000
0000
1100
0000
1000
,  // measure 21
0000
0001
0000
0001
0000
0101
0000
0100
,  // measure 22
0000
0100
0000
0010
0000
1010
0000
1000
,  // measure 23
0000
0100
0000
0100
0000
0110
0000
0010
,  // measure 24
0000
0001
0000
0001
0000
1001
0000
1000
,  // measure 25
0000
0010
0000
0010
0000
0110
0000
0100
,  // measure 26
0000
0001
0000
0001
0000
1001
0000
1000
,  // measure 27
0000
1000
0000
0100
0000
1100
0000
1000
,  // measure 28
0000
0010
0000
0010
0000
0010
0000
0010
,  // measure 29
0000
0010
0000
0100
0000
0100
0000
0100
,  // measure 30
0000
0100
0000
0001
0000
0001
0000
0001
,  // measure 31
0000
0001
0000
1000
0000
1000
0000
1000
,  // measure 32
0000
1000
0000
0010
0000
0010
0000
0100
,  // measure 33
0000
0100
0000
0001
0000
0001
0000
1000
,  // measure 34
0000
1000
0000
0010
0000
0100
0000
1000
,  // measure 35
0000
0100
0000
0001
0000
0001
0000
1000
,  // measure 36
0000
0010
0000
1001
0000
0100
0000
0001
,  // measure 37
0000
0100
0000
1001
0000
0100
0000
1000
,  // measure 38
0000
0100
0000
1001
0000
1000
0000
0100
,  // measure 39
0000
0010
0000
1001
0000
0001
0000
0010
,  // measure 40
0000
0100
0000
1100
0000
1000
0000
0010
,  // measure 41
0000
0100
0000
0101
0000
0001
0000
1000
,  // measure 42
0000
0010
0000
1010
0000
0001
0000
0010
,  // measure 43
0000
0100
0000
0022
0000
0000
0000
0000
,  // measure 44
0000
0033
0000
1001
0000
0001
0000
0001
,  // measure 45
0000
0100
0000
0100
0000
0010
0000
0100
,  // measure 46
0000
0100
0000
0010
0000
1000
0000
0010
,  // measure 47
0000
0010
0000
0100
0000
0100
0000
0010
,  // measure 48
0000
1000
0000
0100
0000
0001
0000
0100
,  // measure 49
0000
1000
0000
0010
0000
0001
0000
0001
,  // measure 50
0000
1000
0000
0001
0000
0001
0000
1000
,  // measure 51
0000
2000
0000
0000
0000
0100
0000
3100
,  // measure 52
0000
1001
0000
0100
0000
1000
0000
0100
,  // measure 53
0000
0001
0000
0100
0000
1000
0000
1000
,  // measure 54
0000
1000
0000
0100
0000
0001
0000
0100
,  // measure 55
0000
1000
0000
1000
0000
1000
0000
0001
,  // measure 56
0000
0001
0000
0001
0000
0001
0000
1000
,  // measure 57
0000
1000
0000
0100
0000
0100
0000
0010
,  // measure 58
0000
0001
0000
0010
0000
0001
0000
1000
,  // measure 59
0000
0002
0000
0000
0000
0100
0000
0100
,  // measure 60
0000
0103
0000
1001
0000
0100
0000
0001
,  // measure 61
0000
0100
0000
1001
0000
0100
0000
1000
,  // measure 62
0000
0100
0000
1001
0000
1000
0000
0100
,  // measure 63
0000
0010
0000
1001
0000
0001
0000
0010
,  // measure 64
0000
0100
0000
1001
0000
0100
0000
0010
,  // measure 65
0000
0100
0000
1001
0000
0010
0000
0100
,  // measure 66
0000
0010
0000
1001
0000
0001
0000
1001
,  // measure 67
0000
2000
0000
0000
0001
0000
0001
0000
,  // measure 68
3001
1001
0100
0001
,  // measure 69
0100
1001
0100
1000
,  // measure 70
0100
1001
1000
0100
,  // measure 71
0010
1001
0001
0010
,  // measure 72
0100
1001
0100
0010
,  // measure 73
0100
1001
0010
0100
,  // measure 74
0010
1001
0001
1001
,  // measure 75
1000
0000
0110
1001
,  // measure 76
0110
2002
0000
0000
,  // measure 77
0000
0000
3003
0000
;

//---------------dance-single - ----------------
#NOTES:
     dance-single:
     :
     Beginner:
     4:
     0.186054,0.260476,0.142842,0.075622,0.000000,155.000000,138.000000,17.000000,9.000000,0.000000,0.000000,0.186054,0.260476,0.142842,0.075622,0.000000,155.000000,138.000000,17.000000,9.000000,0.000000,0.000000:
// measure 0
0000
0000
0000
0000
,  // measure 1
0000
0000
0000
0000
,  // measure 2
0000
0000
0000
0000
,  // measure 3
0000
0000
0000
0000
,  // measure 4
0001
0000
0010
0000
,  // measure 5
1000
0000
1000
0000
,  // measure 6
0010
0000
0001
0000
,  // measure 7
0001
0000
0010
0000
,  // measure 8
0100
0000
0200
0000
,  // measure 9
0000
0000
0000
0000
,  // measure 10
0300
0000
0010
0010
,  // measure 11
0010
0010
0020
0000
,  // measure 12
0000
0030
2000
0000
,  // measure 13
0000
3000
0002
0000
,  // measure 14
0000
0003
0200
0000
,  // measure 15
0000
0300
0020
0000
,  // measure 16
0000
0030
1000
0000
,  // measure 17
1000
0000
1000
0000
,  // measure 18
0010
0000
0010
0000
,  // measure 19
1000
0000
0000
0000
,  // measure 20
0000
0000
0000
1000
0000
1000
0000
0000
,  // measure 21
0000
0000
0000
0001
0000
0001
0000
0000
,  // measure 22
0000
0000
0000
0010
0000
0010
0000
0000
,  // measure 23
0000
0000
0000
0100
0000
0100
0000
0000
,  // measure 24
0000
0000
0000
1000
0000
1000
0000
0000
,  // measure 25
0000
0000
0000
0010
0000
0010
0000
0000
,  // measure 26
0000
0000
0000
0001
0000
0001
0000
0000
,  // measure 27
0000
0000
0000
0100
0000
0100
0000
0000
,  // measure 28
0000
0000
0000
0010
0000
0010
0000
0000
,  // measure 29
0000
0000
0000
1000
0000
1000
0000
0000
,  // measure 30
0000
0000
0000
0001
0000
0001
0000
0000
,  // measure 31
0000
0000
0000
1000
0000
1000
0000
0000
,  // measure 32
0000
0000
0000
0010
0000
0010
0000
0000
,  // measure 33
0000
0000
0000
0001
0000
0001
0000
0000
,  // measure 34
0000
0000
0000
1000
0000
1000
0000
0000
,  // measure 35
0000
0000
0000
0001
0000
0001
0000
0000
,  // measure 36
0000
0000
0000
1001
0000
0000
0000
0001
,  // measure 37
0000
0000
0000
1001
0000
0000
0000
1000
,  // measure 38
0000
0000
0000
1001
0000
0000
0000
0100
,  // measure 39
0000
0000
0000
1001
0000
0000
0000
0010
,  // measure 40
0000
0000
0000
1001
0000
0000
0000
0010
,  // measure 41
0000
0000
0000
1001
0000
0000
0000
1000
,  // measure 42
0000
0000
0000
1001
0000
0000
0000
0010
,  // measure 43
0000
0000
0000
2002
0000
0000
0000
0000
,  // measure 44
0000
3003
0000
1001
0000
0000
0000
0001
,  // measure 45
0000
0000
0000
0100
0000
0000
0000
0100
,  // measure 46
0000
0000
0000
0010
0000
0000
0000
0010
,  // measure 47
0000
0000
0000
0100
0000
0000
0000
0010
,  // measure 48
0000
0000
0000
0100
0000
0000
0000
0100
,  // measure 49
0000
0000
0000
0010
0000
0000
0000
0001
,  // measure 50
0000
0000
0000
0001
0000
0000
0000
1000
,  // measure 51
0000
0000
0000
0000
0000
0100
0000
0100
,  // measure 52
0000
0100
0000
0100
0000
0000
0000
0100
,  // measure 53
0000
0000
0000
0100
0000
0000
0000
1000
,  // measure 54
0000
0000
0000
0100
0000
0000
0000
0100
,  // measure 55
0000
0000
0000
1000
0000
0000
0000
0001
,  // measure 56
0000
0000
0000
0001
0000
0000
0000
1000
,  // measure 57
0000
0000
0000
0100
0000
0000
0000
0010
,  // measure 58
0000
0000
0000
0010
0000
0000
0000
1000
,  // measure 59
0000
0000
0000
0000
0000
0001
0000
0001
,  // measure 60
0000
0001
0000
0001
0000
0000
0000
0001
,  // measure 61
0000
0000
0000
1000
0000
0000
0000
1000
,  // measure 62
0000
0000
0000
0001
0000
0000
0000
0100
,  // measure 63
0000
0000
0000
0001
0000
0000
0000
0010
,  // measure 64
0000
0000
0000
1000
0000
0000
0000
0010
,  // measure 65
0000
0000
0000
1000
0000
0000
0000
0100
,  // measure 66
0000
0000
0000
0001
0000
0000
0000
0001
,  // measure 67
0000
0000
0000
0000
,  // measure 68
0000
1001
0000
0001
,  // measure 69
0000
1001
0000
1000
,  // measure 70
0000
1001
0000
0100
,  // measure 71
0000
1001
0000
0010
,  // measure 72
0000
1001
0000
0010
,  // measure 73
0000
1001
0000
0100
,  // measure 74
0000
1001
0000
1001
,  // measure 75
0000
0000
0100
0100
,  // measure 76
0100
0200
0000
0000
,  // measure 77
0000
0000
0300
0000
;
