#TITLE:Silent Hill;
#SUBTITLE:(3rd Christmas Mix);
#ARTIST:THOMAS HOWARD;
#TITLETRANSLIT:;
#SUBTITLETRANSLIT:;
#ARTISTTRANSLIT:;
#GENRE:Pop;
#CREDIT:;
#BANNER:Silent Hill (3rd christmas mix).png;
#BACKGROUND:Silent Hill (3rd christmas mix)-bg.png;
#LYRICSPATH:;
#CDTITLE:;
#MUSIC:Silent Hill (3rd christmas mix).ogg;
#OFFSET:-0.006539;
#SAMPLESTART:32.100010;
#SAMPLELENGTH:15.000000;
#SELECTABLE:YES;
#DISPLAYBPM:125.000000;
#BPMS:0.000000=124.999992
;
#STOPS:
;
#BGCHANGES:;
#KEYSOUNDS:;
#ATTACKS:;

//---------------dance-single - ----------------
#NOTES:
     dance-single:
     :
     Hard:
     10:
     0.356284,0.450721,0.170272,0.510817,0.000000,249.000000,232.000000,17.000000,51.000000,0.000000,0.000000,0.356284,0.450721,0.170272,0.510817,0.000000,249.000000,232.000000,17.000000,51.000000,0.000000,0.000000:
// measure 0
0000
0000
0000
0000
,  // measure 1
0000
0000
0000
0000
,  // measure 2
0000
0000
0000
0000
,  // measure 3
0000
0000
0000
0000
,  // measure 4
0020
0000
0000
0030
,  // measure 5
1000
0001
0100
0001
1000
0100
1000
0010
,  // measure 6
0100
0100
0001
0001
1000
1000
0010
0010
,  // measure 7
1000
0001
0010
0100
1000
0100
0010
0001
,  // measure 8
0010
1000
0010
0001
1000
0010
1001
0000
,  // measure 9
0020
2030
3002
0203
,  // measure 10
0320
0230
0302
2003
,  // measure 11
3020
0032
0203
0302
,  // measure 12
0023
2030
3200
2300
,  // measure 13
3020
2030
3020
0230
,  // measure 14
0302
2003
3002
0023
,  // measure 15
0230
2300
3200
0302
,  // measure 16
0203
2300
3002
2003
,  // measure 17
0002
0000
0000
0003
,  // measure 18
0020
0000
0000
3030
,  // measure 19
0102
0100
0100
0103
,  // measure 20
2010
0010
0010
3010
,  // measure 21
0010
1000
0100
0000
0010
1000
0010
0000
,  // measure 22
0010
0001
0100
0000
0010
0001
0010
0000
,  // measure 23
1001
0000
0110
0000
1000
0001
0100
0010
,  // measure 24
0100
1010
0101
0110
,  // measure 25
2001
0001
0001
0001
0001
0000
3001
0000
,  // measure 26
0120
0100
0100
0100
0100
0000
0130
0000
,  // measure 27
1002
1000
1003
0000
0210
0010
0310
0000
,  // measure 28
0001
0100
1000
0100
0001
0010
1000
0010
,  // measure 29
0002
1000
1000
0003
,  // measure 30
0200
0001
0001
0300
,  // measure 31
0020
0100
0100
0030
,  // measure 32
2000
0010
0010
3010
,  // measure 33
0010
1000
0100
0001
0100
1000
0010
0000
,  // measure 34
0010
0001
0100
1000
0100
0001
0010
0000
,  // measure 35
1000
0100
0001
0100
0001
0100
1000
0100
,  // measure 36
1000
0001
0100
0010
,  // measure 37
0100
0001
0010
0000
0100
1000
0100
0000
,  // measure 38
0010
1000
0100
0010
0001
1000
0010
0000
,  // measure 39
0001
1000
0100
0000
0010
0100
0001
0000
,  // measure 40
0001
0010
0100
1000
0001
0010
0100
1000
,  // measure 41
0002
0100
0100
0103
,  // measure 42
2000
0100
0100
3100
,  // measure 43
0010
1000
0100
0010
0001
0100
0010
0100
,  // measure 44
2002
0000
0000
3003
,  // measure 45
0101
0000
1010
0000
0100
0001
0010
0000
,  // measure 46
1100
0000
0011
0000
0100
1000
0001
0000
,  // measure 47
0010
1000
0100
0010
0001
0010
1000
0010
,  // measure 48
0001
1000
0100
0001
0100
1000
0001
0200
,  // measure 49
0000
0020
0000
0030
,  // measure 50
0300
0000
0000
0000
;

//---------------dance-double - ----------------
#NOTES:
     dance-double:
     :
     Hard:
     11:
     0.351992,0.425681,0.120192,0.490785,0.000000,246.000000,234.000000,12.000000,49.000000,0.000000,0.000000,0.351992,0.425681,0.120192,0.490785,0.000000,246.000000,234.000000,12.000000,49.000000,0.000000,0.000000:
00000000
00000000
00000000
00000000
,
00000000
00000000
00000000
00000000
,
00000000
00000000
00000000
00000000
,
00000000
00000000
00000000
00000000
,
00000220
00000000
00000000
00000330
,
00000010
00000001
00000100
00001000
00010000
01000000
10000000
00100000
,
10000000
01000000
00010000
00001000
00000100
00000001
00000010
00001000
,
00010000
00100000
10000000
00100000
00010000
00001000
00000010
00000001
,
00000100
00001000
00010000
01000000
10000000
00010000
00100000
00000000
,
00200000
20300000
32000000
03020000
,
00032000
00003200
00000302
00000023
,
00002030
00003020
00000032
00000203
,
00002300
00023000
02030000
23000000
,
30200000
20300000
32000000
03020000
,
00032000
00003200
00002300
00023000
,
02030000
03020000
00032000
00003020
,
00002030
00023000
00230000
00320000
,
00030020
00000000
00000000
00000030
,
00000200
00000000
00000000
00000300
,
00002000
00010000
00010000
00013000
,
00020000
01000000
01000000
01030000
,
00100000
10000000
00010000
00000000
00100000
00010000
00011000
00000000
,
00000100
00000010
00000001
00000000
00001000
00000100
00000011
00000000
,
00000001
00000100
00001000
00000000
00010000
01000000
00110000
00000000
,
00100000
10000000
01000000
00010000
00001000
00000100
00000001
00000010
,
00000002
00001000
00001000
00001003
,
00002000
00010000
00010000
00013000
,
00020000
10000000
10000000
10030000
,
00101000
00010010
01001000
00010100
,
00000002
00000000
00001000
00000000
00000100
00000100
00000103
00000000
,
00002000
00000000
00000100
00000000
00010000
00010000
00013000
00000000
,
00200000
00000000
10000000
00000000
01000000
01000000
01300000
00000000
,
00010000
10000000
01000000
00100000
01000000
00010000
00001000
00000100
,
00000001
00001000
00000100
00000010
00001000
00010000
00100000
00000000
,
10000000
00010000
01000000
00100000
00010000
00001000
00000010
00000000
,
00000001
00001000
00000010
00000100
00001000
00010000
01000000
00000000
,
10000000
00010000
01000000
00100000
01000000
00010000
10000000
00000000
,
00100000
10000000
01000000
00000000
00100000
00010000
01000000
00000000
,
00000010
00001000
00000100
00000000
00000010
00000001
00000100
00000000
,
00000010
00000001
00000100
00001000
00010000
01000000
10000000
00100000
,
02000000
00010000
00010000
03010000
,
20000000
00000000
00000000
30010000
,
00020000
00000000
00000000
00130000
,
01010000
00101000
00010100
00001010
,
00000010
00001000
00000100
00010000
00001000
00100000
00010000
01000000
,
00100000
00000000
01000000
00000000
00100000
10000000
01000000
00010000
,
00001000
00000100
00000001
00000010
,
00000010
00000100
00001000
00000001
00000100
00001000
00010000
01000000
,
10000000
01000000
00100000
01000000
10000000
01000000
00010000
00002000
,
00000000
00000020
00000000
00000030
,
00003000
00000000
00000000
00000000
,
00000000
00000000
00000000
00000000
;

//---------------dance-single - ----------------
#NOTES:
     dance-single:
     :
     Challenge:
     10:
     0.400641,0.429938,0.190304,0.270433,0.015024,280.000000,261.000000,19.000000,27.000000,0.000000,0.000000,0.400641,0.429938,0.190304,0.270433,0.015024,280.000000,261.000000,19.000000,27.000000,0.000000,0.000000:
// measure 0
0000
0000
0000
0000
,  // measure 1
0000
0000
0000
0000
,  // measure 2
0000
0000
0000
0000
,  // measure 3
0000
0000
0000
0000
0000
0000
0000
0020
,  // measure 4
0000
0000
0000
0030
,  // measure 5
0100
1000
0000
0001
0000
1000
0010
0100
,  // measure 6
0010
0001
0000
0010
0000
1000
0010
0100
,  // measure 7
0010
0001
0000
0010
0000
0100
0001
1000
,  // measure 8
0001
0010
0000
0100
0000
1000
0001
0010
,  // measure 9
0001
0000
0001
0100
1000
0000
1000
0100
,  // measure 10
0001
0000
1000
0000
0000
0100
0000
0000
0010
0000
0001
0000
0010
0000
0100
0000
,  // measure 11
1000
0000
1000
0001
0010
0000
0100
1000
,  // measure 12
0001
0000
1000
0000
0000
0010
0000
0000
0100
0000
0001
0000
1000
0000
0001
0000
,  // measure 13
0010
0000
0100
1000
0010
0000
0100
0100
,  // measure 14
0000
0000
0001
0000
0000
0010
0000
0000
0001
0000
1000
0000
0100
0000
0010
0000
,  // measure 15
0000
0001
1000
0010
0000
0100
0000
0001
,  // measure 16
0100
0010
0100
0001
1000
0010
0100
0000
,  // measure 17
0020
0000
0000
2000
0000
3000
0200
0300
,  // measure 18
0200
0030
0000
0302
0000
0000
0023
0000
,  // measure 19
0130
1000
0001
1000
0010
1000
0001
0000
,  // measure 20
1000
0100
0010
0001
0100
0001
1000
0000
,  // measure 21
0021
0130
1020
0130
,  // measure 22
1001
0000
0010
1000
0001
1000
0100
0000
,  // measure 23
0010
0010
0100
0000
1000
0001
0010
0000
,  // measure 24
1002
0000
0000
0013
0000
0001
0010
0100
,  // measure 25
1000
0100
0010
0001
2000
0000
0010
0000
,  // measure 26
0001
0000
3100
1000
0000
0001
0100
0010
,  // measure 27
1000
0010
0100
0001
2000
0000
3100
0000
,  // measure 28
0001
0010
0100
1000
0001
0000
1020
0000
,  // measure 29
0130
0001
0010
0001
0100
0010
1000
0100
,  // measure 30
0001
0100
1000
0010
0001
0010
1000
0001
,  // measure 31
0100
0001
0010
0001
1000
0100
0010
0000
,  // measure 32
0001
0010
0100
1000
0001
0000
0010
0000
,  // measure 33
1001
0000
0001
0010
0001
1000
0001
0000
,  // measure 34
1001
0000
1000
0010
1000
0001
1000
0000
,  // measure 35
0120
0031
0210
1300
,  // measure 36
0012
0100
1000
0013
,  // measure 37
0011
0010
0100
1000
0001
1000
0001
0000
,  // measure 38
1010
0010
0100
0001
1000
0001
1000
0000
,  // measure 39
0001
0010
1000
0000
0001
0100
1000
0000
,  // measure 40
0120
0000
1030
1000
0000
0001
0010
0001
,  // measure 41
1000
0000
0001
0010
1000
0000
1000
0010
,  // measure 42
0002
0000
0103
0000
1000
0100
0010
0001
,  // measure 43
1000
0000
1000
0001
0001
0000
0110
0000
,  // measure 44
0012
0100
0010
1000
,  // measure 45
0203
0320
2030
3200
,  // measure 46
0310
0001
0010
1000
0010
0000
0100
0000
,  // measure 47
1002
0013
2001
3010
,  // measure 48
1001
1000
0100
0010
0001
1000
0001
0000
,  // measure 49
0000
0120
0100
0100
,  // measure 50
0200
0000
0330
0000
;

//---------------dance-single - ----------------
#NOTES:
     dance-single:
     :
     Medium:
     7:
     0.253262,0.325521,0.070112,0.160256,0.000000,177.000000,170.000000,7.000000,16.000000,0.000000,0.000000,0.253262,0.325521,0.070112,0.160256,0.000000,177.000000,170.000000,7.000000,16.000000,0.000000,0.000000:
// measure 0
0000
0000
0000
0000
,  // measure 1
0000
0000
0000
0000
,  // measure 2
0000
0000
0000
0000
,  // measure 3
0000
0000
0000
0000
,  // measure 4
0020
0000
0000
0030
,  // measure 5
1000
0100
0001
0010
,  // measure 6
0001
0100
1000
0010
,  // measure 7
1000
0100
0001
0010
,  // measure 8
0200
0000
0000
0300
,  // measure 9
1001
0000
1000
0001
1000
0000
0010
0000
,  // measure 10
0200
0000
0300
0001
,  // measure 11
0020
0000
0200
0000
,  // measure 12
0330
0000
0000
0000
0000
0000
1000
0001
,  // measure 13
0100
0100
0010
2000
,  // measure 14
0002
0000
3003
1000
,  // measure 15
0200
0000
0320
0000
,  // measure 16
0002
0000
0033
1000
,  // measure 17
1000
0000
0000
1000
0000
0000
0001
0000
,  // measure 18
0001
0000
0000
0001
0000
0000
0001
0000
,  // measure 19
0110
0110
0110
0110
,  // measure 20
1000
0010
0100
0001
,  // measure 21
0010
0000
0010
0001
0100
0000
0100
0001
,  // measure 22
1000
0000
1000
0100
0010
0000
0001
0000
,  // measure 23
0001
0000
0001
0100
0010
0000
0010
1000
,  // measure 24
0100
0000
0100
1000
0001
0000
0001
0010
,  // measure 25
0100
0010
0100
0010
,  // measure 26
0001
0100
0001
0100
,  // measure 27
0010
1000
0010
1000
,  // measure 28
0100
1000
0001
0000
0020
0000
0000
0000
,  // measure 29
0100
0100
0100
0100
,  // measure 30
0001
0001
0001
0032
,  // measure 31
0100
0100
0100
0100
,  // measure 32
1000
1000
1000
1003
,  // measure 33
0010
0000
0000
0010
0000
0000
0100
0000
,  // measure 34
0001
0000
0000
0010
0000
0000
1000
0000
,  // measure 35
1100
0000
0000
1001
0000
0000
0000
0000
,  // measure 36
0010
0001
0100
0010
,  // measure 37
1000
0001
1000
0000
0001
1000
0001
0000
,  // measure 38
0100
0000
0010
1000
0100
0000
1000
0000
,  // measure 39
0001
0010
0010
0100
,  // measure 40
0010
0000
0000
0001
0000
1000
0100
0000
,  // measure 41
0010
0000
0000
0010
0000
0000
0100
0000
,  // measure 42
1000
0000
0000
0001
0000
1000
0001
1000
,  // measure 43
0001
0000
0000
0100
0100
0000
0000
0000
,  // measure 44
0000
0020
2030
3200
,  // measure 45
0310
0010
0001
0001
,  // measure 46
0100
0100
1000
1000
,  // measure 47
0010
0010
0100
0100
,  // measure 48
0001
0010
0100
1000
0002
0000
0000
0000
,  // measure 49
0000
1000
1000
1000
,  // measure 50
1003
0000
0000
0000
;

//---------------dance-single - ----------------
#NOTES:
     dance-single:
     :
     Easy:
     6:
     0.220353,0.300481,0.060096,0.240385,0.000000,154.000000,148.000000,6.000000,24.000000,0.000000,0.000000,0.220353,0.300481,0.060096,0.240385,0.000000,154.000000,148.000000,6.000000,24.000000,0.000000,0.000000:
// measure 0
0000
0000
0000
0000
,  // measure 1
0000
0000
0000
0000
,  // measure 2
0000
0000
0000
0000
,  // measure 3
0000
0000
0000
0000
,  // measure 4
2000
0000
3000
0000
,  // measure 5
0001
0001
1000
1000
,  // measure 6
0010
0100
0001
0000
,  // measure 7
1000
1000
0001
0001
,  // measure 8
0010
0100
1000
0000
,  // measure 9
0001
0100
0010
0010
,  // measure 10
1000
0000
0100
0010
,  // measure 11
0002
0003
2000
3000
,  // measure 12
0010
0100
0010
1000
,  // measure 13
1000
0100
0010
0001
,  // measure 14
0002
0003
0100
0001
,  // measure 15
2000
3000
0020
0030
,  // measure 16
0002
0003
0200
0010
,  // measure 17
0020
0000
0000
0300
,  // measure 18
0200
0000
0000
0330
,  // measure 19
1001
0100
0001
0100
,  // measure 20
1000
0100
0001
0100
,  // measure 21
1000
0100
0010
0001
,  // measure 22
1000
0100
0010
0001
,  // measure 23
0001
0100
0010
1000
,  // measure 24
0001
0100
0010
1000
,  // measure 25
1001
0100
0010
0100
,  // measure 26
1001
0100
0010
0100
,  // measure 27
1010
0100
1000
0001
,  // measure 28
0011
0100
0001
1000
,  // measure 29
0001
0001
1000
1000
,  // measure 30
0010
0010
0100
0100
,  // measure 31
0001
0001
1000
1000
,  // measure 32
0010
0100
0020
0030
,  // measure 33
1000
0100
0020
0030
,  // measure 34
0001
0100
0020
0030
,  // measure 35
1000
1000
0001
0001
,  // measure 36
1000
0100
0010
0001
,  // measure 37
0200
0300
0020
1030
,  // measure 38
0200
0300
0010
0001
,  // measure 39
0200
0300
0002
1003
,  // measure 40
0200
0300
0010
0002
,  // measure 41
1003
0000
0100
0100
,  // measure 42
0020
0000
0000
0000
,  // measure 43
0200
0000
0000
0000
,  // measure 44
0330
0000
0000
0000
,  // measure 45
1001
0001
1000
1000
,  // measure 46
0001
1000
0001
0001
,  // measure 47
0100
0010
1000
0100
,  // measure 48
0010
0010
0200
0020
,  // measure 49
0030
0010
0010
0010
,  // measure 50
0310
0000
0000
0000
;

//---------------dance-single - ----------------
#NOTES:
     dance-single:
     :
     Beginner:
     2:
     0.097299,0.150992,0.030048,0.100160,0.000000,68.000000,65.000000,3.000000,10.000000,0.000000,0.000000,0.097299,0.150992,0.030048,0.100160,0.000000,68.000000,65.000000,3.000000,10.000000,0.000000,0.000000:
// measure 0
0000
0000
0000
0000
,  // measure 1
0000
0000
0000
0000
,  // measure 2
0000
0000
0000
0000
,  // measure 3
0000
0000
0000
0000
,  // measure 4
0002
0000
0003
0000
,  // measure 5
1000
0000
0000
0000
,  // measure 6
1000
0000
0000
0000
,  // measure 7
0001
0000
0000
0000
,  // measure 8
0001
0000
0000
0000
,  // measure 9
0010
0000
0010
0000
,  // measure 10
0100
0000
0000
0000
,  // measure 11
0001
0000
0001
0000
,  // measure 12
1000
0000
0000
0000
,  // measure 13
0010
0000
0010
0000
,  // measure 14
0100
0000
0000
0000
,  // measure 15
1000
0000
1000
0000
,  // measure 16
0001
0000
0000
0000
,  // measure 17
0200
0000
0000
0000
,  // measure 18
0300
0000
0000
0000
,  // measure 19
0010
0000
0010
0000
,  // measure 20
1000
0000
1000
0000
,  // measure 21
0100
0000
0100
0000
,  // measure 22
0001
0000
0001
0000
,  // measure 23
0010
0000
0010
0000
,  // measure 24
0200
0000
0000
0000
,  // measure 25
0300
0000
0000
0000
,  // measure 26
0110
0000
0000
0000
,  // measure 27
1001
0000
0000
0000
,  // measure 28
0110
0000
0000
0000
,  // measure 29
1000
0000
1000
0000
,  // measure 30
2000
0000
3000
0000
,  // measure 31
0001
0000
0001
0000
,  // measure 32
0002
0000
0003
0000
,  // measure 33
0010
0000
0010
0000
,  // measure 34
0010
0000
0010
0000
,  // measure 35
0010
0000
0010
0000
,  // measure 36
0020
0000
0030
0000
,  // measure 37
0100
0000
1000
0000
,  // measure 38
0010
0000
0001
0000
,  // measure 39
0100
0000
0001
0000
,  // measure 40
0010
0000
1000
0000
,  // measure 41
0002
0000
0003
0000
,  // measure 42
2000
0000
3000
0000
,  // measure 43
0200
0000
0000
0000
,  // measure 44
0300
0000
0000
0000
,  // measure 45
0010
0000
0010
0000
,  // measure 46
0100
0000
0100
0000
,  // measure 47
1000
0000
0010
0000
,  // measure 48
0001
0000
0100
0000
,  // measure 49
0000
0020
0000
0000
,  // measure 50
0000
0030
0000
0000
;
