#TITLE:Salamander Beat Crush Mix (Another);
#SUBTITLE:;
#ARTIST:nite system;
#TITLETRANSLIT:;
#SUBTITLETRANSLIT:;
#ARTISTTRANSLIT:;
#GENRE:;
#CREDIT:;
#BANNER:Salamander (Beat Crush mix)-bn.png;
#BACKGROUND:Salamander (Beat Crush mix)-bg.png;
#LYRICSPATH:;
#CDTITLE:;
#MUSIC:Salamander Beat Crush Mix Rave Remix.ogg;
#OFFSET:-0.722000;
#SAMPLESTART:0.702000;
#SAMPLELENGTH:14.328000;
#SELECTABLE:YES;
#BPMS:0.000000=134.000000
,173.000000=130.000000
,173.250000=120.000000
,173.500000=110.000000
,173.750000=100.000000
,174.000000=90.000000
,174.500000=80.000000
,175.000000=70.000000
,175.500000=60.000000
,176.000000=50.000000
,176.500000=40.000000
,177.000000=30.000000
,177.500000=20.000000
,178.333328=134.000000
;
#STOPS:
;
#BGCHANGES:;
#KEYSOUNDS:;
#ATTACKS:;

//---------------dance-single - Nifara----------------
#NOTES:
     dance-single:
     Nifara:
     Challenge:
     13:
     0.519511,0.752612,0.407949,0.163180,0.507023,312.000000,277.000000,35.000000,14.000000,0.000000,0.000000,0.519511,0.752612,0.407949,0.163180,0.507023,312.000000,277.000000,35.000000,14.000000,0.000000,0.000000:
0000
0000
0000
0000
,
0000
0000
0000
0000
,
0002
0000
0000
0000
,
2000
0000
3000
0020
0000
0030
1003
0000
,
1000
0000
2002
0000
0000
3003
1000
0000
,
0000
0000
0000
0000
1000
0000
0000
1000
0000
1000
0100
0000
1000
0000
0100
0000
,
1100
1001
0000
0000
,
0000
0000
1000
0000
0000
0001
1000
0000
,
0001
2002
0000
0000
,
3003
0000
0000
0000
1000
0000
0000
1000
0000
1000
0100
0000
1000
0000
0100
0000
,
1100
0011
0110
1001
,
0110
0000
0100
0010
0000
0010
0100
0010
0100
0000
0100
0000
0100
0000
0010
0000
,
0100
0000
0000
0100
0000
0000
0000
0000
,
0001
0000
0000
1000
0000
0000
1001
0000
,
1001
0000
0000
1100
0000
0000
0011
0000
,
1000
0100
0000
0000
0000
0000
1100
0000
0000
0000
0000
0000
1100
0000
0110
0000
,
0011
0000
0000
2002
3003
0000
0110
0000
,
0000
0000
0110
0000
1001
0000
1000
0000
0001
0000
0000
0000
0100
0010
0100
0010
,
0100
0000
0000
1000
0001
1000
0001
1000
,
0002
2003
3002
2003
,
3001
0000
0000
0110
0000
0000
0000
0000
,
1001
0000
0000
0110
0000
0000
0110
1001
,
0110
0000
0000
0110
0000
0000
0000
0000
,
0010
0000
0100
0000
0010
0100
0000
0100
0010
0100
0000
0100
0010
0000
0010
0000
,
0010
0000
0000
0000
0001
0000
0000
0000
1000
0000
0000
0001
0000
0000
0001
0000
,
1000
0000
0001
0000
1000
0000
0001
1000
0000
1000
0000
1000
0100
0000
1000
0000
,
0100
0000
0000
0000
1000
0000
0000
0000
0100
0000
0000
1000
0000
0000
0100
0000
,
0100
1000
0100
1000
0100
0000
0100
1000
0100
1000
0100
1000
0100
0000
1100
0000
,
1001
0000
0000
1000
0001
0000
1000
0000
0001
0000
1000
0000
0001
0000
1000
0001
,
0000
0001
1000
0000
1000
0001
0000
0001
1000
0000
1000
0001
1000
0000
1000
0001
,
1000
0000
0000
0000
0000
0000
1000
0000
0000
0000
0000
0000
0000
0000
1000
0001
,
1001
0000
0000
0000
0000
0000
1001
0000
0000
0000
0000
0000
0000
0000
0100
0001
,
0100
0000
0100
0001
0000
0001
0100
0000
0100
0001
0000
0001
0100
0001
0100
0001
,
0100
0000
0100
0001
0000
0001
0100
0001
1000
0000
1000
0001
0000
0001
1000
0000
,
1000
0000
1000
0001
0000
0001
1000
0000
1000
0001
0000
0001
1000
0001
1000
0001
,
1000
0000
1000
0001
0000
0001
1000
0001
1000
0000
1000
0001
0000
0001
1000
0000
,
1100
0000
1000
0100
0000
0100
1000
0000
1000
0100
0000
0100
1000
0000
1000
0000
,
1000
0000
1000
0100
0000
0100
1000
0100
1000
0000
1000
0001
0000
0001
1000
0000
,
1000
0000
1000
0010
0000
0010
1000
0000
1000
0001
0000
0001
1000
0000
1000
0000
,
1000
0000
1000
0001
0000
0001
1000
0010
1000
0000
1000
0010
0000
0010
1000
0000
,
1000
0100
0010
0000
1010
0000
0000
0000
1000
0100
0010
0000
1010
0000
0000
0000
,
1000
0100
0010
0000
1000
0100
0010
0000
1000
0100
0010
0000
1000
0100
0010
0000
,
1000
0100
0010
0001
1000
0100
0010
0001
1000
0100
0010
0001
1000
0100
0010
0001
,
2000
0000
0000
0000
,
0000
0000
0000
0000
0000
0000
0000
0000
0000
0000
0000
0000
0000
0000
0000
0000
0000
3000
0000
0000
0000
0000
0000
0000
0000
0000
0000
0000
0000
0000
0000
0000
;

//---------------dance-single - ----------------
#NOTES:
     dance-single:
     :
     Easy:
     6:
     0.289727,0.337141,0.291392,0.011656,0.075762,174.000000,149.000000,25.000000,1.000000,0.000000,0.000000,0.289727,0.337141,0.291392,0.011656,0.075762,174.000000,149.000000,25.000000,1.000000,0.000000,0.000000:
0000
0000
0000
0000
,
0000
0000
0000
0000
,
0000
0000
0000
0000
,
0000
0000
0000
0000
,
0010
1001
0100
0100
,
0010
0010
0000
0010
,
0100
1001
0010
0010
,
0100
0100
0000
0100
,
0010
1001
0100
0100
,
0100
1001
0010
0010
,
0010
1001
0100
0100
,
0010
0011
0100
1100
,
1001
0010
0100
0100
,
1000
0100
0010
0001
,
0001
0010
0100
1000
,
1000
0100
0010
0001
,
0100
0000
0000
0010
0000
0000
0000
0000
,
0010
0000
0000
0100
0000
0000
0000
0000
,
0100
0000
0000
1001
0000
0000
0000
0000
,
1001
0000
0000
0110
0000
0000
1001
0000
,
0100
0000
0000
0100
0000
0000
0100
0000
0000
0000
0000
0000
0000
0000
1000
0000
,
0001
0000
0000
0001
0000
0000
0001
0000
0000
0000
0000
0000
0100
0000
0000
0000
,
1000
0000
0000
1000
0000
0000
1000
0000
0000
0000
0000
0000
0000
0000
0010
0000
,
0001
0000
0000
1000
0000
0000
0001
0000
0000
0000
0000
0000
0001
0000
0000
0000
,
0100
0000
0000
0010
0000
0000
0100
0000
0000
0000
0000
0000
0000
0000
1000
0000
,
0001
0000
0000
1000
0000
0000
0001
0000
0000
0000
0000
0000
0100
0000
0000
0000
,
1000
0000
0000
0001
0000
0000
1000
0000
0000
0000
0000
0000
0000
0000
0010
0000
,
0001
0000
0000
1000
0000
0000
0001
0000
0000
0000
0000
0000
0100
0000
0000
0000
,
1001
0000
0000
0100
0000
0000
0100
0000
0000
0000
0000
0000
0000
0000
0010
0000
,
1000
0000
0000
0001
0000
0000
1000
0000
0000
0000
0000
0000
0100
0000
0000
0000
,
0010
0000
0000
0010
0000
0000
0010
0000
0000
0000
0000
0000
0000
0000
0010
0000
,
0100
0000
0000
0100
0000
0000
0100
0000
0000
0000
0000
0000
1001
0000
0000
0000
,
0110
0001
0010
0100
,
1000
0000
0010
0100
0000
0000
1001
0000
,
0110
0001
1000
0001
,
0011
1000
1100
0010
,
0010
1001
0100
0100
,
0010
1001
0010
0010
,
0100
1001
0010
0010
,
0100
0000
0000
0100
0000
0000
0100
0000
0000
0000
0000
0000
1000
0000
0001
0000
,
0010
1001
0100
0010
,
0100
1001
0010
0100
,
0010
1001
0010
0100
,
0020
0000
0000
0000
,
0000
0000
0030
0000
;

//---------------dance-single - ----------------
#NOTES:
     dance-single:
     :
     Medium:
     8:
     0.326359,0.414943,0.396293,0.011656,0.075762,196.000000,162.000000,34.000000,1.000000,0.000000,0.000000,0.326359,0.414943,0.396293,0.011656,0.075762,196.000000,162.000000,34.000000,1.000000,0.000000,0.000000:
0000
0000
0000
0000
,
0000
0000
0000
0000
,
0000
0000
0000
0000
,
0000
0000
0000
0000
,
0010
1001
0100
0100
,
0010
0000
0100
0000
0001
1000
0000
0010
,
0100
1001
0100
0100
,
0010
0000
0100
0000
0001
1000
0000
0010
,
0100
1001
0100
0100
,
0100
0000
1001
0000
0010
0100
0000
0001
,
0100
1001
0100
0100
,
0011
1100
0101
1010
,
1001
0010
0100
0100
,
1000
0000
0100
0000
0010
0000
0001
1000
,
0001
0000
0010
0000
0100
0000
1000
0001
,
1000
0000
0100
0000
0010
0000
0001
1000
,
0100
0000
0000
0010
0000
0000
0001
1000
,
0100
0000
0000
0100
0000
0000
0001
1000
,
0100
0000
0000
1001
0000
0000
0001
1000
,
0100
0000
0000
0110
0000
0000
1001
0000
,
0100
0000
0000
0010
0000
0000
0100
0000
0000
0000
0000
0000
0000
0000
1000
0000
,
0001
0000
0000
1000
0000
0000
0010
0000
0000
0000
0000
0000
0100
0000
0000
0000
,
1000
0000
0000
0001
0000
0000
1000
0000
0000
0000
0000
0000
0000
0000
0100
0000
,
0010
0000
0000
1000
0000
0000
0001
0000
0000
0000
0000
0000
0010
0000
0000
0000
,
0100
0000
0000
1000
0000
0000
0010
0000
0000
0000
0000
0000
0000
0000
0001
0000
,
1000
0000
0000
0010
0000
0000
0100
0000
0000
0000
0000
0000
0001
0000
0000
0000
,
1000
0000
0000
1000
0000
0000
0001
0000
0000
0000
0000
0000
0000
0000
0001
0000
,
1000
0000
0000
0100
0000
0000
0010
0000
0000
0000
0000
0000
0100
0000
0000
0000
,
1001
0000
0000
0100
0000
0000
0100
0000
0000
0000
0000
0000
0000
0000
0010
0000
,
0100
0000
0000
1000
0000
0000
0001
0000
0000
0000
0000
0000
0100
0000
0000
0000
,
0010
0000
0000
0010
0000
0000
0010
0000
0000
0000
0000
0000
0000
0000
0010
0000
,
0100
0000
0000
0100
0000
0000
0100
0000
0000
0000
0000
0000
1001
0000
0000
0000
,
0110
0001
0010
0100
,
1000
0000
0010
0100
0000
0000
1001
0000
,
0110
0001
1000
0001
,
0011
1100
0101
1010
,
0110
1001
0100
0100
,
0110
1001
0010
1001
,
0100
1001
0010
0010
,
0100
0000
0000
0100
0000
0000
0100
0000
0000
0000
0000
0000
0100
0000
0010
0000
,
0010
1001
0100
0101
,
1100
0010
0000
1001
,
0010
1001
0100
1001
,
0020
0000
0000
0000
,
0000
0000
0030
0000
;

//---------------dance-single - ----------------
#NOTES:
     dance-single:
     :
     Hard:
     10:
     0.396293,0.440877,0.594440,0.023311,0.075762,238.000000,187.000000,51.000000,2.000000,0.000000,0.000000,0.396293,0.440877,0.594440,0.023311,0.075762,238.000000,187.000000,51.000000,2.000000,0.000000,0.000000:
// measure 0
0000
0000
0000
0000
,  // measure 1
0000
0000
0000
0000
,  // measure 2
0000
0000
0000
0000
,  // measure 3
0000
0000
0000
0000
,  // measure 4
0010
0000
1001
0000
0100
0001
0100
0001
,  // measure 5
1000
0010
1000
0010
0100
0001
0000
0010
,  // measure 6
0100
0000
1001
0000
0010
1000
0010
1000
,  // measure 7
0001
0100
0001
0100
0010
1000
0000
0010
,  // measure 8
0100
0000
1001
0000
0100
0001
0100
0001
,  // measure 9
1000
0000
0110
0000
0001
1000
0000
0010
,  // measure 10
0100
0000
1001
0000
0010
0010
0100
0100
,  // measure 11
0010
1100
0010
0101
,  // measure 12
1001
0000
0010
0000
0100
0100
0010
0010
,  // measure 13
0001
0000
1100
0000
0010
0000
1000
0001
,  // measure 14
1000
0000
0010
0100
0010
0000
1000
0001
,  // measure 15
1000
0000
0100
0010
0100
0000
0001
1000
,  // measure 16
0100
0000
0000
1001
0000
0000
0010
1000
,  // measure 17
0100
0010
0000
0010
0000
0000
0001
1000
,  // measure 18
0010
0000
0000
0100
0000
0000
1000
0100
,  // measure 19
0001
0000
0000
0110
0000
0000
1001
0000
,  // measure 20
0100
0000
0000
0010
0000
0000
0100
0000
0000
0000
0000
0000
0000
0000
1000
0000
,  // measure 21
0001
0000
0000
1000
0000
0000
0001
0000
0000
0000
0000
0000
0001
0000
0000
0000
,  // measure 22
1000
0000
0000
0001
0000
0000
1000
0000
0000
0000
0000
0000
0000
0000
0100
0000
,  // measure 23
0010
0000
0000
0101
0000
0000
1100
0000
0000
0000
0000
0000
0100
0000
0000
0000
,  // measure 24
0001
0000
0000
1100
0000
0000
0101
0000
0000
0000
0000
0000
0000
0000
0001
0000
,  // measure 25
1000
0000
0000
0101
0000
0000
1100
0000
0000
0000
0000
0000
0100
0000
0000
0000
,  // measure 26
0010
0000
0000
1100
0000
0000
0101
0000
0000
0000
0000
0000
0000
0000
0100
0000
,  // measure 27
1000
0000
0000
0101
0000
0000
1100
0000
0000
0000
0000
0000
0100
0000
0000
0000
,  // measure 28
1001
0000
0000
0100
0000
0000
0100
0000
0000
0000
0000
0000
0000
0000
0100
0000
,  // measure 29
1010
0000
0000
0101
0000
0000
1100
0000
0000
0000
0000
0000
0100
0000
0000
0000
,  // measure 30
0011
0000
0000
1100
0000
0000
0101
0000
0000
0000
0000
0000
0000
0000
0100
0000
,  // measure 31
1010
0000
0000
0101
0000
0000
1100
0000
0000
0000
0000
0000
0110
0000
0000
0000
,  // measure 32
0001
1000
0001
1000
0010
0000
0100
0000
,  // measure 33
0010
0000
1000
0001
1000
0001
0100
0000
,  // measure 34
1000
0100
1000
0100
1000
0100
1000
0100
,  // measure 35
0011
1100
0001
1000
,  // measure 36
0110
1001
0100
0100
,  // measure 37
0110
1001
0010
1100
,  // measure 38
0010
0101
0010
1100
,  // measure 39
0010
0000
0000
0101
0000
0000
1100
0000
0000
0000
0000
0000
0010
0000
0100
0000
,  // measure 40
0100
1001
0100
0101
,  // measure 41
1100
0010
0000
0101
,  // measure 42
0010
1100
0010
1001
,  // measure 43
2002
0000
0000
0000
,  // measure 44
0000
0000
3003
0000
;

//---------------dance-single - ----------------
#NOTES:
     dance-single:
     :
     Beginner:
     1:
     0.113227,0.155603,0.058278,0.151524,0.000000,68.000000,63.000000,5.000000,13.000000,0.000000,0.000000,0.113227,0.155603,0.058278,0.151524,0.000000,68.000000,63.000000,5.000000,13.000000,0.000000,0.000000:
0000
0000
0000
0000
,
0000
0000
0000
0000
,
0000
0000
0000
0000
,
0000
0000
0000
0000
,
0010
0000
0100
0000
,
0010
0000
0010
0000
,
0100
0000
0010
0000
,
0100
0000
0100
0000
,
0010
0000
0100
0000
,
0100
0000
0010
0000
,
0010
0000
0100
0000
,
0010
0000
0100
0000
,
1001
0000
0100
0000
,
1000
0000
0010
0000
,
0001
0000
0100
0000
,
1000
0000
0010
0000
,
0200
0000
0300
0000
,
0020
0000
0030
0000
,
0200
0000
0300
0000
,
0020
0000
0030
0000
,
0200
0000
0300
0000
,
0002
0000
0003
0000
,
2000
0000
3000
0000
,
0002
0000
0003
0000
,
0200
0000
0300
0000
,
2000
0000
3000
0000
,
2000
0000
3000
0000
,
0002
0000
0003
0000
,
1001
0000
0000
0000
,
1001
0000
0000
0000
,
1001
0000
0000
0000
,
1001
0000
0000
0000
,
0001
0000
0010
0000
,
1000
0000
0100
0000
,
0010
0000
1000
0000
,
0001
0000
0100
0000
,
0010
0010
0000
0000
,
0010
0010
0000
0000
,
0100
0100
0000
0000
,
0100
0100
0000
0000
,
1000
1000
0000
0000
,
0001
0001
0000
0000
,
1000
1000
0000
0000
,
0020
0000
0000
0000
,
0000
0000
0030
0000
;
