#VERSION:0.83;
#TITLE:SUPER STAR;
#SUBTITLE:(DJ NKDO & EI MIX);
#ARTIST:D.J.RICH feat. TAILBROS.;
#TITLETRANSLIT:;
#SUBTITLETRANSLIT:;
#ARTISTTRANSLIT:;
#GENRE:Techno;
#ORIGIN:;
#CREDIT:;
#BANNER:SUPER STAR(FROM NONSTOP MEGAMIX).png;
#BACKGROUND:SUPER STAR(FROM NONSTOP MEGAMIX)-bg.png;
#PREVIEWVID:;
#JACKET:SUPER STAR(FROM NONSTOP MEGAMIX)-jacket.png;
#CDIMAGE:;
#DISCIMAGE:;
#LYRICSPATH:;
#CDTITLE:./CDTITLES/EM3.png;
#MUSIC:SUPER STAR(FROM NONSTOP MEGAMIX).ogg;
#OFFSET:0.003887;
#SAMPLESTART:39.374001;
#SAMPLELENGTH:15.000000;
#SELECTABLE:YES;
#DISPLAYBPM:128.000000;
#BPMS:0.000=128.114,
4.000=128.002;
#STOPS:;
#DELAYS:;
#WARPS:;
#TIMESIGNATURES:0.000=4=4;
#TICKCOUNTS:0.000=4;
#COMBOS:0.000=1;
#SPEEDS:0.000=1.000=0.000=0;
#SCROLLS:0.000=1.000;
#FAKES:;
#LABELS:0.000=Song Start;
#BGCHANGES:;
#KEYSOUNDS:;
#ATTACKS:
;

//---------------dance-single - ----------------
#NOTEDATA:;
#CHARTNAME:;
#STEPSTYPE:dance-single;
#DESCRIPTION:;
#CHARTSTYLE:;
#DIFFICULTY:Hard;
#METER:10;
#RADARVALUES:0.428727,0.465848,0.052284,0.115024,0.078426,287.000000,282.000000,5.000000,11.000000,0.000000,0.000000,0.000000,0.000000,0.000000,0.428727,0.465848,0.052284,0.115024,0.078426,287.000000,282.000000,5.000000,11.000000,0.000000,0.000000,0.000000,0.000000,0.000000;
#CREDIT:;
#DISPLAYBPM:128.000000;
#NOTES:
0000
0000
0000
0000
,
0000
0000
0000
0000
,
0000
0000
0000
0000
,
0001
0000
1000
0000
,
0001
1000
0001
0000
,
1000
1000
0001
0001
,
1000
0001
1000
1000
,
0001
1000
0001
0001
,
1000
0000
0001
0000
1000
0100
1000
0000
,
0202
0000
0303
0000
0010
1000
0100
0000
,
0001
1000
0001
1000
0010
0010
0101
0000
,
0001
0010
1000
0000
1000
0100
0001
0000
,
0001
0010
1000
0100
0001
0100
1000
0000
,
0010
1000
0100
0000
0001
1000
0100
0000
,
0001
0100
1000
0010
1000
0100
0001
0000
,
0100
0000
0010
0000
1000
0000
1000
0000
0000
0010
0000
0100
0001
0000
0001
0000
,
0002
0000
0000
0003
,
1000
0000
0100
0000
0010
0000
0001
0000
0000
0100
0000
1000
0001
0000
0000
0000
,
0010
0000
0001
0000
0100
0000
0001
0000
0000
1000
0000
0100
0010
0000
0000
0000
,
0010
0000
1000
0000
0001
0000
0100
0000
0000
0010
0000
0001
1000
0000
0000
0000
,
0220
0000
0330
0000
0001
0010
0100
0000
,
0010
0000
1000
0000
0001
0000
0001
1000
0000
0000
0000
0000
0100
0000
0000
0000
,
0010
0000
1000
0000
0100
0000
1000
0000
0000
0010
0000
0100
0001
0000
0001
0000
,
0010
0000
0100
0000
1000
0000
0001
0010
0000
0000
0100
0000
0100
0000
0000
0000
,
1000
0000
0010
0000
0001
0000
0001
0200
0000
0000
0000
0000
0300
0000
0000
0000
,
0010
1000
0100
0001
0100
1000
0010
0010
,
0100
0001
0010
1000
0001
0100
0010
0010
,
1000
0001
0100
0010
0100
0001
0010
0000
,
1000
0100
0001
0010
0001
0001
0100
0010
,
1000
0000
1000
0000
1000
0000
0000
0000
0100
0000
0010
0000
0001
0100
0001
0000
,
1000
0100
0010
0000
0001
0010
0100
0000
,
1000
0000
0010
0000
0100
0000
1000
0000
0001
0100
0001
0000
1000
0000
0000
0000
,
0100
0010
0001
0100
0010
1000
0100
0100
,
0010
0000
1000
0100
0000
0001
0010
0000
,
1000
0001
0010
0100
0010
1000
1000
0000
,
0010
0100
0001
0010
0100
1000
0010
0100
,
1000
0001
0010
0001
1000
0010
0010
0000
,
0020
0000
0000
0030
,
2000
0000
0000
3000
,
0010
1000
0100
0000
0220
0000
0330
0000
,
0010
0001
0100
0000
0110
0001
0010
0100
,
1000
0010
0100
0001
1000
0010
0100
0001
,
1000
0010
1000
0100
1000
0001
0100
0010
,
1000
0100
0001
0001
0010
1000
0001
0100
,
0010
0100
0000
0000
0000
0100
0010
1000
,
0010
0001
0100
0010
0001
1000
0100
0100
,
0010
1000
0001
0010
0001
1000
0010
0010
,
0001
0010
0100
0010
1000
0001
0100
1000
,
0010
0100
1000
0001
0010
0100
0001
1000
,
2000
0000
3000
0000
;

//---------------dance-double - ----------------
#NOTEDATA:;
#CHARTNAME:;
#STEPSTYPE:dance-double;
#DESCRIPTION:;
#CHARTSTYLE:;
#DIFFICULTY:Hard;
#METER:11;
#RADARVALUES:0.427233,0.465848,0.052284,0.115024,0.078426,286.000000,281.000000,5.000000,11.000000,0.000000,0.000000,0.000000,0.000000,0.000000,0.427233,0.465848,0.052284,0.115024,0.078426,286.000000,281.000000,5.000000,11.000000,0.000000,0.000000,0.000000,0.000000,0.000000;
#CREDIT:;
#DISPLAYBPM:128.000000;
#NOTES:
00000000
00000000
00000000
00000000
,
00000000
00000000
00000000
00000000
,
00000000
00000000
00000000
00000000
,
10000000
00000000
00010000
00000000
,
00001000
00010000
00001000
00000000
,
00000100
00000100
00000001
00000001
,
00001000
00000100
00010000
00010000
,
00001000
00100000
00010000
00010000
,
10000000
00000000
01000000
00000000
00010000
00001000
00010000
00000000
,
00020200
00000000
00030300
00000000
00001000
00000100
00000010
00000000
,
00000001
00000100
00000001
00000100
00000010
00001000
00011000
00000000
,
00010000
00100000
01000000
00000000
10000000
01000000
00010000
00000000
,
00001000
00000100
00000001
00000010
00000001
00000100
00001000
00000000
,
00010000
00001000
01000000
00000000
00010000
10000000
01000000
00000000
,
00100000
00010000
01000000
00001000
00010000
00000010
00000100
00000000
,
00000001
00000000
00000010
00000000
00000100
00000000
00001000
00000000
00000000
00001000
00000000
00010000
00001000
00000000
00010000
00000000
,
00020000
00000000
00000000
00030000
,
00100000
00000000
10000000
00000000
00100000
00000000
01000000
00000000
00000000
00010000
00000000
10000000
00010000
00000000
00000000
00000000
,
00100000
00000000
01000000
00000000
00010000
00000000
00001000
00000000
00000000
00001000
00000000
00000100
00000001
00000000
00000000
00000000
,
00000010
00000000
00000001
00000000
00000100
00000000
00000010
00000000
00000000
00010000
00000000
00000010
00001000
00000000
00000000
00000000
,
00000202
00000000
00000303
00000000
00001000
00010000
01000000
00000000
,
00100000
00000000
10000000
00000000
01000000
00000000
10000000
01000000
00000000
00000000
00000000
00000000
00010000
00000000
00000000
00000000
,
00001000
00000000
00000100
00000000
00000001
00000000
00000010
00000000
00000000
00000001
00000000
00000100
00000001
00000000
00000001
00000000
,
00000100
00000000
00001000
00000000
00010000
00000000
00010000
00001000
00000000
00000000
01000000
00000000
01000000
00000000
00000000
00000000
,
10000000
00000000
00100000
00000000
00010000
00000000
00001000
00020000
00000000
00000000
00000000
00000000
00030000
00000000
00000000
00000000
,
00000010
00001000
00000100
00000010
00000001
00000100
00001000
00001000
,
00010000
01000000
00100000
10000000
00010000
01000000
00100000
00100000
,
00010000
00001000
00000100
00000010
00000100
00000001
00001000
00000000
,
00000100
00000010
00000001
00000100
00001000
00001000
00010000
01000000
,
10000000
00000000
10000000
00000000
10000000
00000000
00000000
00000000
01000000
00000000
00100000
00000000
00010000
00001000
00010000
00000000
,
00000010
00001000
00000100
00000000
00000001
00000100
00001000
00000000
,
00010000
00000000
00001000
00000000
01000000
00000000
00100000
00000000
00010000
01000000
00010000
00000000
10000000
00000000
00000000
00000000
,
01000000
00100000
00010000
00001000
00010000
00000100
00000010
00000010
,
00000001
00000000
00000100
00000010
00000000
00010000
00001000
00000000
,
00100000
00010000
00100000
01000000
00100000
10000000
10000000
00000000
,
01000000
00010000
00001000
00010000
00001000
00000100
00000001
00000010
,
00000001
00000100
00001000
00000100
00000010
00001000
00001000
00000000
,
00020000
00000000
00000000
00030000
,
00200000
00000000
00000000
00300000
,
00100000
00010000
00001000
00000000
00020200
00000000
00030300
00000000
,
00001000
00000010
00000100
00000000
00000101
00000100
00001000
00010000
,
01000000
00100000
01000000
00010000
00001000
00000100
00000001
00000010
,
00000100
00001000
00000010
00000100
00001000
00010000
01000000
00100000
,
10000000
01000000
00010000
00010000
00001000
00000010
00000100
00000001
,
00000010
00000100
00000000
00000000
00000000
00010000
00100000
10000000
,
00100000
00010000
00001000
00100000
01000000
00010000
00001000
00001000
,
00000100
00000001
00000010
00000100
00000001
00000100
00001000
00001000
,
00010000
00100000
01000000
00100000
10000000
01000000
00010000
00001000
,
00010000
00000010
00000100
00001000
00010000
00000000
00010000
00001000
,
00002000
00000000
00003000
00000000
,
00000000
00000000
00000000
00000000
;

//---------------dance-single - ----------------
#NOTEDATA:;
#CHARTNAME:;
#STEPSTYPE:dance-single;
#DESCRIPTION:;
#CHARTSTYLE:;
#DIFFICULTY:Challenge;
#METER:15;
#RADARVALUES:0.690146,0.845428,0.177765,0.094111,0.899281,462.000000,445.000000,17.000000,9.000000,0.000000,0.000000,0.000000,0.000000,0.000000,0.690146,0.845428,0.177765,0.094111,0.899281,462.000000,445.000000,17.000000,9.000000,0.000000,0.000000,0.000000,0.000000,0.000000;
#CREDIT:;
#DISPLAYBPM:128.000000;
#NOTES:
0000
0000
0000
0000
,
0000
0000
0000
0000
,
0000
0000
0000
0000
,
1010
1000
0001
0000
0220
0000
0330
0000
,
0011
0000
0001
0000
1000
0000
0000
0000
0110
0000
0100
0000
0001
1000
0010
0000
,
0100
0000
0100
0000
0001
0000
0000
0010
0000
0001
1000
0000
0100
0000
0000
0000
,
1000
0010
0000
1000
0010
0000
1000
0001
0000
1000
0001
0000
1000
0000
0100
0000
,
0010
0000
0010
0000
0100
0000
0000
1000
0000
1000
0001
0000
0100
0000
0000
0000
,
0001
0010
0000
0001
0010
0000
0001
1000
0000
0001
1000
0000
0100
0010
0100
0000
,
1001
0000
0001
0000
1000
0000
0000
0010
0000
0100
0001
0000
0010
0000
0000
0000
,
0001
0000
0010
0000
0100
0000
0000
1000
0000
0001
0010
0000
0001
0000
1000
0000
,
0100
0000
0010
0000
0100
0000
0000
1000
0000
0010
0100
0000
0001
0000
0000
0000
,
1000
0000
0010
0000
0100
0000
0000
0010
0000
1000
0001
0000
1000
0000
0100
0000
,
0010
0000
0110
0000
0000
0000
0000
0001
0000
1000
0001
0000
1000
0000
0000
0000
,
0010
0000
0110
0000
0000
0000
0000
1000
0000
0001
1000
0000
0001
0000
0000
0000
,
1000
0000
0010
0000
0100
0000
0000
0001
0000
0010
0000
0001
1000
0000
0010
0000
,
0200
0000
0000
0000
0000
0000
0000
0000
0300
0000
0000
0000
0001
1000
0001
1000
,
0001
0000
0100
0000
0010
0000
1000
0100
0000
1000
0001
0000
0010
0000
0100
0000
,
1000
0000
0010
0000
0001
0000
0010
1000
0000
0010
0100
0000
0001
0000
0000
0000
,
1000
0000
0100
0000
0010
0000
0001
0100
0000
0001
1000
0000
0010
0000
0100
0000
,
0202
0000
0303
0110
,
1000
0000
0100
0000
0010
0000
0001
1000
0000
0001
1000
0000
0100
0000
0000
0000
,
0010
0001
0000
1000
0001
0000
0100
0001
0000
1000
0010
0000
0100
0000
0100
0000
,
0001
0000
0100
0000
0010
0000
1000
0001
0000
1000
0001
0000
0010
0000
0000
0000
,
0100
1000
0000
0001
1000
0000
0010
1000
0000
0010
0100
0000
0001
0000
0010
0000
,
0100
0000
0010
0001
0010
0000
0100
1000
0100
0000
1000
0000
0010
1000
0010
0100
,
0001
0100
0001
0100
0010
1000
0010
1000
0001
0000
0010
0100
0000
0010
0100
0000
,
1000
0010
1000
0000
0001
0000
1000
0100
0010
0001
1000
0001
1000
0000
0000
0100
,
0010
0001
0010
0100
1000
0000
0001
0100
0010
0000
1000
0100
0010
0000
0001
0000
,
1000
0000
1000
0000
1000
0000
0000
0010
0100
0010
0000
1000
0000
0001
0000
0100
,
0010
0000
0100
0001
0010
0000
0100
1000
0010
1000
0000
0001
0000
0000
0000
0010
,
0100
0000
1000
0010
0100
0001
0010
0100
1000
0001
0010
0001
1000
0000
0000
0000
,
0100
0010
0001
0100
0010
1000
0001
0010
0100
1000
0001
0100
0010
1000
0000
0001
,
0100
0001
0000
0010
0001
0010
0001
0010
0000
0100
1000
0001
1000
0010
0000
0000
,
0100
0001
1000
0001
0010
0100
1000
0100
0010
0000
0001
0000
0001
1000
0000
0001
,
0100
0001
0100
0001
1000
0010
1000
0010
0100
0001
0100
0010
1000
0001
0010
0100
,
0010
0001
0010
0100
0010
0001
0100
0010
1000
0001
0010
0100
1000
0001
1000
0000
,
2002
0000
0000
0000
,
3000
0000
0000
0000
1003
0000
0001
1000
0000
0001
1000
0000
0100
0000
0010
0000
,
0011
0001
1000
0000
0220
0000
0330
0000
,
1010
0000
1000
0000
0001
0000
0000
0000
0110
0000
1000
0100
0010
0001
0100
0001
,
1000
0000
0001
0010
0100
0010
0001
0000
1000
0010
0100
0010
1000
0001
0010
0100
,
1000
0100
0010
0001
1000
0100
0010
0001
1000
0010
0100
0001
1000
0000
0001
0010
,
0100
1000
0010
0100
0001
1000
0010
0000
0100
0001
0010
0100
1000
0001
0010
0001
,
1000
0000
1001
0000
0000
0000
0000
0000
0000
0001
0100
0010
1000
0000
0001
0010
,
0000
0100
1000
0000
0010
1000
0010
0100
0001
1000
0001
0100
0010
0000
1000
0100
,
0010
0001
1000
0010
1000
0001
0100
0001
1000
0100
1000
0001
0010
0000
0001
1000
,
0000
0010
0100
0001
0010
0100
1000
0000
0010
0100
0001
0010
0000
0001
0100
0001
,
1000
0010
0100
0001
0010
0000
0100
1000
0000
0001
0100
0010
1000
0000
1100
0000
,
0101
0000
0000
0000
;

//---------------dance-single - ----------------
#NOTEDATA:;
#CHARTNAME:;
#STEPSTYPE:dance-single;
#DESCRIPTION:;
#CHARTSTYLE:;
#DIFFICULTY:Medium;
#METER:8;
#RADARVALUES:0.286814,0.307428,0.104568,0.052284,0.000000,192.000000,182.000000,10.000000,5.000000,0.000000,0.000000,0.000000,0.000000,0.000000,0.286814,0.307428,0.104568,0.052284,0.000000,192.000000,182.000000,10.000000,5.000000,0.000000,0.000000,0.000000,0.000000,0.000000;
#CREDIT:;
#DISPLAYBPM:128.000000;
#NOTES:
0000
0000
0000
0000
,
0000
0000
0000
0000
,
0000
0000
0000
0000
,
1100
0000
0101
0000
,
1001
0110
1001
0000
,
0001
0010
0001
0000
0100
0000
0001
0000
,
1000
1000
0001
0001
,
1000
0010
1000
0000
0100
0000
1000
0000
,
0001
0001
1000
1000
,
0110
0000
0000
0000
0001
0010
0100
0000
,
1000
1000
0010
0100
,
0001
0010
0100
0010
,
0001
0001
0001
0000
0100
0000
0010
0000
,
1000
1000
1000
0000
0001
0000
0100
0000
,
0010
0010
0001
1000
,
0100
0000
0010
0000
1000
1000
1000
0000
,
0110
0000
0000
0000
,
1000
0100
1000
0000
0100
0000
0010
0000
,
0001
0100
0010
1000
,
0001
0100
0001
0000
1000
0000
0100
0000
,
0020
0000
0030
0000
0100
1000
0001
0000
,
1000
1000
1000
0000
0000
0000
0000
0000
,
0010
0100
0010
0000
0100
0010
0100
0000
,
0001
0001
0001
0000
0000
0000
0000
0000
,
0010
0100
0010
0000
0100
0010
0100
0000
,
1000
1000
0001
0010
,
0100
0010
0001
0100
,
0010
0010
1000
0100
,
0010
0001
0100
0010
,
0100
0100
0100
0000
0000
0000
0001
0000
,
0010
0010
0100
0100
,
1000
0001
0100
0010
,
1000
1000
0001
0001
,
0100
0000
0001
0100
0000
0001
0100
0000
,
0010
0000
0010
0000
1000
0001
1000
0000
,
0100
0010
0001
1000
,
0100
0100
0010
0010
,
2000
0000
0000
0000
,
3002
0000
0000
0000
,
0203
0000
0000
0000
,
0320
0000
0000
0000
,
1030
0001
1000
0000
0001
1000
0001
0000
,
0010
0100
1000
0010
,
0001
0100
0001
0000
1000
0100
1000
0000
,
0001
0000
0000
0000
,
0110
0001
0100
0010
,
1000
0100
1000
0000
0001
0100
0001
0000
,
1000
0000
0010
0000
0100
0100
0100
0000
,
1000
0010
0100
0101
,
1100
0000
0000
0000
;

//---------------dance-single - ----------------
#NOTEDATA:;
#CHARTNAME:;
#STEPSTYPE:dance-single;
#DESCRIPTION:;
#CHARTSTYLE:;
#DIFFICULTY:Easy;
#METER:5;
#RADARVALUES:0.285320,0.409905,0.365986,0.125481,0.000000,191.000000,156.000000,35.000000,12.000000,0.000000,0.000000,0.000000,0.000000,0.000000,0.285320,0.409905,0.365986,0.125481,0.000000,191.000000,156.000000,35.000000,12.000000,0.000000,0.000000,0.000000,0.000000,0.000000;
#CREDIT:;
#DISPLAYBPM:128.000000;
#NOTES:
0000
0000
0000
0000
,
0000
0000
0000
0000
,
0000
0000
0000
0000
,
1100
0000
0101
0000
,
0011
0000
1010
0000
,
0100
0100
0010
0001
,
1000
1000
0001
0001
,
0100
0100
0010
1000
,
0100
0100
0010
0010
,
2002
3003
0001
0100
,
0010
0010
0100
0001
,
0010
0010
0100
1000
,
0001
0001
1000
0100
,
2200
3300
0010
0001
,
0100
0100
0010
0010
,
0202
0303
1000
0010
,
0200
0000
0300
0000
,
0001
0010
0001
1000
,
0001
0100
0010
0110
,
1000
0010
1000
0001
,
1000
0100
0010
0110
,
1001
0000
0000
0000
,
0001
0100
0010
1000
,
1100
0000
0000
0000
,
0010
0001
0100
0010
,
0101
0001
0100
0001
,
1001
1000
0001
1000
,
1100
0100
1000
0100
,
0011
0010
0001
0010
,
0101
0000
1000
0010
,
1000
1000
0001
0001
,
0100
0010
0100
0001
,
0010
0100
1000
0001
,
1001
0001
1001
1000
,
0010
0100
0010
1000
,
1100
0100
0011
0100
,
0001
1000
0020
0030
,
0200
0000
0000
0000
,
0020
0000
0000
0330
,
1001
0000
1001
0000
,
1001
1001
1001
0000
,
1000
0100
0010
0010
,
0001
0100
0010
0010
,
1000
0001
0010
0100
,
0220
0330
0000
0001
,
1000
0100
1000
1100
,
0001
0100
0001
0101
,
1000
1010
0001
0011
,
1100
0101
1001
0110
,
1001
0000
0000
0000
;

//---------------dance-single - ----------------
#NOTEDATA:;
#CHARTNAME:;
#STEPSTYPE:dance-single;
#DESCRIPTION:;
#CHARTSTYLE:;
#DIFFICULTY:Beginner;
#METER:3;
#RADARVALUES:0.125481,0.204952,0.073197,0.073197,0.000000,84.000000,77.000000,7.000000,7.000000,0.000000,0.000000,0.000000,0.000000,0.000000,0.125481,0.204952,0.073197,0.073197,0.000000,84.000000,77.000000,7.000000,7.000000,0.000000,0.000000,0.000000,0.000000,0.000000;
#CREDIT:;
#DISPLAYBPM:128.000000;
#NOTES:
0000
0000
0000
0000
,
0000
0000
0000
0000
,
0000
0000
0000
0000
,
1001
0000
0110
0000
,
1001
0000
0000
0000
,
0001
0000
0001
0000
,
0001
0000
0000
0000
,
1000
0000
1000
0000
,
1000
0000
0000
0000
,
0100
0000
0010
0000
,
0100
0000
1000
0000
,
0010
0000
0010
0000
,
0010
0000
0000
0000
,
0001
0000
0001
0000
,
1000
0000
1000
0000
,
0001
0000
0100
0000
,
0020
0000
0030
0000
,
0001
0000
0001
0000
,
1000
0000
1000
0000
,
0100
0000
0100
0000
,
0110
0000
0000
0000
,
1000
0000
1000
0000
,
1000
0000
0000
0000
,
0001
0000
0001
0000
,
0001
0000
0000
0000
,
0010
0000
0100
0000
,
1000
0000
0001
0000
,
0100
0000
0010
0000
,
1000
0000
0001
0000
,
2000
0000
3000
0000
,
0001
0000
0100
0000
,
0010
0000
1000
0000
,
0100
0000
0010
0000
,
0002
0000
0003
0000
,
2000
0000
3000
0000
,
0020
0000
0030
0000
,
0200
0000
0300
0000
,
0002
0000
0000
0000
,
0003
0000
0000
0000
,
1001
0000
1001
0000
,
0010
0010
0010
0000
,
0100
0000
0100
0000
,
0010
0000
1000
0000
,
0001
0000
0100
0000
,
0010
0000
0000
0000
,
0001
0000
1000
0000
,
0010
0000
0100
0000
,
0001
0000
1000
0000
,
0010
0000
0100
0000
,
1001
0000
0000
0000
;
