#VERSION:0.83;
#TITLE:START & PAWS;
#SUBTITLE:;
#ARTIST:OSCILLATOR X;
#TITLETRANSLIT:;
#SUBTITLETRANSLIT:;
#ARTISTTRANSLIT:;
#GENRE:;
#ORIGIN:;
#CREDIT:;
#BANNER:;
#BACKGROUND:DDR CD-bg.JPG;
#PREVIEWVID:;
#JACKET:Start & Paws-jacket.jpg;
#CDIMAGE:;
#DISCIMAGE:;
#LYRICSPATH:;
#CDTITLE:;
#MUSIC:Start & Paws.ogg;
#OFFSET:-0.140000;
#SAMPLESTART:33.800011;
#SAMPLELENGTH:15.000000;
#SELECTABLE:YES;
#BPMS:0.000=146.200,
172.000=146.100,
180.000=146.200;
#STOPS:78.000=0.860;
#DELAYS:;
#WARPS:;
#TIMESIGNATURES:0.000=4=4;
#TICKCOUNTS:0.000=4;
#COMBOS:0.000=1;
#SPEEDS:0.000=1.000=0.000=0;
#SCROLLS:0.000=1.000;
#FAKES:;
#LABELS:0.000=Song Start;
#BGCHANGES:;
#KEYSOUNDS:;
#ATTACKS:
;

//---------------dance-single - ----------------
#NOTEDATA:;
#CHARTNAME:;
#STEPSTYPE:dance-single;
#DESCRIPTION:;
#CHARTSTYLE:;
#DIFFICULTY:Hard;
#METER:11;
#RADARVALUES:0.414697,0.447095,0.186614,0.134776,0.233267,280.000000,262.000000,18.000000,13.000000,0.000000,0.000000,0.000000,0.000000,0.000000,0.414697,0.447095,0.186614,0.134776,0.233267,280.000000,262.000000,18.000000,13.000000,0.000000,0.000000,0.000000,0.000000,0.000000;
#CREDIT:;
#NOTES:
0000
0000
0000
0000
,
0000
0000
0000
0000
,
0000
0000
0000
0000
,
0000
0000
0000
0000
,
1002
0000
0203
0000
,
0320
0100
0100
0130
,
1001
0100
0001
0100
,
0010
1000
0100
1000
,
0001
0001
1000
1000
,
0001
1000
0010
0100
,
0001
0001
1000
1000
,
0100
1000
0010
1000
,
0010
0010
0100
0100
,
0010
0010
0100
0100
,
1002
0000
0000
1000
0000
0000
1000
0000
0000
0000
0100
0000
0000
0000
0103
0000
,
2001
0000
0000
0001
0000
0000
0010
0000
0100
0000
0000
0100
0000
0000
3010
0000
,
1002
0000
0000
0010
0000
0000
0100
0000
0000
0000
0010
0000
0000
0000
1003
0000
,
2001
0000
0000
0001
0000
0000
0001
0000
0100
0000
0000
0100
0000
0000
0200
0000
,
0000
0000
0000
3300
,
0110
0000
0000
0100
1001
0000
0000
0000
,
1001
0000
0000
0100
0000
0000
0010
0000
0000
0100
0000
0000
0001
0000
1000
0000
,
0100
0000
0000
1000
0000
0000
1000
0000
0001
0000
0000
0001
0000
0000
0100
0000
,
0010
0000
0000
0100
0000
0000
0001
0000
0000
0100
0000
0000
0010
0000
1000
0000
,
0100
0000
0000
0100
0000
0000
0100
0000
1000
0000
0000
1000
0000
0000
1000
0000
,
0010
0000
0000
0100
0000
0000
0001
0000
0000
0100
0000
0000
0010
0000
1000
0000
,
0100
0000
0000
0100
0000
0000
0100
0000
0010
0000
0000
0010
0000
0000
0001
0000
,
0001
0000
0000
1000
0000
0000
0010
0000
0000
0100
0000
0000
0010
0000
1000
0000
,
0100
0000
0000
1000
0000
0000
1000
0000
0220
0000
0000
0000
0330
0000
0000
0000
,
1001
0100
0000
0100
0000
0100
0000
0100
,
0000
0100
0000
0100
0000
0100
0000
0010
,
0000
0010
0000
0010
0000
0010
0000
0010
,
0000
1000
0000
1000
0000
0001
0000
0001
,
0100
0000
1001
0000
0100
0001
0100
0010
,
0100
0000
0001
0000
1000
0100
1000
0000
,
0010
0000
0100
0000
0001
0100
0010
0000
,
1000
0000
0100
0000
1000
0010
1000
0000
,
1001
0000
0001
0000
0100
0001
0100
0000
,
0010
0100
0010
0000
0100
0001
0100
0000
,
0001
1000
0001
0000
1000
0100
1000
0000
,
0010
1000
0010
0000
0100
0001
0100
0000
,
0010
1000
0010
0000
1000
0100
1000
0000
,
0001
0100
0001
0000
1000
0001
1000
0000
,
0110
0000
1001
0000
1000
0010
0100
0002
,
0000
0000
0000
0000
,
0000
0000
0003
0110
,
1001
0000
0000
0100
0000
0000
0010
0000
0000
0100
0000
0000
0001
0000
1000
0000
,
0100
0000
0000
1000
0000
0000
1000
0000
0001
0000
0000
0001
0000
0000
0100
0000
,
0010
0000
0000
0100
0000
0000
0001
0000
0000
0100
0000
0000
0010
0000
1000
0000
,
0100
0000
0000
0100
0000
0000
0100
0000
1000
0000
0000
1000
0000
0000
1000
0000
,
0010
0000
0000
0100
0000
0000
0001
0000
0000
0100
0000
0000
0010
0000
1000
0000
,
0100
0000
0000
0100
0000
0000
0100
0000
0010
0000
0000
0010
0000
0000
0001
0000
,
0001
0000
0000
1000
0000
0000
0010
0000
0000
0100
0000
0000
0010
0000
1000
0000
,
0100
0000
0000
1000
0000
0000
1000
0000
0010
0000
0000
0010
0000
0000
0010
0000
,
0100
0000
0000
0010
0000
0000
1000
0000
0000
0010
0000
0000
0100
0000
0010
0000
,
0001
0000
0000
0010
0000
0000
0100
0000
0010
0000
0000
1000
0000
0000
0010
0000
,
0100
0000
0000
0010
0000
0000
0001
0000
0000
0010
0000
0000
0100
0000
0010
0000
,
1000
0000
0000
0100
0000
0000
1000
0000
0001
0000
0000
0100
0000
0000
0010
0000
,
2002
0000
3003
0000
;

//---------------dance-single - ----------------
#NOTEDATA:;
#CHARTNAME:;
#STEPSTYPE:dance-single;
#DESCRIPTION:;
#CHARTSTYLE:;
#DIFFICULTY:Medium;
#METER:6;
#RADARVALUES:0.345087,0.387482,0.051837,0.124409,0.031102,233.000000,228.000000,5.000000,12.000000,0.000000,0.000000,0.000000,0.000000,0.000000,0.345087,0.387482,0.051837,0.124409,0.031102,233.000000,228.000000,5.000000,12.000000,0.000000,0.000000,0.000000,0.000000,0.000000;
#CREDIT:;
#NOTES:
// measure 0
0000
0000
0000
0000
,  // measure 1
0000
0000
0000
0000
,  // measure 2
0000
0000
0000
0000
,  // measure 3
0000
0000
0000
0000
,  // measure 4
2000
0000
0002
3000
,  // measure 5
0100
0100
0100
0103
,  // measure 6
1001
0000
0010
0000
1000
0010
0100
0000
,  // measure 7
0001
0000
0100
0000
0010
0100
0001
0000
,  // measure 8
1000
0000
0010
0000
0100
0010
1000
0000
,  // measure 9
0001
0000
0100
0000
0010
0100
0001
0000
,  // measure 10
1000
0000
0100
0000
1000
0010
0100
0000
,  // measure 11
0001
0000
0100
0000
0001
0010
0100
0000
,  // measure 12
0010
0001
0100
0010
,  // measure 13
1000
0100
1000
0010
,  // measure 14
1000
0000
0000
1000
0000
0000
2000
0000
0000
0000
0000
0000
3000
0000
0000
0000
,  // measure 15
0001
0000
0000
0001
0000
0000
0001
0000
0100
0000
0000
0100
0000
0000
0100
0000
,  // measure 16
0010
0000
0000
0010
0000
0000
0020
0000
0000
0000
0000
0000
0030
0000
0000
0000
,  // measure 17
1000
0000
0000
1000
0000
0000
1000
0000
0001
0000
0000
0001
0000
0000
0002
0000
,  // measure 18
0000
0000
0000
0003
,  // measure 19
1001
0000
0000
2000
0002
3003
0000
0000
,  // measure 20
1001
0000
1000
0000
0001
0100
0001
0000
,  // measure 21
1000
0010
1000
0000
0001
0100
0001
0000
,  // measure 22
1000
0000
0010
0000
1000
0100
1000
0000
,  // measure 23
0100
1000
0100
0000
1000
0010
1000
0000
,  // measure 24
0010
0000
0100
0000
0001
0100
0001
0000
,  // measure 25
0010
0001
0010
0000
0001
0100
0001
0000
,  // measure 26
1000
0000
0010
0000
0100
0010
0100
0000
,  // measure 27
0010
1000
0010
0000
2000
0000
0000
0000
,  // measure 28
3001
0100
0001
0100
,  // measure 29
0010
1000
0010
1000
,  // measure 30
0001
0001
0001
0001
,  // measure 31
1000
1000
1000
1000
,  // measure 32
0100
0100
1000
1000
,  // measure 33
0010
0010
0100
0100
,  // measure 34
0001
0001
0010
0010
,  // measure 35
0001
0001
0100
0100
,  // measure 36
0010
1000
0010
1000
,  // measure 37
0001
0100
0001
0100
,  // measure 38
0010
1000
0100
0010
,  // measure 39
0001
0010
0001
0010
,  // measure 40
0001
1000
0001
1000
,  // measure 41
0100
1000
0010
1000
,  // measure 42
0010
0000
1000
0000
0001
0000
0100
0020
,  // measure 43
0000
0000
0000
0000
,  // measure 44
0000
0000
0000
0130
,  // measure 45
1001
0000
1000
0000
0001
0100
0001
0000
,  // measure 46
1000
0010
1000
0000
0001
0100
0001
0000
,  // measure 47
1000
0000
0010
0000
1000
0100
1000
0000
,  // measure 48
0100
1000
0100
0000
1000
0010
1000
0000
,  // measure 49
0010
0000
0100
0000
0001
0100
0001
0000
,  // measure 50
0010
0001
0010
0000
0001
0100
0001
0000
,  // measure 51
1000
0000
0010
0000
0100
0010
0100
0000
,  // measure 52
0010
1000
0010
0000
2000
0000
0000
0000
,  // measure 53
3001
0100
0001
0100
,  // measure 54
0010
1000
0010
1000
,  // measure 55
0001
0001
0001
0001
,  // measure 56
1000
1000
1000
1000
,  // measure 57
0220
0000
0330
0000
;

//---------------dance-single - ----------------
#NOTEDATA:;
#CHARTNAME:;
#STEPSTYPE:dance-single;
#DESCRIPTION:;
#CHARTSTYLE:;
#DIFFICULTY:Easy;
#METER:5;
#RADARVALUES:0.259186,0.298063,0.062205,0.165879,0.000000,175.000000,169.000000,6.000000,16.000000,0.000000,0.000000,0.000000,0.000000,0.000000,0.259186,0.298063,0.062205,0.165879,0.000000,175.000000,169.000000,6.000000,16.000000,0.000000,0.000000,0.000000,0.000000,0.000000;
#CREDIT:;
#NOTES:
// measure 0
0000
0000
0000
0000
,  // measure 1
0000
0000
0000
0000
,  // measure 2
0000
0000
0000
0000
,  // measure 3
0000
0000
0000
0000
,  // measure 4
1000
0000
0001
0000
,  // measure 5
2002
0000
0000
3003
,  // measure 6
1001
0000
0100
0000
,  // measure 7
0010
0010
0010
0010
,  // measure 8
0010
0000
1000
0000
,  // measure 9
0001
0001
0001
0001
,  // measure 10
0001
0000
0100
0000
,  // measure 11
0010
1000
0010
1000
,  // measure 12
0100
0000
1000
0000
,  // measure 13
1000
1000
1000
1000
,  // measure 14
2000
0000
3002
0000
,  // measure 15
0203
0000
0320
0000
,  // measure 16
2030
0000
3200
0000
,  // measure 17
0320
0000
0032
0000
,  // measure 18
0000
0000
0000
0000
,  // measure 19
2003
0000
0002
3003
,  // measure 20
1001
0100
0100
0100
,  // measure 21
0001
0001
1000
1000
,  // measure 22
0010
0010
0010
0010
,  // measure 23
1000
1000
0001
0001
,  // measure 24
0100
0100
0100
0100
,  // measure 25
0001
0001
1000
1000
,  // measure 26
0010
0010
0010
0010
,  // measure 27
1000
1000
0002
0003
,  // measure 28
1001
1000
0000
1000
,  // measure 29
0000
0001
0000
0001
,  // measure 30
0100
0010
0000
0010
,  // measure 31
1000
0100
0000
0100
,  // measure 32
1000
0001
0000
0001
,  // measure 33
0010
0100
0000
0100
,  // measure 34
1000
1000
0000
1000
,  // measure 35
0010
1000
0000
1000
,  // measure 36
0001
0100
0010
0100
,  // measure 37
0001
1000
0100
1000
,  // measure 38
0001
0100
0010
1000
,  // measure 39
0100
1000
0001
0100
,  // measure 40
0010
1000
0001
0001
,  // measure 41
1000
1000
0100
0100
,  // measure 42
0010
0010
0001
0002
,  // measure 43
0000
0000
0000
0000
,  // measure 44
0000
0000
0000
1003
,  // measure 45
1001
0100
0100
0100
,  // measure 46
0001
0001
1000
1000
,  // measure 47
0010
0010
0010
0010
,  // measure 48
1000
1000
0001
0001
,  // measure 49
0100
0100
0100
0100
,  // measure 50
0001
0001
1000
1000
,  // measure 51
0010
0010
0010
0010
,  // measure 52
1000
1000
0001
0001
,  // measure 53
1000
1000
1000
0010
,  // measure 54
0100
0001
0001
0001
,  // measure 55
0100
0010
0010
0010
,  // measure 56
1000
0100
0100
0100
,  // measure 57
2002
0000
3003
0000
;

//---------------dance-single - ----------------
#NOTEDATA:;
#CHARTNAME:;
#STEPSTYPE:dance-single;
#DESCRIPTION:;
#CHARTSTYLE:;
#DIFFICULTY:Beginner;
#METER:2;
#RADARVALUES:0.142182,0.178838,0.010367,0.072572,0.000000,96.000000,95.000000,1.000000,7.000000,0.000000,0.000000,0.000000,0.000000,0.000000,0.142182,0.178838,0.010367,0.072572,0.000000,96.000000,95.000000,1.000000,7.000000,0.000000,0.000000,0.000000,0.000000,0.000000;
#CREDIT:;
#NOTES:
// measure 0
0000
0000
0000
0000
,  // measure 1
0000
0000
0000
0000
,  // measure 2
0000
0000
0000
0000
,  // measure 3
0000
0000
0000
0000
,  // measure 4
2000
0000
3000
0000
,  // measure 5
0002
0000
0003
0000
,  // measure 6
1001
0000
0100
0000
,  // measure 7
0010
0000
0010
0000
,  // measure 8
0010
0000
1000
0000
,  // measure 9
0001
0000
0001
0000
,  // measure 10
0001
0000
0100
0000
,  // measure 11
0010
0000
0010
0000
,  // measure 12
0100
0000
1000
0000
,  // measure 13
1000
0000
1000
0000
,  // measure 14
2000
0000
3000
0000
,  // measure 15
0200
0000
0300
0000
,  // measure 16
0020
0000
0030
0000
,  // measure 17
0002
0000
0003
0000
,  // measure 18
0000
0000
0000
0000
,  // measure 19
0100
0000
0100
0000
,  // measure 20
0100
0100
0000
0000
,  // measure 21
0001
0001
0000
0000
,  // measure 22
0010
0010
0000
0000
,  // measure 23
1000
1000
0000
0000
,  // measure 24
0100
0100
0000
0000
,  // measure 25
0001
0001
0000
0000
,  // measure 26
0010
0010
0000
0000
,  // measure 27
1000
1000
0000
0000
,  // measure 28
0000
1000
0000
1000
,  // measure 29
0000
0001
0000
0001
,  // measure 30
0000
0010
0000
0010
,  // measure 31
0000
0100
0000
0100
,  // measure 32
0000
0001
0000
0001
,  // measure 33
0000
0100
0000
0100
,  // measure 34
0000
1000
0000
1000
,  // measure 35
0000
1000
0000
1000
,  // measure 36
0000
0100
0000
0100
,  // measure 37
0000
1000
0000
1000
,  // measure 38
0000
0100
0000
1000
,  // measure 39
0000
1000
0000
0100
,  // measure 40
0000
1000
0000
0001
,  // measure 41
0000
1000
0000
0100
,  // measure 42
0000
0010
0000
0001
,  // measure 43
0000
0000
0000
0000
,  // measure 44
0000
0000
0000
0000
,  // measure 45
0001
0001
0000
0000
,  // measure 46
0001
0001
0000
0000
,  // measure 47
0010
0010
0000
0000
,  // measure 48
1000
1000
0000
0000
,  // measure 49
0100
0100
0000
0000
,  // measure 50
0001
0001
0000
0000
,  // measure 51
0010
0010
0000
0000
,  // measure 52
1000
1000
0000
0000
,  // measure 53
1000
1000
0000
0000
,  // measure 54
0100
0100
0000
0000
,  // measure 55
0100
0100
0000
0000
,  // measure 56
1000
1000
0000
0000
,  // measure 57
0002
0000
0003
0000
;
