#TITLE:SPIRITUAL;
#SUBTITLE:;
#ARTIST:RevenG;
#TITLETRANSLIT:;
#SUBTITLETRANSLIT:;
#ARTISTTRANSLIT:;
#GENRE:;
#CREDIT:;
#BANNER:SPIRITUAL-bn.png;
#BACKGROUND:SPIRITUAL-bg.png;
#LYRICSPATH:;
#CDTITLE:;
#MUSIC:SPIRITUAL.ogg;
#OFFSET:-0.185000;
#SAMPLESTART:59.719002;
#SAMPLELENGTH:12.000000;
#SELECTABLE:YES;
#BPMS:0.000000=306.052002
,496.000000=153.026001
;
#STOPS:
;
#BGCHANGES:;
#KEYSOUNDS:;
#ATTACKS:;

//---------------dance-single - ----------------
#NOTES:
     dance-single:
     :
     Hard:
     16:
     0.739166,1.051083,0.242674,0.355344,0.021667,597.000000,569.000000,28.000000,41.000000,0.000000,0.000000,0.739166,1.051083,0.242674,0.355344,0.021667,597.000000,569.000000,28.000000,41.000000,0.000000,0.000000:
0000
0000
0000
0000
,
0000
0000
0000
0000
,
0000
0000
0000
0000
,
0000
0000
0000
0000
,
0010
0000
0001
0100
0001
0000
1000
0000
,
0010
1000
0010
0000
1000
0100
1000
0001
,
1000
0000
0001
0010
0001
0000
1000
0100
,
1000
0000
0001
0000
0100
0000
0010
1000
,
0010
0000
0100
0001
0100
0000
0001
0000
,
0010
0001
0010
0000
0100
1000
0100
0000
,
0010
0000
0001
1000
0001
0000
1000
0000
,
0010
1000
0010
0000
0100
0001
0100
0000
,
1001
1000
0100
0001
,
0100
1000
0100
0001
,
0100
1000
0010
0100
,
0001
1000
0100
0010
,
0001
0000
1000
0000
0100
0000
1000
0001
,
1000
0010
0200
0300
,
0001
0010
0002
0003
,
1000
0010
2000
3000
,
1001
0001
0100
1000
,
0100
0001
0100
1000
,
0100
0001
0010
0100
,
1000
0010
0100
0001
,
1000
0100
0020
0030
,
0001
0100
0020
0030
,
1000
0000
0100
0000
1000
0000
0001
0000
0100
0000
0020
0000
,
0000
0000
0000
0000
0030
0000
0100
0001
,
1000
0100
0001
0100
,
1000
0100
0010
0001
,
0100
0010
1000
0001
,
0100
0010
0100
0001
,
1000
0000
0100
0000
0010
0000
0001
1000
,
0001
0010
0200
0300
,
1000
0010
0200
0300
,
0001
1000
0020
0030
,
1001
0001
0010
1000
,
0010
0001
0100
0010
,
1000
0001
1000
0100
,
0010
0001
0100
0010
,
1000
0100
1000
0100
0000
0000
0010
0100
,
0010
0100
0000
0000
0010
0001
0010
0001
,
0000
0000
0100
0001
0100
0001
0000
0000
,
0100
0010
1000
0100
,
2001
0100
3001
0000
,
1002
0100
1003
0001
,
0010
0100
2000
3000
,
0010
0100
0002
0003
,
1000
0100
0000
0000
0010
0000
0001
0000
,
0100
0000
0010
1000
,
0001
0010
0200
0300
,
1000
0010
0200
0300
,
0001
0100
0000
0000
0010
0000
1000
0000
,
0001
1000
0100
0001
,
0100
1000
0002
0003
,
0100
0010
2000
3000
,
0100
0010
0000
0000
0001
0000
1000
0000
,
0100
1000
0001
0000
,
1000
0010
0100
0001
,
0000
0100
0010
1000
,
0100
0010
0000
0000
0001
0000
1000
0000
,
0100
0000
1000
0001
,
0100
0000
0010
0000
1000
0001
0000
0000
,
1000
0000
0100
0000
0010
0001
0000
0000
,
0101
0000
0010
1000
,
0001
0100
0001
1000
,
0010
0000
0100
0000
0001
0010
0000
0000
,
0001
0000
1000
0000
0100
1000
0000
0000
,
1001
0000
0100
0010
,
1000
0100
1000
0010
,
0100
0000
0001
0000
0010
0100
0000
0000
,
0010
0000
0001
0000
0100
0010
0000
0000
,
1001
0001
0200
0300
,
1001
1000
0200
0300
,
1001
0000
0100
0010
,
2002
0000
3003
0000
,
1000
0010
0001
1000
,
0100
0000
0001
0000
1000
0000
0100
1000
,
0100
0000
0010
0001
0000
1000
0001
0000
,
0100
0000
0010
0100
0010
0100
0010
1000
,
0001
0010
1000
0001
,
0100
0000
1000
0000
0010
0000
0100
0001
,
0100
0000
0010
1000
0000
0001
1000
0000
,
0100
0000
0010
0100
0010
0100
0010
0001
,
1000
0100
0001
0100
,
1000
0000
0010
0000
0100
0000
0001
0010
,
0001
0000
1000
0100
0000
0100
1000
0000
,
0001
0000
0001
1000
0001
1000
0001
1000
,
0001
0100
1000
0100
,
0001
0000
1000
0000
0010
0000
1000
0100
,
1000
1100
0001
0101
,
1000
0010
0100
0001
0010
0100
1000
0001
,
0100
0010
1010
1000
,
0100
1000
1100
0001
,
0100
0001
0101
1000
,
0010
0100
0002
0003
,
1000
0100
0110
0001
,
0100
0010
0110
1000
,
0001
0100
1001
0001
,
0010
0100
2000
3000
,
0001
0010
0110
1000
,
0010
0100
1010
0001
,
0100
0010
0101
1000
,
0100
0010
0002
0003
,
1000
0100
0001
0100
,
1000
0001
0100
1000
,
0100
0010
1000
0001
,
0010
0100
1000
0001
,
1000
0010
0000
1000
2200
0000
0000
0000
,
3300
0000
0000
0000
,
0001
0010
0000
0001
0202
0000
0000
0000
,
0303
0000
0000
0000
,
1000
0001
0000
0010
0220
0000
0000
0000
,
0330
0000
0000
0000
0000
0000
1000
0001
,
1000
0000
0010
1000
0010
0000
0100
0000
,
2002
3003
0220
0330
,
0001
0010
0001
1000
0001
0000
0100
0010
,
0100
0000
0001
0010
0001
0000
1000
0010
,
0100
0000
0100
0000
0001
1000
0001
1000
,
0001
0001
0010
0100
,
1000
0010
1000
0001
1000
0000
0010
1000
,
0010
0000
0100
0001
0100
0000
0001
1000
,
0001
0000
1000
0001
1000
0000
0001
0000
,
0010
0100
1000
0010
0100
0001
1000
0000
,
0101
0100
0010
1000
0100
0001
2000
0000
,
3020
0000
0031
0100
1000
0000
1000
0100
,
0001
1000
0010
0001
1000
0001
0010
0100
,
0002
0000
0013
0100
2000
0000
3001
1000
,
0001
0100
0010
1000
0001
0100
0010
1000
,
0200
0000
0310
0001
2000
0000
3001
0100
,
0010
1000
0100
1000
0100
1000
0100
0010
,
0001
0100
0001
0100
0001
0100
0010
1000
,
0001
0010
0001
1000
0010
1000
0001
0100
,
0001
0000
0010
0000
0100
0000
1000
0000
0001
0000
0010
0000
0100
0000
1000
0001
,
2000
0000
0000
3000
;

//---------------dance-single - ----------------
#NOTES:
     dance-single:
     :
     Medium:
     12:
     0.520016,0.871027,0.112670,0.216673,0.000000,420.000000,407.000000,13.000000,25.000000,0.000000,0.000000,0.520016,0.871027,0.112670,0.216673,0.000000,420.000000,407.000000,13.000000,25.000000,0.000000,0.000000:
0000
0000
0000
0000
,
0000
0000
0000
0000
,
0000
0000
0000
0000
,
0000
0000
0000
0000
,
0100
0001
0001
1000
,
0001
0001
0100
0001
,
0010
0000
0100
0000
,
1000
0001
0100
0001
,
1000
0010
0010
0100
,
0001
0001
0010
0100
,
1000
0000
0001
0000
,
1000
0010
0110
0000
,
0001
1000
0100
0000
,
1000
0001
0100
0000
,
0010
0100
0010
0100
,
0010
1000
0100
0000
,
0010
0100
1000
0000
,
0010
0100
0001
0000
,
1000
0100
0001
0001
,
0100
1000
0010
0000
,
0100
0001
0010
0000
,
0010
0100
1000
0000
,
1000
0001
1000
0001
,
0010
0100
1000
0000
,
0001
0100
0010
0000
,
1000
0100
0010
0000
,
0002
0000
0100
0000
,
1000
0000
0013
0000
,
1000
1000
0100
0010
,
0100
1000
0001
0000
,
0001
0001
0100
0001
,
0010
0100
1000
0000
,
0001
1000
0001
0000
,
1000
0001
1000
0000
,
0020
0000
0001
0000
,
0100
0000
1030
0000
,
0001
0100
1000
0000
,
0001
0100
1000
0000
,
0001
0100
1000
1000
,
0001
0100
1000
0000
,
0100
0001
0010
0000
,
0100
1000
0010
0000
,
1100
0000
0101
0000
,
1100
0000
0000
0000
,
0002
0000
1003
0001
,
0200
0000
0310
1000
,
0200
0000
1300
0001
,
0200
0010
0310
0000
,
1000
0100
0010
0100
,
2000
0000
3001
0000
,
0001
0000
1000
0100
,
0001
0100
0100
0000
,
1000
0010
0100
0000
,
0100
0010
1000
0000
,
0001
0000
1000
0100
,
0001
0000
0100
0000
,
1000
0010
0100
0100
,
0010
1000
0100
0000
,
0002
0000
1000
0000
,
2003
0000
0001
0000
,
3010
0000
1000
0100
,
0010
0000
0010
0100
,
1000
0000
0001
0000
,
1000
0100
0010
0000
,
1000
0001
0100
0001
,
1000
0000
0001
0010
,
0100
0000
1000
0000
,
0001
0100
0010
0000
,
1000
0000
0100
0000
,
1000
0000
0100
0000
,
0010
0000
0001
0000
,
0010
0000
0001
0000
,
1000
0000
0101
0000
,
0001
0000
1100
0000
,
0000
0000
0000
0010
,
0220
0000
0330
0000
,
0001
0010
0100
0001
,
0010
0100
1000
0010
,
0100
1000
0010
0100
,
0002
0000
1003
0000
,
1000
0100
0001
1000
,
0010
0001
1000
0100
,
0001
1000
0010
0001
,
2000
0000
3001
0000
,
0010
1000
0100
0010
,
0001
0100
0010
1000
,
0100
0010
0001
0100
,
0020
0000
0031
0000
,
1000
0100
0001
1000
,
0100
0001
1000
0010
,
0001
1000
0010
0001
,
0020
0000
1030
0000
,
0001
0000
0000
0001
1000
0000
1000
0000
,
0001
1000
0100
0000
,
1000
0000
0000
1000
0001
0000
0001
0000
,
1000
0001
0100
0000
,
0010
0000
0000
1000
0100
0000
0000
0000
,
0010
0000
0000
0001
0100
0000
0000
0000
,
0010
0000
0110
0000
,
0100
0000
0110
0000
,
0001
0000
0000
1000
0100
0000
1000
0000
,
0010
0100
0001
0000
,
1000
0000
0000
0001
0100
0000
0001
0000
,
0010
0100
1000
0000
,
0002
0000
2003
0000
,
3020
0000
0230
0000
,
0301
0010
0100
1000
,
0001
0000
1001
0000
,
0001
0000
0000
1000
0200
0000
0000
0000
,
0300
0000
0000
0000
,
0010
0000
0000
0001
0200
0000
0000
0000
,
0300
0000
0000
0000
,
0010
0000
0000
0100
0002
0000
0000
0000
,
0003
0000
0000
0000
0000
0000
0000
1000
,
0001
0000
0000
0001
1000
0000
0001
0000
,
1000
0000
1001
0000
,
1000
1000
1000
0001
,
0001
0001
1000
1000
,
1000
0010
0100
0001
,
1000
0000
0000
0000
,
0001
0001
0001
0100
,
0100
0100
0010
0010
,
0010
1000
0001
0100
,
0001
0000
0000
0000
,
1000
0100
0010
0000
1000
0100
0010
0000
,
1000
0000
0001
0100
0200
0000
0300
0000
,
0001
0010
0100
0000
0001
0010
0100
0000
,
0001
0000
1000
0100
0200
0000
0300
0000
,
1000
0100
0001
0000
0001
0100
1000
0000
,
1000
0000
0001
0100
0200
0000
0310
0000
,
1000
0001
1000
0001
1000
0000
0001
1000
,
0001
1000
0001
0000
0010
0100
0010
0001
,
1000
1001
0001
1001
,
1000
0000
0001
0010
0100
0000
1000
0010
,
0010
0000
0000
0000
;

//---------------dance-single - ----------------
#NOTES:
     dance-single:
     :
     Easy:
     8:
     0.402394,0.583935,0.260008,0.268675,0.000000,325.000000,295.000000,30.000000,31.000000,0.000000,0.000000,0.402394,0.583935,0.260008,0.268675,0.000000,325.000000,295.000000,30.000000,31.000000,0.000000,0.000000:
0000
0000
0000
0000
,
0000
0000
0000
0000
,
0000
0000
0000
0000
,
0000
0000
0000
0000
,
1000
0000
1000
0000
,
0001
0000
0001
0000
,
1000
0000
1000
0000
,
0001
0000
0010
0000
,
1000
0000
1000
0000
,
0001
0000
0001
0000
,
1000
0000
1000
0000
,
0010
0000
0001
0000
,
0200
0000
0010
0000
,
0010
0000
0310
0000
,
1000
0000
0100
0000
,
0010
0000
0001
0000
,
1000
0000
0100
0010
,
0200
0000
0310
0000
,
0200
0000
1300
0000
,
0200
0000
0301
0000
,
0100
0000
1000
0000
,
0010
0000
0100
0000
,
0001
0000
0010
0000
,
0100
0000
1000
0000
,
0001
0000
0010
0000
,
0001
0000
0100
0000
,
2002
0000
0000
0000
,
3003
0000
0000
0000
,
0020
0000
0100
0000
,
0100
0000
0130
0000
,
1000
0000
0010
0000
,
0100
0000
0001
0000
,
0020
0000
0031
0000
,
0020
0000
0130
0000
,
0020
0000
1030
0000
,
0020
0000
0031
0000
,
0100
0000
0010
0000
,
1000
0000
0001
0000
,
0010
0000
1000
0000
,
0100
0000
1000
0000
,
0001
0000
0000
0001
0000
0000
1000
0000
,
0000
1000
0000
0000
0010
0000
0000
0010
,
0000
0000
0100
0000
0000
0100
0000
0000
,
0001
0001
1000
1000
,
2002
0000
3000
0000
,
0003
0000
1000
0100
,
1000
0100
0010
0000
,
0001
0100
0001
0000
,
0001
0000
0000
0000
,
0000
0000
0001
0100
,
0001
0100
0010
0000
,
1000
0100
1000
0000
,
1000
0000
0000
0000
,
0000
0000
0100
0010
,
0100
0010
0100
0000
,
0010
0100
0010
0000
,
1001
0000
0000
0000
,
0000
0000
0000
0000
,
0001
0100
0001
0100
,
0000
0001
0100
0001
,
0100
0000
0000
0000
,
0000
0000
1000
0100
,
0010
0001
1000
0000
,
0001
1000
0001
0000
,
1001
0000
0000
0000
,
0000
0000
0001
0100
,
0001
1000
0100
0000
,
1000
0001
0100
0000
,
1001
0000
0000
0000
,
0000
0000
1000
0100
,
1000
0100
0010
0000
,
0001
1000
0001
0000
,
0010
0000
0100
0000
,
0001
0000
1000
0000
,
0110
0000
1000
1000
,
0001
0000
0000
0000
,
1000
0100
1000
0100
,
1000
0100
1000
0100
,
1000
0100
1000
0100
,
2000
0000
3000
0000
,
0001
0100
0001
0100
,
0001
0100
0001
0100
,
0001
0100
0001
0100
,
0002
0000
0003
0000
,
1000
0010
1000
0010
,
1000
0010
1000
0010
,
1000
0010
1000
0010
,
2000
0000
3000
0000
,
0001
0010
0001
0010
,
0001
0010
0001
0010
,
0001
0010
0001
0010
,
0002
0000
0003
0000
,
1000
0000
1100
0000
,
0001
0000
0101
0000
,
0100
0000
0110
0000
,
1001
0000
0000
0000
,
0001
0000
0011
0000
,
1000
0000
1010
0000
,
1000
0000
0110
0000
,
1001
0000
0000
0000
,
0001
0000
0101
0000
,
1000
0000
1100
0000
,
0011
0000
0110
0000
,
1100
0000
0000
0000
,
0002
0000
2003
0000
,
3020
0000
0230
0000
,
0301
1000
0001
1000
,
0002
0003
2000
3000
,
0110
0000
0220
0000
,
0330
0000
0000
0000
,
1001
0000
2002
0000
,
3003
0000
0000
0000
,
0110
0000
0220
0000
,
0330
0000
0000
0000
,
0001
0000
1000
0000
,
0001
0000
0001
0000
,
1001
0000
1000
0000
,
1000
0000
0000
0000
,
1001
0000
0001
0000
,
0001
0000
0000
0000
,
0101
0000
0100
0000
,
0100
0000
0000
0000
,
1010
0000
0010
0000
,
0010
0000
0000
0000
,
1000
0001
1000
0001
,
0010
0010
0010
0000
,
0001
1000
0001
1000
,
0010
0010
0010
0000
,
1000
0001
1000
0001
,
0100
0100
0100
0000
,
0001
1000
0100
0010
,
0001
0100
0010
1000
,
0001
0010
1000
0100
,
1000
0010
0001
0100
,
2002
0000
0000
3003
;

//---------------dance-single - ----------------
#NOTES:
     dance-single:
     :
     Beginner:
     4:
     0.226579,0.348411,0.026001,0.164672,0.000000,183.000000,180.000000,3.000000,19.000000,0.000000,0.000000,0.226579,0.348411,0.026001,0.164672,0.000000,183.000000,180.000000,3.000000,19.000000,0.000000,0.000000:
// measure 0
0000
0000
0000
0000
,  // measure 1
0000
0000
0000
0000
,  // measure 2
0000
0000
0000
0000
,  // measure 3
0000
0000
0000
0000
,  // measure 4
1000
0000
0000
0000
,  // measure 5
0001
0000
0000
0000
,  // measure 6
1000
0000
0000
0000
,  // measure 7
0001
0000
0000
0000
,  // measure 8
1000
0000
0000
0000
,  // measure 9
0001
0000
0000
0000
,  // measure 10
1000
0000
0000
0000
,  // measure 11
0010
0000
0000
0000
,  // measure 12
0100
0000
0100
0000
,  // measure 13
0010
0000
0010
0000
,  // measure 14
1000
0000
0000
0000
,  // measure 15
0010
0000
0000
0000
,  // measure 16
1000
0000
0100
0000
,  // measure 17
0100
0000
0010
0000
,  // measure 18
0100
0000
0000
0000
,  // measure 19
0100
0000
0000
0000
,  // measure 20
0100
0000
1000
0000
,  // measure 21
0010
0000
0100
0000
,  // measure 22
0001
0000
0000
0000
,  // measure 23
0100
0000
0000
0000
,  // measure 24
0001
0000
0010
0000
,  // measure 25
0001
0000
0100
0000
,  // measure 26
0001
0000
0000
0000
,  // measure 27
0000
0000
0000
0000
,  // measure 28
0010
0000
0100
0000
,  // measure 29
0100
0000
0100
0000
,  // measure 30
1000
0000
0000
0000
,  // measure 31
0100
0000
0000
0000
,  // measure 32
0010
0000
0001
0000
,  // measure 33
0010
0000
0100
0000
,  // measure 34
0010
0000
0000
0000
,  // measure 35
0010
0000
0000
0000
,  // measure 36
0100
0000
0010
0000
,  // measure 37
1000
0000
0001
0000
,  // measure 38
0010
0000
1000
0000
,  // measure 39
0100
0000
1000
0000
,  // measure 40
0002
0000
0003
0000
,  // measure 41
2000
0000
3000
0000
,  // measure 42
0020
0000
0030
0000
,  // measure 43
0200
0000
0300
0000
,  // measure 44
0100
0000
0000
0000
,  // measure 45
1000
0000
0000
0000
,  // measure 46
1000
0000
0000
0000
,  // measure 47
0001
0000
0000
0000
,  // measure 48
0001
0000
0000
0000
,  // measure 49
0100
0000
0000
0000
,  // measure 50
0001
0000
0000
0000
,  // measure 51
1000
0000
0000
0000
,  // measure 52
1000
0000
0000
0000
,  // measure 53
0010
0000
0000
0000
,  // measure 54
0100
0000
0000
0000
,  // measure 55
0010
0000
0000
0000
,  // measure 56
1001
0000
0000
0000
,  // measure 57
0000
0000
0000
0000
,  // measure 58
0002
0000
0003
0000
,  // measure 59
0001
0000
0000
0000
,  // measure 60
0002
0000
0003
0000
,  // measure 61
0000
0000
0000
0000
,  // measure 62
1000
0000
1000
0000
,  // measure 63
1000
0000
1000
0000
,  // measure 64
2000
0000
3000
0000
,  // measure 65
0000
0000
0000
0000
,  // measure 66
0001
0000
0000
0000
,  // measure 67
1000
0000
0000
0000
,  // measure 68
1001
0000
0000
0000
,  // measure 69
0000
0000
0000
0000
,  // measure 70
1000
0000
0010
0000
,  // measure 71
0001
0000
0001
0000
,  // measure 72
0010
0000
0100
0000
,  // measure 73
0001
0000
1000
0000
,  // measure 74
0010
0000
1000
0000
,  // measure 75
0001
0000
0000
0000
,  // measure 76
2000
0000
0000
3000
,  // measure 77
1000
0000
0000
0000
,  // measure 78
2000
0000
0000
3000
,  // measure 79
1000
0000
0000
0000
,  // measure 80
0002
0000
0000
0003
,  // measure 81
0001
0000
0000
0000
,  // measure 82
0002
0000
0000
0003
,  // measure 83
0001
0000
0000
0000
,  // measure 84
0020
0000
0000
0030
,  // measure 85
0010
0000
0000
0000
,  // measure 86
0020
0000
0000
0030
,  // measure 87
0010
0000
0000
0000
,  // measure 88
0200
0000
0000
0300
,  // measure 89
0100
0000
0000
0000
,  // measure 90
0200
0000
0000
0300
,  // measure 91
0100
0000
0000
0000
,  // measure 92
1000
0000
1000
0000
,  // measure 93
0001
0000
0001
0000
,  // measure 94
0100
0000
0100
0000
,  // measure 95
0010
0000
0010
0000
,  // measure 96
0001
0000
0001
0000
,  // measure 97
1000
0000
1000
0000
,  // measure 98
1000
0000
0010
0000
,  // measure 99
0001
0000
1000
0000
,  // measure 100
0001
0000
0100
0000
,  // measure 101
1000
0000
0100
0000
,  // measure 102
0001
0000
0010
0000
,  // measure 103
0100
0000
1000
0000
,  // measure 104
0001
0000
1000
0000
,  // measure 105
0010
0000
0100
0000
,  // measure 106
0001
0000
0001
0000
,  // measure 107
0001
0000
1000
0000
,  // measure 108
0100
0000
0200
0000
,  // measure 109
0300
0000
0000
0000
,  // measure 110
0010
0000
0020
0000
,  // measure 111
0030
0000
0000
0000
,  // measure 112
1000
0000
2000
0000
,  // measure 113
3000
0000
0000
0000
,  // measure 114
0001
0000
0001
0000
,  // measure 115
0002
0000
0000
0003
,  // measure 116
0001
0000
0000
0000
,  // measure 117
1000
0000
0000
0000
,  // measure 118
0001
0000
0000
0000
,  // measure 119
0001
0000
0000
0000
,  // measure 120
0100
0000
0000
0000
,  // measure 121
0100
0000
0000
0000
,  // measure 122
0010
0000
0000
0000
,  // measure 123
0010
0000
0000
0000
,  // measure 124
1000
0000
1000
0000
,  // measure 125
1000
1000
1000
0000
,  // measure 126
0001
0000
0001
0000
,  // measure 127
0001
0001
0001
0000
,  // measure 128
0100
0000
0100
0000
,  // measure 129
0100
0100
0100
0000
,  // measure 130
0010
0000
0010
0000
,  // measure 131
0010
0010
0010
0000
,  // measure 132
0001
0000
1000
0000
,  // measure 133
0010
0000
0100
0000
,  // measure 134
1001
0000
0000
0000
;
