#VERSION:0.83;
#TITLE:SP-TRIP MACHINE;
#SUBTITLE:(for beatmania II);
#ARTIST:dj TAKA feat. DE-SIRE;
#TITLETRANSLIT:;
#SUBTITLETRANSLIT:;
#ARTISTTRANSLIT:;
#GENRE:;
#ORIGIN:;
#CREDIT:;
#BANNER:SP-TRIP MACHINE~JUNGLE MIX~.png;
#BACKGROUND:SP-TRIP MACHINE~JUNGLE MIX~-bg.png;
#PREVIEWVID:;
#JACKET:SP-TRIP MACHINE~JUNGLE MIX~-jacket.png;
#CDIMAGE:;
#DISCIMAGE:;
#LYRICSPATH:;
#CDTITLE:;
#MUSIC:SP-TRIP MACHINE (for beatmania II).ogg;
#OFFSET:0.000000;
#SAMPLESTART:1.417007;
#SAMPLELENGTH:17.000002;
#SELECTABLE:YES;
#DISPLAYBPM:168.000000;
#BPMS:0.000=168.000;
#STOPS:;
#DELAYS:;
#WARPS:;
#TIMESIGNATURES:0.000=4=4;
#TICKCOUNTS:0.000=4;
#COMBOS:0.000=1;
#SPEEDS:0.000=1.000=0.000=0;
#SCROLLS:0.000=1.000;
#FAKES:;
#LABELS:0.000=Song Start;
#BGCHANGES:;
#KEYSOUNDS:;
#ATTACKS:
;

//---------------dance-single - ----------------
#NOTEDATA:;
#CHARTNAME:;
#STEPSTYPE:dance-single;
#DESCRIPTION:;
#CHARTSTYLE:;
#DIFFICULTY:Challenge;
#METER:15;
#RADARVALUES:0.765094,1.085164,0.304033,0.105242,0.321573,458.000000,432.000000,26.000000,9.000000,0.000000,0.000000,0.000000,0.000000,0.000000,0.765094,1.085164,0.304033,0.105242,0.321573,458.000000,432.000000,26.000000,9.000000,0.000000,0.000000,0.000000,0.000000,0.000000;
#CREDIT:;
#DISPLAYBPM:168.000000;
#NOTES:
// measure 0
0000
0000
0000
0000
,  // measure 1
0000
0000
0000
0000
,  // measure 2
0000
0000
0000
0000
,  // measure 3
0000
0000
0000
0000
,  // measure 4
0000
0000
0000
0000
,  // measure 5
1001
0100
0000
1001
0100
0000
1000
0100
,  // measure 6
0010
0100
1000
0010
0100
0010
1000
0100
,  // measure 7
1001
0100
0000
1001
0100
0000
0001
0010
,  // measure 8
1100
0010
0001
0100
0010
0100
0001
0010
,  // measure 9
0001
1000
0001
0000
1000
0000
0001
1000
0001
0000
1000
0000
0010
1000
0010
0000
,  // measure 10
0100
0001
0100
0000
0001
0100
0001
0000
0100
0001
0100
0000
0001
0010
0001
0000
,  // measure 11
1000
0001
0002
0000
0103
0010
1000
0010
,  // measure 12
0100
0000
0010
0000
1000
0000
0100
1000
0100
1000
0100
1000
0100
0000
1000
0000
,  // measure 13
1000
0010
0200
0000
0310
0100
0001
0100
,  // measure 14
0010
1000
0100
0010
0001
0010
0100
1000
,  // measure 15
0100
1001
1002
0000
0103
0010
0100
0001
,  // measure 16
1000
0100
0010
0100
1001
0010
0010
0010
,  // measure 17
0100
0001
0100
0010
1000
0100
1000
0010
,  // measure 18
0100
0001
0100
0010
1000
0100
0010
0001
,  // measure 19
0010
0100
1000
0010
0100
0010
0001
0010
,  // measure 20
0100
0010
1000
0010
0100
0010
0001
0010
,  // measure 21
0100
0010
1000
0100
1000
0010
1000
0100
,  // measure 22
1000
0010
1000
0100
1000
0010
0100
0001
,  // measure 23
0100
0010
0100
0001
0100
0010
0100
0001
,  // measure 24
0100
0010
0100
0001
0010
0001
0010
0001
,  // measure 25
1000
0100
1000
0100
1000
0000
0001
0100
0001
0100
0001
0000
1000
0010
0100
0001
,  // measure 26
0100
0010
1000
0100
1000
0010
0100
0001
0100
0010
0100
0001
0010
0001
0100
0001
,  // measure 27
1000
0000
0100
0000
1000
0000
0010
1000
0010
0100
0010
1000
0100
1000
0100
0010
,  // measure 28
0001
0010
0001
0010
0001
0100
0001
0100
0001
0100
0010
0100
0010
1000
0100
0010
,  // measure 29
0100
0000
1000
0100
0001
0100
1000
0000
0010
0100
0010
1000
0100
1000
0010
0100
,  // measure 30
0001
0100
0001
0100
0010
0100
0001
0100
0001
0010
0001
0010
0001
0100
0001
1000
,  // measure 31
0001
0100
0010
0100
0001
1000
0100
1000
,  // measure 32
0010
0000
1000
0000
0010
0000
0100
0000
0001
1000
0100
1000
0010
1000
0100
1000
,  // measure 33
0001
0001
0102
0000
0100
0000
0100
0000
,  // measure 34
0010
0010
0000
1000
0000
1000
1003
0000
,  // measure 35
1000
1000
2001
0000
0010
0000
0000
0010
,  // measure 36
0010
0010
0000
0001
0000
0010
3010
0000
,  // measure 37
0010
0010
0120
0000
0100
0000
0100
0000
,  // measure 38
1000
0100
0000
1000
0000
0100
1030
0000
,  // measure 39
0100
0100
0201
0000
0010
0000
0000
0001
,  // measure 40
0000
0001
0000
0001
0001
0001
0301
0100
,  // measure 41
1001
0000
1100
0000
1000
0010
1000
0010
,  // measure 42
0100
0001
0100
0001
0010
0001
0010
0001
,  // measure 43
1000
0100
1000
0010
1000
0010
0100
0001
,  // measure 44
0100
0001
0100
0010
0100
0001
0100
0001
,  // measure 45
1000
0100
0010
0100
1000
0010
0100
0010
,  // measure 46
0100
0001
0100
0010
0100
0001
0010
0001
,  // measure 47
0100
0001
1000
0100
1000
0010
0100
0001
,  // measure 48
0100
0010
1000
0100
0010
0100
1000
0001
,  // measure 49
1001
0100
0000
1001
0100
0000
1000
0100
,  // measure 50
0010
0001
0010
0100
1000
0100
0010
0001
,  // measure 51
1001
0100
0000
1001
0100
0000
1000
0010
,  // measure 52
0100
0001
0100
0010
1000
0010
0100
0001
,  // measure 53
1001
0100
0000
1001
0100
0000
1000
0010
,  // measure 54
0100
0010
1000
0001
0100
0010
0100
0001
,  // measure 55
1001
0100
0000
1001
0100
0000
1000
0001
,  // measure 56
0100
1001
0100
1001
0100
1001
0100
0100
,  // measure 57
0000
2002
0000
0000
0000
0000
0000
0000
,  // measure 58
3003
0000
0000
0000
;
