#TITLE:SHOX;
#SUBTITLE:;
#ARTIST:RAM;
#TITLETRANSLIT:;
#SUBTITLETRANSLIT:;
#ARTISTTRANSLIT:;
#GENRE:;
#CREDIT:;
#BANNER:;
#BACKGROUND:DDR CD-bg.JPG;
#LYRICSPATH:;
#CDTITLE:;
#MUSIC:SHOX.ogg;
#OFFSET:-0.482000;
#SAMPLESTART:11.447694;
#SAMPLELENGTH:15.000003;
#SELECTABLE:YES;
#BPMS:0.000000=175.000000
;
#STOPS:
;
#BGCHANGES:;
#KEYSOUNDS:;
#ATTACKS:;

//---------------dance-single - ----------------
#NOTES:
     dance-single:
     :
     Hard:
     14:
     0.723966,0.782391,0.342931,0.000000,0.215920,399.000000,372.000000,27.000000,0.000000,0.000000,0.000000,0.723966,0.782391,0.342931,0.000000,0.215920,399.000000,372.000000,27.000000,0.000000,0.000000,0.000000:
0000
0000
0000
0000
,
0000
0000
0000
0000
,
0000
0000
0000
0000
,
0000
0000
0000
0000
0000
0000
0000
1000
,
1000
0000
0000
0000
0000
0000
0000
0001
,
0001
0000
0000
0000
0000
0000
0000
1000
,
1000
0000
0000
0000
,
1001
0000
0000
1000
0001
1000
0001
0000
0001
1000
0001
1000
0000
0000
0010
0000
,
0010
0000
0010
1000
0010
0001
0010
0010
,
0010
1000
0001
0100
0001
1000
0001
0001
,
0001
1000
0100
0010
1000
0100
0001
0001
,
0001
0010
1000
0001
0010
1000
0001
0001
,
0001
0100
0001
0010
0001
0100
0010
0010
,
0010
0100
1000
0001
1000
0001
0100
0100
,
0100
0010
0001
0010
0100
0010
0001
0001
,
0001
0000
0000
1000
0001
1000
0001
0000
0001
1000
0001
1000
0000
0000
0001
0000
,
1000
0000
1000
0100
1000
0100
0001
0100
,
0001
0100
1000
0010
1000
0010
0001
0010
,
0001
0010
1000
0010
0001
1000
0100
0001
,
1000
0010
0001
1000
0100
0001
1000
0010
,
0001
0000
0000
0000
1001
0000
0000
1001
0000
0000
0000
0000
1000
0000
0100
0000
,
0001
0000
0000
0000
1001
0000
0000
1001
0000
0000
0000
0000
1000
0000
0010
0000
,
0001
0000
0000
0000
1001
0000
0000
1001
0000
0000
0000
0000
1000
0000
0100
0000
,
0001
0000
0000
0000
1001
0000
0000
1001
0000
0000
0000
0000
1000
0000
0010
0000
,
0001
0000
0010
0100
0001
0100
0010
1000
,
0001
1000
0100
1000
0010
0100
0010
0100
,
0010
1000
0001
0100
0001
1000
0001
0010
,
0100
1000
0010
0100
0001
0010
0001
1000
,
0001
0010
0100
0010
0100
1000
0010
1000
,
0010
0100
0001
0010
0100
1000
0100
1000
,
0001
1000
0010
0100
0010
0100
0010
0100
,
1001
0000
0000
1000
0001
1000
0001
0000
0001
1000
0001
1000
0000
0000
0000
0000
,
0100
0000
0000
0000
0000
0000
1000
0000
0000
0000
0100
0000
0000
0000
0000
0100
0000
0000
1000
0000
0000
1000
0000
0000
,
0100
0000
0000
0000
0000
0000
0000
0000
0000
0000
0000
0000
0000
0000
0000
0000
0000
0000
0000
0000
0000
0000
0000
0000
0000
0000
0000
0000
0000
0000
0000
0000
0000
0000
0000
0000
0000
0000
0100
0000
0000
0000
0000
0000
0000
0000
0000
0000
0000
0000
0000
0000
0000
0000
0000
0000
0000
0000
0000
0000
0000
0000
0000
0000
0000
0000
0000
0000
0000
0000
0000
0000
0000
0000
0000
0000
0000
0100
0000
0000
0000
0000
0000
0000
0000
0000
0000
0000
0000
0000
0000
0000
0000
0000
0000
0000
0000
0000
0000
0000
0000
0000
0000
0000
0000
0000
0000
0000
0000
0000
0000
0000
0000
0000
0000
0100
0000
0000
0000
0000
0000
0000
0000
0000
0000
0000
0000
0000
0000
0000
0000
0000
0000
0000
0000
0000
0000
0000
0000
0000
0000
0000
0000
0000
0100
0000
0000
0000
0000
0000
0000
0000
0000
0000
0000
0000
0000
0000
0000
0000
0000
0000
0000
0000
0000
0000
0000
0000
0000
0000
0000
0000
0000
0000
0000
0000
0000
0000
0000
0000
0000
0000
0000
0000
0000
0000
0000
0000
0000
0000
0000
0000
,
0100
0010
0001
0010
0100
1000
0100
0010
,
0001
0000
0000
0000
0000
0000
0000
0000
0000
0000
0000
0000
0000
0000
0000
0000
0000
0000
0000
0000
0000
0000
0000
0000
0000
0000
0000
0000
0000
0000
0000
0000
0000
0000
0000
0000
0000
0000
0001
0000
0000
0000
0000
0000
0000
0000
0000
0000
0000
0000
0000
0000
0000
0000
0000
0000
0000
0000
0000
0000
0000
0000
0000
0000
0000
0000
0000
0000
0000
0000
0000
0000
0000
0000
0000
0000
0000
0001
0000
0000
0000
0000
0000
0000
0000
0000
0000
0000
0000
0000
0000
0000
0000
0000
0000
0000
0000
0000
0000
0000
0000
0000
0000
0000
0000
0000
0000
0000
0000
0000
0000
0000
0000
0000
0000
0001
0000
0000
0000
0000
0000
0000
0000
0000
0000
0000
0000
0000
0000
0000
0000
0000
0000
0000
0000
0000
0000
0000
0000
0000
0000
0000
0000
0000
0001
0000
0000
0000
0000
0000
0000
0000
0000
0000
0000
0000
0000
0000
0000
0000
0000
0000
0000
0000
0000
0000
0000
0000
0000
0000
0000
0000
0000
0000
0000
0000
0000
0000
0000
0000
0000
0000
0000
0000
0000
0000
0000
0000
0000
0000
0000
0000
,
0001
0000
0001
0010
0100
1000
0100
0010
,
0001
0000
0000
0000
0000
0000
0000
0000
0000
0000
0000
0000
0000
0000
0000
0000
0000
0000
0000
0000
0000
0000
0000
0000
0000
0000
0000
0000
0000
0000
0000
0000
0000
0000
0000
0000
0000
0000
0001
0000
0000
0000
0000
0000
0000
0000
0000
0000
0000
0000
0000
0000
0000
0000
0000
0000
0000
0000
0000
0000
0000
0000
0000
0000
0000
0000
0000
0000
0000
0000
0000
0000
0000
0000
0000
0000
0000
0001
0000
0000
0000
0000
0000
0000
0000
0000
0000
0000
0000
0000
0000
0000
0000
0000
0000
0000
0000
0000
0000
0000
0000
0000
0000
0000
0000
0000
0000
0000
0000
0000
0000
0000
0000
0000
0000
0001
0000
0000
0000
0000
0000
0000
0000
0000
0000
0000
0000
0000
0000
0000
0000
0000
0000
0000
0000
0000
0000
0000
0000
0000
0000
0000
0000
0000
0001
0000
0000
0000
0000
0000
0000
0000
0000
0000
0000
0000
0000
0000
0000
0000
0000
0000
0000
0000
0000
0000
0000
0000
0000
0000
0000
0000
0000
0000
0000
0000
0000
0000
0000
0000
0000
0000
0000
0000
0000
0000
0000
0000
0000
0000
0000
0000
,
1001
0000
0001
0010
0100
1000
0100
0010
,
0001
0000
0000
0001
0000
0000
0001
0000
0000
0001
0000
0000
0001
0000
1000
0000
,
0010
1000
0010
0001
0010
0010
0010
1000
,
0001
0100
0001
1000
0001
0001
0001
1000
,
0100
0010
1000
0100
0001
0001
0001
0010
,
1000
0001
0010
1000
0001
0001
0001
0100
,
0001
0010
0001
0100
0010
0010
0010
0100
,
1000
0001
1000
0001
0100
0100
0100
0010
,
0001
0010
0100
0010
0001
0001
0001
0000
,
0001
0000
0000
1000
0001
1000
0001
0000
0001
1000
0001
1000
0000
0000
0000
0000
,
1000
1000
1000
0100
0010
0100
1000
1100
,
1001
1000
0100
0001
1000
0010
0001
0011
,
1001
0010
0100
1000
0001
1000
0100
1100
,
1010
1000
0010
0001
1000
0100
0001
0011
,
1100
1000
0100
0010
1000
0100
0001
1001
,
0110
0010
0100
0010
0100
0010
0100
0110
,
1100
1000
0100
0010
0001
0010
0001
0011
,
1100
0000
0000
1000
0000
0000
1000
0000
0000
1000
0000
0000
1000
0000
1100
0000
,
1100
0000
0000
0000
;

//---------------dance-single - ----------------
#NOTES:
     dance-single:
     :
     Medium:
     11:
     0.471757,0.497885,0.393736,0.000000,0.076207,260.000000,229.000000,31.000000,0.000000,0.000000,0.000000,0.471757,0.497885,0.393736,0.000000,0.076207,260.000000,229.000000,31.000000,0.000000,0.000000,0.000000:
0000
0000
0000
0000
,
0000
0000
0000
0000
,
0000
0000
0000
0000
,
0000
0000
0000
0000
,
1000
1000
1000
1000
,
0001
0001
0001
0001
,
0100
0010
0100
0010
,
1000
0000
0000
1000
0000
0000
1000
0000
0000
1000
0000
0000
0001
0000
1000
0000
,
0100
0000
1000
0010
0100
0001
0100
0000
,
0010
0000
1000
0100
1000
0001
0100
0000
,
0001
0000
0010
0001
0010
0001
0100
0000
,
0010
0000
1000
0100
1000
0010
1000
0000
,
0001
0000
0100
0010
0100
0001
0100
0000
,
0010
0000
1000
0001
0100
0001
0100
0000
,
0001
0000
1000
0100
1000
0100
1000
0000
,
0001
0000
0000
0001
0000
0000
0001
0000
0000
0001
0000
0000
1000
0000
0001
0000
,
0010
0101
0010
0100
,
0010
1100
1000
0001
,
0100
0101
0001
1000
,
0100
1100
0010
0100
,
0001
1001
0001
1000
,
0010
1001
1000
0100
,
1000
1001
0001
0100
,
0010
0101
0010
0100
,
0010
1100
1000
0001
,
1000
0011
0001
1000
,
0010
1010
0010
1000
,
0001
1001
1000
0001
,
1000
0110
0001
0100
,
0010
0110
0010
1000
,
0001
0110
0001
1000
,
0100
0000
0000
0100
0000
0000
0100
0000
0000
0100
0000
0000
0100
0000
0010
0000
,
0100
0000
0000
0000
,
1001
0100
0000
0100
,
0010
0100
0010
0100
,
0100
1001
0000
1001
,
0010
0100
0010
0100
,
0010
1001
0000
1001
,
0010
0010
0010
1001
,
0010
0000
0000
0010
0000
0000
0010
0000
0000
0010
0000
0000
0010
0000
0100
0000
,
0010
0101
0010
0100
,
0010
1100
1000
0001
,
1000
0011
0001
1000
,
0010
1010
0010
1000
,
0001
1001
1000
0001
,
1000
0110
0001
0100
,
0010
0110
0010
1000
,
1000
0000
0000
1000
0000
0000
0001
0000
0000
0001
0000
0000
0100
0000
0010
0000
,
0100
0001
1000
0001
,
0100
0010
1000
0100
,
1000
0001
0100
0010
,
0100
0001
0100
0010
,
1000
0100
1000
0001
,
0100
0010
1000
0001
,
1000
0001
1000
0001
,
1001
0000
0000
1001
0000
0000
0100
0000
0000
0100
0000
0000
0010
0000
0100
0000
,
1001
0000
0000
0000
;

//---------------dance-single - ----------------
#NOTES:
     dance-single:
     :
     Easy:
     7:
     0.395550,0.460258,0.330230,0.000000,0.000000,218.000000,192.000000,26.000000,0.000000,0.000000,0.000000,0.395550,0.460258,0.330230,0.000000,0.000000,218.000000,192.000000,26.000000,0.000000,0.000000,0.000000:
0000
0000
0000
0000
,
0000
0000
0000
0000
,
0000
0000
0000
0000
,
0000
0000
0000
0000
,
1000
0000
1000
0000
,
0001
0000
0001
0000
,
1000
0000
1000
0000
,
1001
0000
0000
0110
0000
0000
1001
0000
,
0001
0100
0010
0100
,
0010
1000
0100
1000
,
0001
0100
0001
1000
,
0010
1000
0010
0100
,
0010
0100
0001
0100
,
0010
1000
0100
0001
,
0010
1000
0100
1000
,
1001
0000
0000
0110
0000
0000
1001
0000
,
0100
0001
0100
0100
,
0010
1000
0010
0010
,
1000
0100
1000
1000
,
0001
0100
0001
0001
,
1000
0010
0100
0001
,
0100
0010
1000
0001
,
1000
0100
0010
0001
,
1000
0100
0010
0001
,
0100
0010
1000
0100
,
0010
0001
0100
0010
,
1000
0010
0100
0001
,
0001
0100
0010
1000
,
1000
0100
0001
0010
,
1000
0100
0001
0010
,
1000
1000
1000
1000
,
1001
0000
0000
0110
0000
0000
1001
0000
,
0000
0000
0000
0000
,
1001
1000
0100
1000
,
0001
0100
0010
0100
,
1001
0001
0100
0010
,
1000
0100
1000
0001
,
1001
0001
0100
0010
,
0100
0001
0100
0010
,
1001
0000
0000
0110
0000
0000
1001
0000
,
1000
0001
0100
0001
,
1001
0100
0010
1000
,
0100
1000
0001
0100
,
1001
0001
0100
0010
,
1000
0100
1000
0010
,
1001
0001
0100
0010
,
0100
0001
1000
0001
,
1001
0000
0000
0110
0000
0000
1001
0000
,
1100
1000
1000
1000
,
0101
0001
0001
0001
,
1000
0010
1000
0010
,
0100
0001
0100
0001
,
1000
0100
0001
0010
,
1000
0100
0001
0010
,
1000
0100
0001
0010
,
1001
0000
0000
0110
0000
0000
1001
0000
;

//---------------dance-single - ----------------
#NOTES:
     dance-single:
     :
     Beginner:
     3:
     0.176002,0.177022,0.000000,0.076207,0.000000,97.000000,97.000000,0.000000,6.000000,0.000000,0.000000,0.176002,0.177022,0.000000,0.076207,0.000000,97.000000,97.000000,0.000000,6.000000,0.000000,0.000000:
// measure 0
0000
0000
0000
0000
,  // measure 1
0000
0000
0000
0000
,  // measure 2
0000
0000
0000
0000
,  // measure 3
0000
0000
0000
0000
,  // measure 4
1000
0000
1000
0000
,  // measure 5
0001
0000
0001
0000
,  // measure 6
1000
0000
1000
0000
,  // measure 7
0002
0000
0000
0003
,  // measure 8
0001
0000
0010
0000
,  // measure 9
0010
0000
0100
0000
,  // measure 10
0001
0000
0001
0000
,  // measure 11
1000
0000
1000
0000
,  // measure 12
0010
0000
0001
0000
,  // measure 13
0010
0000
1000
0000
,  // measure 14
0010
0000
1000
0000
,  // measure 15
2000
0000
0000
3000
,  // measure 16
1000
0000
0100
0000
,  // measure 17
0010
0000
0010
0000
,  // measure 18
1000
0000
1000
0000
,  // measure 19
0001
0000
0001
0000
,  // measure 20
1000
0000
0100
0000
,  // measure 21
0100
0000
1000
0000
,  // measure 22
1000
0000
0010
0000
,  // measure 23
0001
0000
0001
0000
,  // measure 24
0100
0000
1000
0000
,  // measure 25
0010
0000
0100
0000
,  // measure 26
1000
0000
0100
0000
,  // measure 27
0001
0000
0010
0000
,  // measure 28
1000
0000
0001
0000
,  // measure 29
1000
0000
0001
0000
,  // measure 30
1000
0000
1000
0000
,  // measure 31
0020
0000
0000
0030
,  // measure 32
0010
0000
0000
0000
,  // measure 33
0010
0000
0100
0000
,  // measure 34
0001
0000
0010
0000
,  // measure 35
0001
0000
0100
0000
,  // measure 36
1000
0000
1000
0000
,  // measure 37
0001
0000
0100
0000
,  // measure 38
0100
0000
0100
0000
,  // measure 39
0200
0000
0000
0300
,  // measure 40
0100
0000
0100
0000
,  // measure 41
0001
0000
0010
0000
,  // measure 42
0100
0000
0001
0000
,  // measure 43
0001
0000
0100
0000
,  // measure 44
1000
0000
1000
0000
,  // measure 45
0001
0000
0100
0000
,  // measure 46
0100
0000
1000
0000
,  // measure 47
2000
0000
0000
3000
,  // measure 48
1000
1000
0000
0000
,  // measure 49
0001
0001
0000
0000
,  // measure 50
1000
1000
0000
0000
,  // measure 51
0001
0001
0000
0000
,  // measure 52
1000
1000
0000
0000
,  // measure 53
0001
0001
0000
0000
,  // measure 54
0100
0100
0000
0000
,  // measure 55
0020
0000
0000
0030
;
