#TITLE:SHOW U LOVE;
#SUBTITLE:;
#ARTIST:ENTITY;
#TITLETRANSLIT:;
#SUBTITLETRANSLIT:;
#ARTISTTRANSLIT:;
#GENRE:;
#CREDIT:;
#BANNER:;
#BACKGROUND:Show U Love-bg.jpg;
#LYRICSPATH:;
#CDTITLE:;
#MUSIC:Show_U_Love.ogg;
#OFFSET:-0.140000;
#SAMPLESTART:60.419991;
#SAMPLELENGTH:14.999999;
#SELECTABLE:YES;
#BPMS:0.000000=87.540001
,24.000000=175.100006
;
#STOPS:
;
#BGCHANGES:;
#KEYSOUNDS:;
#ATTACKS:;

//---------------dance-single - ----------------
#NOTES:
     dance-single:
     :
     Hard:
     13:
     0.635502,0.887336,0.630994,0.189298,0.094649,423.000000,363.000000,60.000000,18.000000,0.000000,0.000000,0.635502,0.887336,0.630994,0.189298,0.094649,423.000000,363.000000,60.000000,18.000000,0.000000,0.000000:
0000
0000
0000
0000
,
0000
0000
0000
0000
,
0012
0010
0010
0013
0100
0100
0100
0100
,
2010
0010
0010
3010
0100
0100
0100
0100
,
1002
0103
2001
3100
0102
0013
2100
3010
,
1000
0100
0010
0001
0100
0010
1000
0001
0110
0000
0000
1001
0000
0000
0110
0000
,
0100
0000
1001
0000
1000
0001
1000
0001
,
0100
1010
0001
0100
,
1000
0000
0100
0000
0001
0010
0001
0100
,
0001
0110
1000
0110
,
1000
0000
1100
0000
1000
0010
0100
0001
,
0010
0101
0001
0010
,
0100
0000
1000
0000
0010
0100
0010
0100
,
0010
0110
1001
1100
,
1000
0000
0101
0000
1000
0001
0100
0001
,
1000
0100
1000
1010
,
0010
0000
0100
0000
0001
0100
0010
0100
,
0001
0110
1001
0101
,
0001
0010
0100
1000
0001
1000
0010
0100
,
0001
1000
0100
1000
0001
0100
0001
1000
,
0100
1000
0010
0100
0001
0100
0010
1000
,
1001
0000
0100
1001
0000
0100
1001
0000
,
1001
0000
0000
0000
0100
0000
0000
0000
1000
0000
0000
0010
1000
0000
0001
0000
,
1000
0000
0000
0000
0001
0000
0000
0000
0100
0000
0000
0010
1000
0000
0001
0000
,
0110
0000
0000
0000
0100
0000
0000
0000
0001
0000
0000
0010
0001
0000
1000
0000
,
0001
0000
0000
0000
0100
0000
0000
0000
0010
0000
0000
1000
0010
0000
0100
0000
,
1001
0000
0000
0000
1000
0000
0000
0000
0001
0000
0000
0010
0100
0000
1000
0000
,
0010
0000
0000
0000
0100
0000
0000
0000
0001
0000
0000
0001
0100
0000
0010
0000
,
0110
0000
0000
0000
0100
0000
0000
0000
0010
0000
0000
1000
0001
0000
0100
0000
,
0001
0000
0000
0000
1000
0000
0000
0000
0100
0000
0000
1000
0010
0000
0100
0000
,
1001
0000
1100
0000
0001
0100
0001
0100
,
0010
1000
0100
1000
0010
0100
0001
0100
,
0001
0100
0010
0100
0010
0100
0010
1000
,
0010
1000
0100
1000
0100
1000
0010
0100
,
0001
0100
0010
1000
0100
1000
0010
0100
,
0001
1000
0100
1000
0100
1000
0010
0100
,
0001
0100
0001
0010
0001
0100
0001
0100
,
0001
1000
0000
1000
0010
0000
0010
0100
0000
0100
0001
0000
0001
1000
0001
0000
,
0210
0001
0010
0301
,
1002
0100
1000
0103
,
2001
0010
0001
3010
,
0102
0010
0100
0013
,
2001
3100
1002
0103
,
0012
0103
2010
3100
,
1002
0103
2001
3010
,
0110
0000
1000
0110
0000
0001
0110
0000
,
0100
0000
1001
0000
1000
0001
1000
0001
,
0100
1010
0001
0100
,
1000
0000
0100
0000
0001
0010
0001
0100
,
0001
0110
1000
0110
,
1000
0000
1100
0000
1000
0010
0100
0001
,
0010
0101
0001
0010
,
0100
0000
1000
0000
0010
0100
0010
0100
,
0010
0110
1001
1100
,
1000
0000
0101
0000
1000
0001
0100
0001
,
1000
0100
1000
1010
,
0010
0000
0100
0000
0001
0100
0010
0100
,
0001
0110
1001
0101
,
0001
0010
0100
1000
0001
1000
0010
0100
,
0001
1000
0100
1000
0001
0100
0001
1000
,
0100
1000
0010
0100
0001
0100
0010
1000
,
0001
1000
0100
1000
0001
0100
0001
1000
,
2002
0000
3003
0000
;

//---------------dance-single - ----------------
#NOTES:
     dance-single:
     :
     Medium:
     10:
     0.485265,0.690150,0.609961,0.252398,0.005258,323.000000,265.000000,58.000000,24.000000,0.000000,0.000000,0.485265,0.690150,0.609961,0.252398,0.005258,323.000000,265.000000,58.000000,24.000000,0.000000,0.000000:
0000
0000
0000
0000
,
0000
0000
0000
0000
,
1000
1000
1000
1001
0010
0010
0010
1001
,
0100
0100
0100
1001
0001
0001
0001
1001
,
1000
0100
2000
0000
3001
0100
0002
0000
,
0103
0000
0010
0000
0200
0000
0000
0000
0310
0000
0000
0100
0000
0000
1001
0000
,
1100
1001
0100
0101
,
0001
1000
0100
1000
,
0010
0101
0100
0110
,
0001
1000
0100
1000
,
0001
0101
0001
1000
,
0010
1010
1100
1010
,
1000
0100
1000
0001
,
0100
0101
0001
0010
,
0001
0101
0001
1000
,
0100
1000
0010
0100
,
0001
1000
0100
1000
,
0001
0100
0001
1000
,
0001
0100
0001
0100
0001
0100
0001
0000
,
1000
0010
1000
0010
1000
0010
1000
0000
,
0100
1000
0100
1000
0100
1000
0100
0000
,
0010
0001
0010
0001
0010
0001
0010
0000
,
1002
0103
1000
0001
,
2001
3100
0001
1000
,
1020
0130
0001
1000
,
0201
0310
0100
0001
,
1002
0103
0001
1000
,
2001
3100
1000
0010
,
0120
0130
0210
0310
,
1002
0100
0010
0103
,
0100
1001
0100
1001
,
0001
1000
0001
1000
,
0010
1001
0010
1001
,
1000
0001
1000
0001
,
1000
0110
1000
0110
,
0001
1000
0001
1000
,
0001
0110
0001
0110
,
0001
1000
0001
1000
,
2100
0100
0100
3100
,
2001
0001
0001
3001
,
0102
0100
0100
0103
,
0012
0010
0010
0013
,
2001
0010
0100
3010
,
1002
0100
0010
0103
,
2001
3100
1002
0103
,
1002
0013
2001
3010
,
1001
0100
0001
0100
,
0010
1000
0100
1000
,
1001
1000
0100
1000
,
0010
0100
0001
0100
,
1001
0001
0100
0010
,
0100
0010
1000
0100
,
1001
1000
0100
1000
,
0001
0100
0001
1000
,
1100
1001
0100
0101
,
0001
1000
0100
1000
,
0010
0101
0100
0110
,
0001
1000
0100
1000
,
0001
0101
0001
1000
,
0010
1010
1100
1010
,
1000
0100
1000
0001
,
0100
0101
0001
0010
,
2002
0000
3003
0000
;

//---------------dance-single - ----------------
#NOTES:
     dance-single:
     :
     Easy:
     7:
     0.374090,0.460100,0.283947,0.378597,0.000000,249.000000,222.000000,27.000000,36.000000,0.000000,0.000000,0.374090,0.460100,0.283947,0.378597,0.000000,249.000000,222.000000,27.000000,36.000000,0.000000,0.000000:
0000
0000
0000
0000
,
0000
0000
0000
0000
,
2000
3020
0230
0302
,
2003
3200
0302
0023
,
2030
3200
0320
0032
,
2003
3200
0302
0023
,
1030
0100
1000
1001
,
0001
0100
0001
1001
,
1000
0100
1000
1001
,
0001
0100
0001
1001
,
1000
0010
0100
1001
,
0001
0100
0010
1001
,
1000
0010
0100
1001
,
0001
0100
0010
1001
,
1000
0100
1000
1000
,
0001
0100
0001
0001
,
1000
0010
1000
1000
,
0001
0010
0001
0001
,
1000
0100
0010
0001
,
1000
0001
0100
0010
,
1000
0100
0010
0001
,
1000
0001
0100
0010
,
1001
1001
0100
0100
,
1001
1001
0010
0010
,
1001
0100
0100
0100
,
1001
0010
0010
0010
,
1001
1000
0100
1000
,
1000
0001
0100
0001
,
0001
1000
0001
0100
,
0010
1000
0100
0010
,
1001
0001
0100
0001
,
1001
1000
0100
1000
,
0010
0100
0001
0001
,
1000
0100
1000
1000
,
0010
0100
0010
0100
,
0001
1000
0001
1000
,
0010
1000
0001
0100
,
2002
0000
0000
3003
,
2000
0000
3020
0000
,
0230
0000
0302
0000
,
0023
0000
0230
0000
,
2300
0000
3020
0000
,
0230
0000
0302
0000
,
2003
0000
3200
0000
,
2300
0000
3002
0000
,
0203
0000
0320
0000
,
1030
0100
1000
1001
,
0001
0100
0001
1001
,
1000
0100
1000
1001
,
0001
0100
0001
1001
,
1000
0010
0100
1001
,
0001
0100
0010
1001
,
1000
0010
0100
1001
,
0001
0100
0010
1001
,
1000
0100
1000
1000
,
0001
0100
0001
0001
,
1000
0010
1000
1000
,
0001
0010
0001
0001
,
1000
0100
0010
0001
,
1000
0001
0100
0010
,
1000
0100
0010
0001
,
1000
0001
0100
0010
,
2002
0000
3003
0000
;

//---------------dance-single - ----------------
#NOTES:
     dance-single:
     :
     Beginner:
     3:
     0.171270,0.262914,0.010517,0.105166,0.000000,114.000000,113.000000,1.000000,10.000000,0.000000,0.000000,0.171270,0.262914,0.010517,0.105166,0.000000,114.000000,113.000000,1.000000,10.000000,0.000000,0.000000:
// measure 0
0000
0000
0000
0000
,  // measure 1
0000
0000
0000
0000
,  // measure 2
1000
1000
1000
0000
,  // measure 3
0001
0001
0001
0000
,  // measure 4
0100
0100
0100
0000
,  // measure 5
0010
0010
0010
0000
,  // measure 6
2000
0000
3000
0000
,  // measure 7
1000
0000
0000
0000
,  // measure 8
0002
0000
0003
0000
,  // measure 9
0001
0000
0000
0000
,  // measure 10
0200
0000
0300
0000
,  // measure 11
0100
0000
0000
0000
,  // measure 12
0020
0000
0030
0000
,  // measure 13
0010
0000
0000
0000
,  // measure 14
1000
0000
1000
0000
,  // measure 15
1000
0000
1000
0000
,  // measure 16
0001
0000
0001
0000
,  // measure 17
0001
0000
0001
0000
,  // measure 18
0100
0000
0100
0000
,  // measure 19
0100
0000
0100
0000
,  // measure 20
0010
0000
0010
0000
,  // measure 21
0010
0000
0010
0000
,  // measure 22
1000
1000
0000
0000
,  // measure 23
1000
1000
0000
0000
,  // measure 24
0001
0001
0000
0000
,  // measure 25
0001
0001
0000
0000
,  // measure 26
0100
0100
0000
0000
,  // measure 27
0100
0100
0000
0000
,  // measure 28
0010
0010
0000
0000
,  // measure 29
0010
0010
0000
0000
,  // measure 30
1000
0000
0001
0000
,  // measure 31
1000
0000
0001
0000
,  // measure 32
0100
0000
0010
0000
,  // measure 33
0100
0000
0010
0000
,  // measure 34
1000
0000
0001
0000
,  // measure 35
0100
0000
0010
0000
,  // measure 36
1000
0000
0001
0000
,  // measure 37
0100
0000
0010
0000
,  // measure 38
2000
0000
0000
0000
,  // measure 39
3000
0000
0000
0000
,  // measure 40
0002
0000
0000
0000
,  // measure 41
0003
0000
0000
0000
,  // measure 42
0200
0000
0000
0000
,  // measure 43
0300
0000
0000
0000
,  // measure 44
0020
0000
0000
0000
,  // measure 45
0030
0000
0000
0000
,  // measure 46
1000
1000
0000
0000
,  // measure 47
1000
1000
0000
0000
,  // measure 48
0001
0001
0000
0000
,  // measure 49
0001
0001
0000
0000
,  // measure 50
0100
0100
0000
0000
,  // measure 51
0100
0100
0000
0000
,  // measure 52
0010
0010
0000
0000
,  // measure 53
0010
0010
0000
0000
,  // measure 54
1000
1000
1000
0000
,  // measure 55
1000
1000
1000
0000
,  // measure 56
0001
0001
0001
0000
,  // measure 57
0001
0001
0001
0000
,  // measure 58
0100
0100
0100
0000
,  // measure 59
0100
0100
0100
0000
,  // measure 60
0010
0010
0010
0000
,  // measure 61
0010
0010
0010
0000
,  // measure 62
2002
0000
3003
0000
;
