#VERSION:0.83;
#TITLE:SEXY PLANET;
#SUBTITLE:(MOMO MIX);
#ARTIST:Crystal Aliens;
#TITLETRANSLIT:;
#SUBTITLETRANSLIT:;
#ARTISTTRANSLIT:;
#GENRE:Happy Hardcore;
#ORIGIN:;
#CREDIT:;
#BANNER:SEXY PLANET(FROM NONSTOP MEGAMIX).png;
#BACKGROUND:SEXY PLANET(FROM NONSTOP MEGAMIX)-bg.png;
#PREVIEWVID:;
#JACKET:SEXY PLANET(FROM NONSTOP MEGAMIX)-jacket.png;
#CDIMAGE:;
#DISCIMAGE:;
#LYRICSPATH:;
#CDTITLE:;
#MUSIC:SEXY PLANET(FROM NONSTOP MEGAMIX).ogg;
#OFFSET:-0.000246;
#SAMPLESTART:23.980000;
#SAMPLELENGTH:15.000000;
#SELECTABLE:YES;
#DISPLAYBPM:180.000000;
#BPMS:0.000=180.000;
#STOPS:;
#DELAYS:;
#WARPS:;
#TIMESIGNATURES:0.000=4=4;
#TICKCOUNTS:0.000=4;
#COMBOS:0.000=1;
#SPEEDS:0.000=1.000=0.000=0;
#SCROLLS:0.000=1.000;
#FAKES:;
#LABELS:0.000=Song Start;
#BGCHANGES:;
#KEYSOUNDS:;
#ATTACKS:
;

//---------------dance-single - ----------------
#NOTEDATA:;
#CHARTNAME:;
#STEPSTYPE:dance-single;
#DESCRIPTION:;
#CHARTSTYLE:;
#DIFFICULTY:Hard;
#METER:10;
#RADARVALUES:0.527143,0.618375,0.780000,0.110000,0.000000,369.000000,291.000000,78.000000,11.000000,0.000000,0.000000,0.000000,0.000000,0.000000,0.527143,0.618375,0.780000,0.110000,0.000000,369.000000,291.000000,78.000000,11.000000,0.000000,0.000000,0.000000,0.000000,0.000000;
#CREDIT:;
#DISPLAYBPM:180.000000;
#NOTES:
0000
0000
0000
0000
,
0000
0000
0000
0000
,
0000
0000
0000
0000
,
0000
0000
0000
1000
,
1000
0000
0001
0000
0001
0000
0001
1000
,
0010
0000
0010
0000
0010
0000
0010
0100
,
0001
0000
0001
0000
,
0002
1000
1003
1001
,
0100
0000
0100
0000
0100
0000
0100
0001
,
1000
0000
1000
0000
1000
0000
1000
0010
,
0100
0101
1000
1100
,
0001
0011
1000
1010
,
0100
0101
1100
0101
,
1100
0101
1100
0101
,
1000
0000
1100
0100
0010
0000
0011
0001
,
1000
0010
0100
0000
1000
0010
0100
0000
,
0001
1000
0001
1000
0001
1000
0001
1000
,
0010
0100
0010
0100
0010
0100
0010
0010
,
1000
0001
0100
0010
,
1000
0000
1000
0000
1000
0001
1000
0000
,
0010
0010
0100
0100
,
0001
0011
1100
0011
,
1000
0010
0100
0001
,
0010
0000
0100
0000
0010
0100
0010
0000
,
0001
1000
0001
1000
,
0010
1010
0101
1010
,
0100
0101
0100
0101
,
0100
0101
0100
0101
,
0100
0101
0100
0101
,
1100
0000
0101
0000
1000
0001
0100
0000
,
0010
1010
0010
1010
,
0010
1010
0010
1010
,
0010
1010
0010
1010
,
1100
0000
1010
0000
0100
0001
0100
0001
,
2000
0000
0010
0000
0010
0000
3010
0200
,
0000
0001
0301
1001
,
1000
0000
0010
0000
0100
0000
0001
1000
,
0010
1000
0010
0000
0100
0000
1001
0000
,
2000
0000
3000
1001
,
0200
0000
0300
0110
,
0100
0000
0001
0000
1000
0000
0010
0010
,
0100
0001
0100
0000
0001
0000
1001
0000
,
1000
1000
1000
1000
,
2000
0000
3000
1001
,
0010
0010
0010
0010
,
0020
0000
0030
0110
,
0100
0001
1000
0000
1000
0010
0100
0000
,
1000
0000
1000
0000
1000
0100
0001
0000
,
1000
0010
0100
0000
0001
0100
0010
0000
,
1000
0010
0100
0001
1000
0000
1001
0000
,
1010
0000
0110
0000
,
1010
0000
0110
0000
,
1010
0110
1010
0110
,
1001
2002
3003
1001
,
0001
1000
0010
0100
,
0001
0000
0001
0000
0001
1000
0001
0000
,
0100
0100
0010
0010
,
1000
1100
0011
1100
,
0001
0100
0010
1000
,
0100
0000
0010
0000
0100
0010
0100
0000
,
1000
0001
1000
0001
,
0100
0101
1010
0101
,
0010
1010
0010
1010
,
0010
1010
0010
1010
,
0010
1010
0010
1010
,
0011
0000
1010
0000
0001
1000
0010
0000
,
0100
0101
0100
0101
,
0100
0101
0100
0101
,
0100
0101
0100
0101
,
0011
0000
0101
0000
0010
1000
0010
1000
,
0001
0100
0000
0100
,
0000
2002
0000
0000
,
0000
0000
0000
3003
;

//---------------dance-single - ----------------
#NOTEDATA:;
#CHARTNAME:;
#STEPSTYPE:dance-single;
#DESCRIPTION:;
#CHARTSTYLE:;
#DIFFICULTY:Challenge;
#METER:12;
#RADARVALUES:0.601429,0.622625,0.760000,0.380000,0.000000,421.000000,345.000000,76.000000,38.000000,0.000000,0.000000,0.000000,0.000000,0.000000,0.601429,0.622625,0.760000,0.380000,0.000000,421.000000,345.000000,76.000000,38.000000,0.000000,0.000000,0.000000,0.000000,0.000000;
#CREDIT:;
#DISPLAYBPM:180.000000;
#NOTES:
0000
0000
0000
0000
,
0000
0000
0000
0000
,
0000
0000
0000
0000
,
0000
0000
0000
0000
,
0000
0000
0000
0000
,
0000
0000
0000
0000
,
0010
1000
0100
1000
0001
0010
0000
0010
,
0100
0001
0100
1000
0000
0001
0100
1000
,
0100
0001
0000
0100
0000
0010
1000
0100
,
1000
0001
0010
0100
1000
0001
0100
0001
,
0010
0100
0000
1000
0000
0010
0000
0001
,
0010
0100
0000
1000
0000
0010
0000
0001
,
0010
0100
0000
1000
0000
0010
0000
0001
,
0010
0100
0000
1000
0000
0010
0000
0001
,
0010
0100
0000
1000
0010
0100
0000
0001
,
0010
0100
0000
1000
0010
0100
0000
0001
,
1000
0100
1000
0001
1000
0010
1000
0001
,
0010
0010
0100
0100
1000
1000
0001
0001
,
0100
0101
0010
1010
,
0100
0000
1100
1000
0100
0010
0001
1000
,
0001
0100
0000
0010
0000
1001
0000
0100
,
0010
1000
0000
0100
0000
1001
0000
0100
,
0010
0011
1000
1100
,
0001
0000
1001
0001
0100
0010
1000
0001
,
1000
0100
0000
0010
0000
1001
0000
0100
,
0010
0001
0100
1000
,
0010
1020
1030
2001
,
3001
0000
0012
0000
0013
0000
0120
0130
,
1000
0100
0020
0000
0031
0000
0120
0130
,
0010
0100
0002
0000
1003
0000
0100
0000
,
0010
0021
0031
1002
,
1003
0000
2010
0000
3010
0000
0120
0130
,
0001
0100
0020
0000
1030
0000
0120
0130
,
0010
0100
2000
0000
3001
0000
0010
0000
,
0100
0010
0000
1001
0000
1001
0000
0101
,
0000
0101
0000
1000
0001
0100
0001
1000
,
0000
1001
0000
1001
0000
1100
0000
1100
,
0000
0011
0000
0100
1000
0100
0010
0001
,
0000
1001
0000
1001
0000
0101
0000
0101
,
0000
0110
0000
1000
0010
0100
0010
1000
,
0000
1010
0000
1100
0000
0101
0000
0011
,
0000
1001
0000
1000
0100
0010
0100
1000
,
0001
0000
0001
1000
0010
1000
0001
0000
,
0001
1000
0010
1000
0001
1000
0100
0000
,
1100
0000
1000
0001
0010
0001
1000
0000
,
1000
0001
0010
0001
1000
0001
0100
0000
,
0220
0000
0330
0000
,
0000
1100
0000
0101
0000
1000
0001
0000
,
1100
1100
0101
0101
,
0011
1010
1100
1001
,
1000
0001
0000
1000
0010
0100
0000
0001
,
1000
0001
0000
1000
0010
0100
0000
0001
,
1000
0001
0010
0001
1000
0001
0100
0001
,
1000
0100
0010
0001
1000
0100
0010
0001
,
1000
1100
0001
0101
,
1000
0000
1001
0001
1000
0010
0100
0001
,
2000
0010
0100
0001
,
3100
0000
0100
0001
0100
0010
0100
1000
,
0001
0101
1000
1100
,
0001
0000
1001
1000
0001
0010
0100
1000
,
0002
0010
0100
1000
,
0103
0000
0100
1000
0100
0010
0100
0001
,
1000
2100
3001
0012
,
1003
2010
3001
0102
,
1003
2100
3001
0102
,
1003
1010
1001
1100
,
0001
0021
0031
1002
,
1003
2010
3010
0120
,
0130
0201
0301
1002
,
1003
2010
3010
0120
,
0130
0202
0303
2002
,
3003
2200
0000
0000
,
0000
0000
0000
0000
,
0000
3300
0000
0000
;

//---------------dance-single - ----------------
#NOTEDATA:;
#CHARTNAME:;
#STEPSTYPE:dance-single;
#DESCRIPTION:;
#CHARTSTYLE:;
#DIFFICULTY:Medium;
#METER:8;
#RADARVALUES:0.402857,0.512750,0.360000,0.110000,0.000000,282.000000,246.000000,36.000000,11.000000,0.000000,0.000000,0.000000,0.000000,0.000000,0.402857,0.512750,0.360000,0.110000,0.000000,282.000000,246.000000,36.000000,11.000000,0.000000,0.000000,0.000000,0.000000,0.000000;
#CREDIT:;
#DISPLAYBPM:180.000000;
#NOTES:
0000
0000
0000
0000
,
0000
0000
0000
0000
,
0000
0000
0000
0000
,
0000
0000
0000
0000
,
0000
0000
0000
0000
,
0000
0000
0000
0000
,
2002
3003
0000
0000
,
0100
0100
0010
0010
,
0001
0001
0100
0100
,
0010
0010
1000
1000
,
0001
0010
1000
1000
,
0001
0010
1000
1000
,
0001
0010
1000
1000
,
0001
0010
1000
1000
,
0001
1000
0100
0001
,
0100
1000
0100
0001
,
0100
0100
0100
0100
,
0010
0010
0010
0010
,
1000
0100
0001
0010
,
1000
0100
0001
0010
,
1000
0100
0001
0010
,
1000
0000
0100
0000
0001
1000
0001
0000
,
0100
0010
0001
0100
,
1000
0010
1000
0100
,
0001
0010
1000
0010
,
0001
0000
0100
0000
0010
0100
0010
0000
,
1000
1100
1000
1100
,
1000
1100
1000
1100
,
1000
1100
1000
1100
,
1000
1100
1000
0001
,
0010
0110
0010
0110
,
0010
0110
0010
0110
,
0010
0110
0010
0110
,
0010
0110
0010
0100
,
0010
0001
0100
0010
,
0100
0000
0001
0001
,
1000
0010
0100
0001
,
0010
0100
1000
1000
,
0100
0010
0001
0100
,
0010
0000
0001
0001
,
1000
0010
0100
0010
,
1000
0100
0010
0010
,
0100
1000
0001
0000
,
0100
0100
0100
0000
,
0001
1000
0100
0000
,
0010
0010
0010
0000
,
2002
0000
3003
0000
,
0010
0100
0001
0000
,
0010
0010
0100
0000
,
1000
0010
0001
0000
,
1000
0010
0001
0001
,
1000
0010
0001
0001
,
1010
0001
1010
0001
,
0100
0001
0100
0001
,
0010
0010
0100
0100
,
1000
1000
0001
0001
,
1000
0010
0001
0100
,
1000
0001
2000
3000
,
0001
0010
0100
0010
,
0001
1000
0100
0001
,
0010
0100
0010
0001
,
0100
1000
0010
0001
,
1000
1001
1000
1001
,
1000
1001
1000
1001
,
1000
1001
1000
1001
,
1000
1001
1000
0010
,
0100
0101
0100
0101
,
0100
0101
0100
0101
,
0100
0101
0100
0101
,
0100
0101
0001
0011
,
1000
2200
3300
2002
,
3003
0220
0000
0000
,
0000
0000
0000
0000
,
0000
0330
0000
0000
;

//---------------dance-single - ----------------
#NOTEDATA:;
#CHARTNAME:;
#STEPSTYPE:dance-single;
#DESCRIPTION:;
#CHARTSTYLE:;
#DIFFICULTY:Easy;
#METER:6;
#RADARVALUES:0.308571,0.476125,0.220000,0.380000,0.000000,216.000000,194.000000,22.000000,38.000000,0.000000,0.000000,0.000000,0.000000,0.000000,0.308571,0.476125,0.220000,0.380000,0.000000,216.000000,194.000000,22.000000,38.000000,0.000000,0.000000,0.000000,0.000000,0.000000;
#CREDIT:;
#DISPLAYBPM:180.000000;
#NOTES:
0000
0000
0000
0000
,
0000
0000
0000
0000
,
0000
0000
0000
0000
,
0000
0000
0000
0000
,
0000
0000
0000
0000
,
0000
0000
0000
0000
,
0020
0000
0030
0000
,
1000
0000
1000
0000
,
0001
0000
0001
0000
,
0010
0000
0010
0000
,
1001
0000
0000
0000
,
1001
0000
0000
0000
,
1001
0000
0000
0000
,
1001
0000
0000
0000
,
1000
0000
0001
0000
,
1001
0000
1001
0000
,
0110
0110
0110
0110
,
0020
0000
0000
0030
,
1000
0100
0001
0010
,
1000
0100
0001
0010
,
1000
1000
1000
0000
,
0001
0001
0001
0000
,
0001
0100
1000
0010
,
0001
0100
1000
0010
,
0001
0001
0001
0000
,
1000
1000
1000
0000
,
0001
0002
0003
0002
,
0003
0002
0003
0002
,
0003
0002
0003
0002
,
0003
0002
0103
0010
,
1000
2000
3000
2000
,
3000
2000
3000
2000
,
3000
2000
3000
2000
,
3000
2000
3100
0010
,
0001
0101
1000
1100
,
0001
0101
1000
0000
,
0001
0101
1000
1100
,
0001
0101
1000
0000
,
1000
1100
0001
0101
,
1000
1100
0001
0000
,
1000
1100
0001
0101
,
1000
1100
0001
0000
,
0020
0030
0000
0000
,
0100
0100
0100
0000
,
0010
0001
0100
0000
,
0010
0010
0010
0000
,
2000
3000
0000
0000
,
0001
0100
0001
0000
,
1000
0100
1000
0000
,
0100
0010
0010
0000
,
1000
0100
0001
0000
,
1000
0100
0001
0000
,
1000
0100
0010
0001
,
1000
0100
0010
0001
,
1000
1000
1000
1000
,
1000
1000
2000
3000
,
0001
0100
0010
1000
,
0100
0010
0100
0000
,
0001
0001
0001
0001
,
0001
0001
0002
0003
,
0100
0010
1000
0100
,
0010
0001
1000
0000
,
0100
2000
3100
2000
,
3100
2000
3100
2000
,
3001
0020
0031
0020
,
0031
0020
0031
0100
,
0010
2000
3010
2000
,
3010
2000
3010
2000
,
3001
2000
3001
2000
,
3001
0020
0130
0020
,
0031
0200
0300
0020
,
0030
2000
0000
0000
,
0000
0000
0000
0000
,
0000
3000
0000
0000
;

//---------------dance-single - ----------------
#NOTEDATA:;
#CHARTNAME:;
#STEPSTYPE:dance-single;
#DESCRIPTION:;
#CHARTSTYLE:;
#DIFFICULTY:Beginner;
#METER:3;
#RADARVALUES:0.112857,0.183125,0.000000,0.250000,0.000000,79.000000,79.000000,0.000000,25.000000,0.000000,0.000000,0.000000,0.000000,0.000000,0.112857,0.183125,0.000000,0.250000,0.000000,79.000000,79.000000,0.000000,25.000000,0.000000,0.000000,0.000000,0.000000,0.000000;
#CREDIT:;
#DISPLAYBPM:180.000000;
#NOTES:
0000
0000
0000
0000
,
0000
0000
0000
0000
,
0000
0000
0000
0000
,
0000
0000
0000
0000
,
0000
0000
0000
0000
,
0000
0000
0000
0000
,
0020
0000
0030
0000
,
1000
0000
0000
0000
,
1000
0000
0000
0000
,
0001
0000
0000
0000
,
0001
0000
0000
0000
,
0010
0000
0000
0000
,
0100
0000
0000
0000
,
0010
0000
0000
0000
,
0100
0000
0100
0000
,
0100
0000
0100
0000
,
0010
0000
0010
0000
,
0020
0000
0030
0000
,
0001
0000
0001
0000
,
0001
0000
0000
0000
,
1000
0000
1000
0000
,
1000
0000
0000
0000
,
0010
0000
0010
0000
,
0010
0000
0000
0000
,
0100
0000
0100
0000
,
0100
0000
0000
0000
,
0002
0000
0003
0000
,
2000
0000
3000
0000
,
0002
0000
0003
0000
,
2000
0000
3000
0000
,
0200
0000
0300
0000
,
0020
0000
0030
0000
,
0200
0000
0300
0000
,
0020
0000
0030
0000
,
0100
0000
0000
0000
,
0000
0000
0000
0000
,
1000
0000
0000
0000
,
0000
0000
0000
0000
,
0001
0000
0000
0000
,
0000
0000
0000
0000
,
0100
0000
0000
0000
,
0000
0000
0000
0000
,
0010
0000
0010
0000
,
0010
0000
0000
0000
,
1000
0000
1000
0000
,
1000
0000
0000
0000
,
0002
0000
0003
0000
,
0000
0000
0000
0000
,
0010
0000
0010
0000
,
0010
0000
0000
0000
,
0200
0000
0300
0000
,
0200
0000
0300
0000
,
0010
0000
0010
0000
,
0020
0000
0030
0000
,
0001
0000
0001
0000
,
0001
0000
0001
0000
,
0001
0000
0001
0000
,
0001
0000
0000
0000
,
1000
0000
1000
0000
,
1000
0000
1000
0000
,
1000
0000
1000
0000
,
1000
0000
0000
0000
,
0020
0000
0030
0000
,
0200
0000
0300
0000
,
0020
0000
0030
0000
,
0200
0000
0300
0000
,
0002
0000
0003
0000
,
2000
0000
3000
0000
,
0200
0000
0300
0000
,
0000
0020
0030
0020
,
0030
0020
0030
0020
,
0000
0000
0000
0000
,
0000
0000
0000
0000
,
0000
0030
0000
0000
;
