#VERSION:0.83;
#TITLE:SEXUAL HEALING;
#SUBTITLE:;
#ARTIST:SEXY SYNTHESIZER;
#TITLETRANSLIT:;
#SUBTITLETRANSLIT:;
#ARTISTTRANSLIT:;
#GENRE:;
#ORIGIN:;
#CREDIT:;
#BANNER:;
#BACKGROUND:DDR CD-bg.JPG;
#PREVIEWVID:;
#JACKET:Sexual Healing-jacket.JPG;
#CDIMAGE:;
#DISCIMAGE:;
#LYRICSPATH:;
#CDTITLE:;
#MUSIC:Sexual Healing.ogg;
#OFFSET:-1.080000;
#SAMPLESTART:21.399998;
#SAMPLELENGTH:12.000000;
#SELECTABLE:YES;
#BPMS:0.000=94.460;
#STOPS:;
#DELAYS:;
#WARPS:;
#TIMESIGNATURES:0.000=4=4;
#TICKCOUNTS:0.000=4;
#COMBOS:0.000=1;
#SPEEDS:0.000=1.000=0.000=0;
#SCROLLS:0.000=1.000;
#FAKES:;
#LABELS:0.000=Song Start;
#BGCHANGES:;
#KEYSOUNDS:;
#ATTACKS:
;

//---------------dance-single - ----------------
#NOTEDATA:;
#CHARTNAME:;
#STEPSTYPE:dance-single;
#DESCRIPTION:;
#CHARTSTYLE:;
#DIFFICULTY:Hard;
#METER:13;
#RADARVALUES:0.497375,0.563222,0.333520,0.178962,0.459607,428.000000,387.000000,41.000000,22.000000,0.000000,0.000000,0.000000,0.000000,0.000000,0.497375,0.563222,0.333520,0.178962,0.459607,428.000000,387.000000,41.000000,22.000000,0.000000,0.000000,0.000000,0.000000,0.000000;
#CREDIT:;
#NOTES:
0000
0000
0000
0000
,
0000
0000
0000
0000
,
0000
0000
0000
0000
,
0000
0000
0000
0000
,
0001
0010
0100
1000
0100
0010
0001
0010
0100
1000
0100
0010
0001
0010
0100
1000
,
0010
0000
0100
0000
0101
0000
0001
0100
0000
0010
0000
1000
0100
0000
1100
0000
,
1000
0001
0100
0010
1000
0001
0100
0010
1000
0001
0100
0010
1000
0001
0100
0010
,
1000
0001
0101
2000
0000
3002
0000
0103
,
1001
0000
0200
0000
0010
0000
0010
0000
0010
0000
0010
0000
0310
0000
1000
0001
,
0100
0000
0010
0000
1001
0000
0100
0000
0010
0000
1000
0000
0100
1000
0001
0100
,
0000
0010
0100
0000
1001
0000
0010
0000
0100
0000
0001
0000
0010
0001
1000
0100
,
1000
0000
0001
0000
0102
0000
0013
0000
0001
0000
1000
0000
0010
0100
0010
0000
,
1002
0000
0010
0100
0010
0010
0010
0010
,
0013
0000
0100
0000
0001
0000
1000
0000
0010
1000
0000
0100
1000
0001
1000
0001
,
0100
0000
0000
0100
0010
0000
1001
0000
0010
0000
1000
0000
0100
1000
0010
0100
,
0000
0001
0100
0000
0010
1000
0010
0100
0000
0010
1000
0000
1100
0000
1001
0000
,
0100
0001
0000
0010
0000
1000
0000
0100
0000
0001
0000
0010
0000
1000
0000
0100
,
2000
0000
0002
0000
3000
0103
0010
0000
1000
0000
1000
0100
1000
0000
1001
0000
,
0100
0000
0001
0200
0010
0000
0020
0000
0000
0000
0300
0000
1030
0000
0100
1000
,
0010
0100
0001
0100
0010
0100
0001
1000
0100
1000
0010
1000
0010
0100
0001
0100
,
0001
0000
1000
0010
0000
0100
0001
0000
1000
0000
0000
0000
1001
0000
0000
0110
,
0000
1001
0001
0100
0001
1000
0100
1000
,
1001
0000
0100
0000
0000
0010
0100
0000
0010
0000
0100
0000
1001
0000
1000
0001
,
2000
0001
0000
3001
0000
0100
0010
0100
,
0001
0000
0010
0001
0000
0001
0100
0000
0010
0000
0010
1000
0000
1000
0100
0000
,
1000
0000
0001
1000
0000
0010
0100
0000
0001
0000
1000
0001
0000
0100
0010
0000
,
1000
0000
0100
0010
0000
0001
1000
0000
0010
0000
0100
0010
0000
1000
0001
0000
,
0100
0000
0010
0000
0100
0000
0001
0000
1001
0000
0000
0000
0110
0000
0000
1001
,
0000
0000
0100
0001
0000
0100
0000
0020
0000
0000
0000
0230
0000
0000
0001
0300
,
0000
0001
0000
0010
0000
0000
2002
0000
0000
0000
0000
0000
3003
0000
0000
0000
,
1000
1000
1000
0001
0100
0010
0100
0001
,
0001
0001
0100
0010
1000
1000
1000
0001
,
0001
0000
0001
0000
1000
0001
0000
1000
0000
0001
0000
0000
0100
0000
0020
0000
,
0000
1030
0200
0000
1300
0010
0100
0001
,
1000
0001
0000
0001
0100
0000
0000
1001
0000
0000
0110
0000
1001
0000
1100
0000
,
1001
0100
0010
1000
0010
0100
0001
0010
,
0001
1000
0010
0100
0001
0100
0010
1000
,
0100
1000
0001
0100
0010
1000
0100
1000
,
1001
0000
0000
0000
0110
0000
0000
0000
1001
0000
0000
0000
0110
0000
0000
1000
,
0001
0000
0100
0000
0010
1000
0000
0010
0100
0000
0001
0000
0100
0000
0010
2000
,
0000
0000
3100
0000
1000
0010
0000
0100
0000
0000
0001
0100
0000
0010
0000
0200
,
0000
0302
1003
0010
1000
0020
0100
0130
,
1001
0100
1000
0100
1001
0100
0001
0100
,
1001
0000
0100
0010
0100
0000
0010
1000
0010
0000
0100
0001
0100
0000
0001
0000
,
1001
0000
0100
0001
0000
0100
0001
0000
0100
0001
0000
0100
0001
0000
0000
0000
,
1001
0000
0110
0000
1001
0000
1000
0001
1000
0010
0100
0001
1000
0100
1000
0000
,
1001
0000
0100
1000
0000
0100
1000
0000
0100
1000
0000
0100
1000
0000
0000
0000
,
1001
0000
0110
0000
1000
0001
0000
0220
0000
0000
0000
0000
0330
0000
0000
0000
;

//---------------dance-single - ----------------
#NOTEDATA:;
#CHARTNAME:;
#STEPSTYPE:dance-single;
#DESCRIPTION:;
#CHARTSTYLE:;
#DIFFICULTY:Medium;
#METER:9;
#RADARVALUES:0.343979,0.369008,0.211501,0.203366,0.036606,296.000000,270.000000,26.000000,25.000000,0.000000,0.000000,0.000000,0.000000,0.000000,0.343979,0.369008,0.211501,0.203366,0.036606,296.000000,270.000000,26.000000,25.000000,0.000000,0.000000,0.000000,0.000000,0.000000;
#CREDIT:;
#NOTES:
0000
0000
0000
0000
,
0000
0000
0000
0000
,
0000
0000
0000
0000
,
0000
0000
0000
0000
,
1000
0100
0010
0001
0010
0100
1000
0100
,
1001
0000
0100
0000
0001
0000
0100
0001
0100
0000
0001
0000
0010
0000
0001
0000
,
1000
0010
0100
0001
0100
0010
1000
0010
,
0100
0000
0001
0000
0010
0000
0100
1000
0100
0000
1000
0000
0010
0000
0100
0000
,
1001
0002
0000
0100
0000
0100
0000
0103
,
1001
0100
1000
0010
0100
0001
0100
0010
,
1000
0200
1000
1000
0000
0000
1300
0001
,
0100
0020
0100
0100
0000
0000
0130
0001
,
1001
0002
0000
0100
0000
0100
0000
0103
,
1001
0100
1000
0010
0100
0001
0100
0010
,
1000
0200
1000
1000
0000
0000
1300
0001
,
0100
0020
0100
0100
0000
0000
0130
0001
,
1001
0000
0000
1000
0000
1000
0000
1000
0000
1000
0000
0000
0000
0000
0100
0000
,
2002
0000
0000
3003
,
1001
0100
0001
0100
0010
0100
0001
0100
,
0010
1000
0100
1000
0001
1000
0100
1000
,
0001
0100
0020
0100
0000
0100
0000
0130
,
0001
1000
0100
2000
0001
0001
0002
3000
,
0103
0010
0100
0001
0100
0010
1000
0100
,
1000
0001
0100
0010
1000
0001
1000
0001
,
0100
0100
0100
0100
,
0010
0000
0010
0010
0010
0000
1001
0000
,
2000
3200
0302
0023
,
1030
0000
0000
0000
0101
0000
0000
0000
1010
0000
0000
0000
1001
0000
0000
0100
,
0000
0100
0010
0100
0001
0100
0010
0100
,
0001
1000
0100
1000
0001
1000
0100
0000
,
1000
0100
1000
0010
0100
0001
0100
0010
,
1000
0100
1000
0001
0100
0010
0100
0000
,
0001
0100
0010
1000
0100
1000
0010
0100
,
0001
1000
0010
1000
0001
0000
0110
0000
,
1000
1000
1000
0000
0001
0001
0001
0000
,
0110
1001
0110
1001
,
1000
2000
3001
0000
0001
0002
1003
0000
,
1000
0100
0010
0001
,
1001
0000
0000
0000
0110
0000
0000
0000
1001
0000
0000
0000
1000
0000
0000
0001
,
0000
0000
1000
0000
0000
0001
0000
0000
2000
0000
0002
0000
3000
0000
0003
0000
,
1001
0100
0100
0100
0010
0100
0001
0100
,
0010
1000
0100
1000
0010
0100
0001
0100
,
0001
1000
0100
1000
0010
1000
0010
0100
,
0001
0100
0010
1000
0100
1000
0001
0000
,
1002
0100
0100
0103
,
2001
0100
0100
3100
,
1002
0103
2001
3100
,
2002
0000
0000
3003
;

//---------------dance-single - ----------------
#NOTEDATA:;
#CHARTNAME:;
#STEPSTYPE:dance-single;
#DESCRIPTION:;
#CHARTSTYLE:;
#DIFFICULTY:Easy;
#METER:5;
#RADARVALUES:0.220798,0.252479,0.219635,0.211501,0.000000,190.000000,163.000000,27.000000,26.000000,0.000000,0.000000,0.000000,0.000000,0.000000,0.220798,0.252479,0.219635,0.211501,0.000000,190.000000,163.000000,27.000000,26.000000,0.000000,0.000000,0.000000,0.000000,0.000000;
#CREDIT:;
#NOTES:
0000
0000
0000
0000
,
0000
0000
0000
0000
,
0000
0000
0000
0000
,
0000
0000
0000
0000
,
1000
0001
1000
0001
,
0100
0010
0100
0010
,
1000
0001
0100
0010
,
1000
0100
0010
0001
,
1002
0000
0100
0000
0100
0000
0100
0003
,
2001
0100
0100
3100
,
1000
1000
0001
1000
,
0100
0100
0001
0100
,
1002
0100
0100
0103
,
2001
0100
0100
3100
,
0001
1000
0010
1000
,
0100
0100
0010
0100
,
2002
0000
0000
3003
,
0220
0000
0000
0330
,
1001
0001
0010
0001
,
1000
0100
0001
0100
,
1000
0010
0100
0010
,
0001
0100
0001
0001
,
0100
0100
0100
1000
,
1000
0100
1000
0001
,
0100
0100
0100
0001
,
0010
0010
0010
1001
,
2000
3200
0302
0023
,
1030
0101
1010
1001
,
0100
0010
0001
0010
,
0001
0100
0001
0100
,
1000
1000
0100
0100
,
1000
1000
0100
0100
,
0001
0010
0100
0010
,
0001
0010
0001
0110
,
2000
3000
0002
0003
,
0110
1001
0110
1001
,
2000
3001
0002
1003
,
1000
0100
0010
0001
,
1001
0110
1001
1000
,
2002
3003
0220
0330
,
1001
0100
0010
0001
,
0010
0100
0010
0001
,
0001
0100
0010
0010
,
0001
0010
0100
0001
,
1002
0100
0100
0103
,
2001
0100
0100
3100
,
1002
0103
2001
3100
,
2002
0000
0000
3003
;

//---------------dance-single - ----------------
#NOTEDATA:;
#CHARTNAME:;
#STEPSTYPE:dance-single;
#DESCRIPTION:;
#CHARTSTYLE:;
#DIFFICULTY:Beginner;
#METER:2;
#RADARVALUES:0.116209,0.155372,0.081346,0.032539,0.000000,100.000000,90.000000,10.000000,4.000000,0.000000,0.000000,0.000000,0.000000,0.000000,0.116209,0.155372,0.081346,0.032539,0.000000,100.000000,90.000000,10.000000,4.000000,0.000000,0.000000,0.000000,0.000000,0.000000;
#CREDIT:;
#NOTES:
// measure 0
0000
0000
0000
0000
,  // measure 1
0000
0000
0000
0000
,  // measure 2
0000
0000
0000
0000
,  // measure 3
0000
0000
0000
0000
,  // measure 4
1000
0000
1000
0000
,  // measure 5
0100
0000
0100
0000
,  // measure 6
0001
0000
0001
0000
,  // measure 7
0010
0000
0010
0000
,  // measure 8
0100
0100
0100
0000
,  // measure 9
0100
0100
0100
0000
,  // measure 10
1000
1000
1000
0000
,  // measure 11
0010
0010
0010
0000
,  // measure 12
0001
0001
0001
0000
,  // measure 13
0100
0100
0100
0000
,  // measure 14
0001
0001
0000
0000
,  // measure 15
0010
0010
0010
0000
,  // measure 16
1001
0000
0000
0000
,  // measure 17
0110
0000
0000
0000
,  // measure 18
1001
0000
0010
0000
,  // measure 19
1000
0000
0001
0000
,  // measure 20
1000
0000
0100
0000
,  // measure 21
0001
0000
0001
0000
,  // measure 22
0100
0000
0100
0000
,  // measure 23
1000
0000
1000
0000
,  // measure 24
0100
0100
0100
0000
,  // measure 25
0010
0010
0010
0000
,  // measure 26
1000
0000
0001
0000
,  // measure 27
1000
0000
0010
0000
,  // measure 28
0100
0000
0001
0000
,  // measure 29
0001
0000
0001
0000
,  // measure 30
1000
1000
0000
0000
,  // measure 31
0001
0001
0000
0000
,  // measure 32
0001
0000
0100
0000
,  // measure 33
0001
0000
0001
0000
,  // measure 34
1000
1000
0000
0000
,  // measure 35
0001
0001
0000
0000
,  // measure 36
1000
0000
0001
0000
,  // measure 37
1000
0000
0010
0000
,  // measure 38
1001
0000
1001
0000
,  // measure 39
2002
0000
3003
0000
,  // measure 40
0100
0000
0010
0000
,  // measure 41
0010
0000
0010
0000
,  // measure 42
0001
0000
0010
0000
,  // measure 43
0001
0000
0100
0000
,  // measure 44
1001
0000
0000
0000
,  // measure 45
1001
0000
0000
0000
,  // measure 46
1001
0000
0000
0000
,  // measure 47
2002
0000
0000
3003
;
