#VERSION:0.83;
#TITLE:SEPTEMBER;
#SUBTITLE:;
#ARTIST:DJ Speedo;
#TITLETRANSLIT:;
#SUBTITLETRANSLIT:;
#ARTISTTRANSLIT:;
#GENRE:;
#ORIGIN:;
#CREDIT:;
#BANNER:;
#BACKGROUND:September-bg.jpg;
#PREVIEWVID:;
#JACKET:September-jacket.jpg;
#CDIMAGE:;
#DISCIMAGE:;
#LYRICSPATH:;
#CDTITLE:;
#MUSIC:September.ogg;
#OFFSET:-0.215000;
#SAMPLESTART:46.014153;
#SAMPLELENGTH:12.000000;
#SELECTABLE:YES;
#BPMS:0.000=178.152;
#STOPS:;
#DELAYS:;
#WARPS:;
#TIMESIGNATURES:0.000=4=4;
#TICKCOUNTS:0.000=4;
#COMBOS:0.000=1;
#SPEEDS:0.000=1.000=0.000=0;
#SCROLLS:0.000=1.000;
#FAKES:;
#LABELS:0.000=Song Start;
#BGCHANGES:;
#KEYSOUNDS:;
#ATTACKS:
;

//---------------dance-single - ----------------
#NOTEDATA:;
#CHARTNAME:;
#STEPSTYPE:dance-single;
#DESCRIPTION:;
#CHARTSTYLE:;
#DIFFICULTY:Hard;
#METER:17;
#RADARVALUES:0.843429,1.070100,0.678826,0.026796,0.303685,661.000000,585.000000,76.000000,3.000000,0.000000,0.000000,0.000000,0.000000,0.000000,0.843429,1.070100,0.678826,0.026796,0.303685,661.000000,585.000000,76.000000,3.000000,0.000000,0.000000,0.000000,0.000000,0.000000;
#CREDIT:;
#NOTES:
0000
0000
0000
0000
,
0000
0000
0000
0000
,
0100
0010
0000
0000
1001
0000
0000
0000
1000
0001
0000
0000
1001
0000
0000
0000
,
0000
0000
0010
0000
1000
0000
0000
0000
1000
0010
0000
0000
1010
0000
0000
0000
,
0001
0010
0000
0000
0011
0000
0000
0000
0010
0100
0000
0000
0110
0000
0000
0000
,
0000
0000
0001
0000
0100
0000
0000
0000
0100
0001
0000
0000
0101
0000
0000
0000
,
0100
0010
0000
0000
0110
0000
0000
0000
1000
0001
0000
0000
1001
0000
0000
0000
,
0000
0000
0100
0000
0001
0000
0000
0000
0001
0100
0000
0000
0101
0000
0000
0000
,
1000
0010
0000
0000
1010
0000
0000
0000
1000
0001
0000
0000
1001
0000
0000
0000
,
0010
0100
0010
0100
0010
0100
0001
1000
,
1001
1010
0101
1010
,
0110
0000
1001
0000
1000
0100
0010
0001
,
0011
0101
1100
1001
,
0110
0000
1001
0000
0100
0010
0100
0001
,
0101
1010
0101
1001
,
0110
0000
1010
0000
1000
0100
1000
0010
,
0110
1001
0101
0011
,
0100
1000
0010
1000
0000
0001
0100
0010
,
1000
0100
0010
0001
0010
0100
1000
0100
,
0010
0001
0100
0010
1000
0010
0100
0001
,
0010
0001
0100
0010
1000
0100
1000
0010
,
1000
0001
0100
0001
0010
0001
1000
0001
,
0010
0100
1000
0010
0100
0001
1000
0010
,
0100
0001
0010
0001
0010
0100
0010
0001
,
1000
0001
1000
0000
0001
0100
0001
0000
1000
0010
1000
0000
0010
0100
0001
0000
,
2002
0000
0000
3003
,
1000
0010
0100
0010
1000
0010
0100
0001
,
0010
0001
1000
0001
0010
0100
0010
0001
,
0010
0100
1000
0001
0100
0010
1000
0100
,
0010
0001
0100
0010
1000
0010
0100
0010
,
1000
0100
0010
0100
1000
0010
0100
0001
,
0010
0100
1000
0001
0010
0001
0100
0010
,
0001
1000
0001
0000
1000
0001
1000
0000
1000
0100
0010
0000
0010
0100
1000
0000
,
0000
1100
0000
1001
0000
1010
0000
0000
,
1000
0001
0100
0001
1000
0001
0100
0001
,
1000
0100
0010
0001
0010
0100
1000
0000
,
0001
1000
0001
0100
0001
1000
0001
0100
,
0001
0010
0100
1000
0100
0010
0001
0000
,
1000
0010
0100
0001
1000
0100
0010
0001
,
0100
0010
1000
0001
0100
0001
1000
0010
,
1000
0100
0010
0001
1000
0010
0100
0010
0100
0010
1000
0100
0010
0100
1000
0001
,
0100
1010
0000
1010
0000
0110
0000
0000
,
1000
0001
0100
0001
1000
0001
0100
0001
,
1000
0100
0010
0001
0010
0100
1000
0000
,
0001
1000
0001
0100
0001
1000
0001
0100
,
0001
0010
0100
1000
0100
0010
0001
0000
,
1000
0010
0100
0001
1000
0100
0010
0001
,
0100
0010
1000
0001
0100
0001
1000
0010
,
1000
0100
0010
0001
1000
0010
0100
0010
0100
0010
1000
0100
0010
0100
1000
0001
,
1000
0010
0100
0001
0100
0010
1000
0100
2000
0000
0000
0000
3000
0000
0000
0000
,
0100
0010
0000
0000
1001
0000
0000
0000
1000
0001
0000
0000
1001
0000
0000
0000
,
0000
0000
0010
0000
1000
0000
0000
0000
1000
0010
0000
0000
1010
0000
0000
0000
,
0001
0010
0000
0000
0011
0000
0000
0000
0010
0100
0000
0000
0110
0000
0000
0000
,
0000
0000
0001
0000
0100
0000
0000
0000
0100
0001
0000
0000
0101
0000
0000
0000
,
0100
0010
0000
0000
0110
0000
0000
0000
1000
0001
0000
0000
1001
0000
0000
0000
,
0000
1000
0001
0100
0000
0000
0000
1000
,
0100
0010
0001
0100
0001
0010
0001
1000
0010
0100
0001
0010
0100
0010
0001
0100
,
0001
0010
0100
1000
0100
0010
0001
0010
,
0011
1010
1001
0011
,
1010
0000
0101
0000
0001
0010
0100
1000
,
1001
0110
0110
0101
,
0101
0000
1010
0000
1000
0100
0010
0001
,
1000
0100
0000
0000
1100
0000
0000
0000
0100
1000
0000
0000
1100
0000
0000
0000
,
1010
0000
0101
0000
1001
1000
0001
0100
,
0110
1010
0101
1010
,
0001
0100
0010
1000
0000
1000
0001
1000
,
0100
1000
0010
1000
0000
0100
0010
0100
,
1000
0010
0100
0001
0010
0100
0010
0001
,
0100
0010
1000
0010
0100
0010
0100
0001
,
0010
0100
1000
0010
1000
0100
0010
0001
,
0100
0001
0010
0001
1000
0100
0010
0001
,
0100
0010
1000
0001
0010
0100
1000
0100
,
1000
0010
1000
0000
0100
1000
0100
0000
0010
0001
0010
0000
0001
0100
0010
0000
,
1000
0100
1000
0000
0100
1000
0100
0000
1000
0100
1000
0000
0010
0000
0100
0000
,
0001
0010
0100
1000
0010
0100
0001
0010
,
0100
1000
0010
1000
0001
0100
0001
0010
,
0001
1000
0100
0010
0001
0100
0010
1000
,
0100
0010
0100
1000
0100
0010
0001
0100
,
0010
0100
0001
0100
0010
1000
0100
1000
,
0010
1000
0100
0010
0001
1000
0100
1000
,
1000
0100
0010
0000
0001
1000
0100
0000
1000
0001
0100
0000
0001
0010
0100
0000
,
0000
1010
0000
0101
0000
1010
0000
0011
,
0000
0110
0000
1010
0000
0110
0000
0000
;

//---------------dance-single - ----------------
#NOTEDATA:;
#CHARTNAME:;
#STEPSTYPE:dance-single;
#DESCRIPTION:;
#CHARTSTYLE:;
#DIFFICULTY:Medium;
#METER:13;
#RADARVALUES:0.521879,0.627300,0.437664,0.017864,0.000000,409.000000,360.000000,49.000000,2.000000,0.000000,0.000000,0.000000,0.000000,0.000000,0.521879,0.627300,0.437664,0.017864,0.000000,409.000000,360.000000,49.000000,2.000000,0.000000,0.000000,0.000000,0.000000,0.000000;
#CREDIT:;
#NOTES:
0000
0000
0000
0000
,
0000
0000
0000
0000
,
0100
1001
1000
1001
,
0000
0010
1000
0000
1000
0000
1010
0000
,
0001
0011
0010
0110
,
0000
0001
0100
0000
0100
0000
0101
0000
,
0100
0110
1000
1001
,
0000
0100
0001
0000
0001
0000
0101
0000
,
1000
1010
1000
1001
,
0010
0000
0010
0000
0010
0100
0001
1000
,
1001
0010
0101
1000
,
0110
0000
1000
0000
1000
0100
0010
0001
,
0010
0101
1000
1001
,
0010
0000
1001
0000
0100
0010
0100
0001
,
0100
1010
0001
1001
,
0010
0000
1010
0000
1000
0100
1000
0010
,
0100
1001
0001
0011
,
0100
1000
0010
1000
0000
0001
0100
0000
,
0001
0010
0010
1000
,
0010
0100
1000
0100
,
0010
0100
1000
0001
,
1000
0100
0010
0001
,
0010
1000
0100
0001
,
0100
0010
0010
0001
,
1000
0001
1000
0010
,
1000
0100
0010
0001
,
1000
0100
1000
0100
,
0010
1000
0010
0100
,
0001
1000
0100
1000
,
0010
0100
1000
0100
,
1000
0010
1000
0100
,
0010
1000
0010
0100
,
0001
1000
0100
0010
,
0000
0101
0000
1001
0000
1010
0000
0000
,
1000
0100
1000
0100
,
1000
0100
0010
0001
0010
0100
1000
0000
,
0001
0001
0001
0001
,
0001
0010
0100
1000
0100
0010
0001
0000
,
1000
0100
1000
0010
,
0100
0010
1000
0001
0100
0001
1000
0010
,
1000
0010
1000
0100
0010
1000
0010
0001
,
0100
0010
0000
1010
0000
0110
0000
0000
,
1000
0100
1000
0100
,
1000
0100
0010
0001
0010
0100
1000
0000
,
0001
0001
0001
0001
,
0001
0010
0100
1000
0100
0010
0001
0000
,
1000
0100
0001
0010
,
1000
0100
0001
0010
,
1000
0100
1000
0100
0010
0001
0010
0001
,
1000
0100
0010
0002
2000
0000
3003
0000
,
0100
1001
1000
1001
,
0000
0010
1000
0000
1000
0000
1010
0000
,
0001
0011
0010
0110
,
0000
0001
0100
0000
0100
0000
0101
0000
,
0100
0110
1000
1001
,
0000
1000
0001
0100
0000
0000
1001
0000
,
0100
0001
0010
0100
,
1000
0100
0010
0001
,
0011
1000
1001
0010
,
1010
0001
0001
0100
,
1001
0100
0110
0001
,
0101
1000
1000
0010
,
1000
1100
0100
1100
,
0010
0101
0001
0001
,
0110
0010
0101
1010
,
0001
0100
0010
1000
0000
1000
0001
1000
,
0100
0010
1000
0010
,
1000
0100
0010
0010
,
0100
1000
0100
0100
,
0010
1000
1000
0010
,
0100
0010
1000
0010
,
0100
1000
0010
1000
,
1000
0100
0010
0001
,
0010
0100
1000
1001
,
0001
0100
0010
0001
,
0100
0010
0001
0001
,
0001
0100
0001
0010
,
0100
0100
0100
0001
,
0010
0001
0010
0100
,
0010
0100
0001
0100
,
1000
0010
0001
0100
,
0000
1000
0000
0010
0000
0001
0000
0100
,
0000
1000
0000
0010
0000
0001
0000
0000
;

//---------------dance-single - ----------------
#NOTEDATA:;
#CHARTNAME:;
#STEPSTYPE:dance-single;
#DESCRIPTION:;
#CHARTSTYLE:;
#DIFFICULTY:Easy;
#METER:9;
#RADARVALUES:0.455528,0.516600,0.401936,0.053592,0.000000,357.000000,312.000000,45.000000,6.000000,0.000000,0.000000,0.000000,0.000000,0.000000,0.455528,0.516600,0.401936,0.053592,0.000000,357.000000,312.000000,45.000000,6.000000,0.000000,0.000000,0.000000,0.000000,0.000000;
#CREDIT:;
#NOTES:
0000
0000
0000
0000
,
0000
0000
0000
0000
,
1000
0100
1000
1100
,
0001
0100
0001
0101
,
1000
0100
1000
1100
,
0001
0100
0001
0101
,
1000
1100
0001
0101
,
1000
1100
0001
0101
,
1000
0100
0010
0001
,
1000
0100
0010
0001
,
1001
0010
0101
1000
,
0110
1000
1000
0010
,
0010
0101
1000
1001
,
0010
1001
0100
0100
,
0100
1010
0001
1001
,
0010
1010
1000
1000
,
0100
1001
0001
0011
,
2002
0000
0000
3003
,
0001
0010
0010
1000
,
0010
0100
1000
0100
,
0010
0100
1000
0001
,
1000
0100
0010
0001
,
0010
1000
0100
0001
,
0100
0010
0010
0001
,
1000
0001
1000
0010
,
1000
0100
0010
0001
,
1000
0100
1000
0100
,
0010
1000
0010
0100
,
0001
1000
0100
1000
,
0010
0100
1000
0100
,
1000
0010
1000
0100
,
0010
1000
0010
0100
,
0001
1000
0100
0010
,
0000
0100
0000
0100
0000
0100
0000
0000
,
1000
0100
1000
0100
,
1000
0100
0010
0001
,
0001
0100
0001
0100
,
0001
0010
0100
1000
,
1000
0100
1000
0010
,
0100
0001
0100
0010
,
1000
1000
0001
0001
,
0000
0010
0000
0010
0000
0010
0000
0000
,
1000
0100
1000
0100
,
1000
0010
0100
0001
,
1000
0001
0100
0001
,
0001
0100
0010
1000
,
1000
0100
0001
0010
,
1000
0100
0001
0010
,
1000
1000
0010
0010
,
0100
0100
0001
0001
,
1000
0100
1000
1100
,
0001
0100
0001
0101
,
1000
0100
1000
1100
,
0001
0100
0001
0101
,
1000
1100
0001
0101
,
1000
1100
0001
0101
,
1000
0100
0010
0001
,
1000
0100
0010
0001
,
0011
1000
1001
0010
,
1010
0001
0001
0100
,
1001
0100
0110
0001
,
0101
1000
1000
0010
,
1000
1100
0100
1100
,
0010
0101
0001
0001
,
0110
0010
0101
1010
,
2002
0000
0000
3003
,
1001
0010
1000
0010
,
1000
0100
0010
0010
,
0100
1000
0100
0100
,
0010
1000
1000
0010
,
0100
0010
1000
0010
,
0100
1000
0010
1000
,
1000
0100
0010
0001
,
0010
0100
1000
1001
,
0001
0100
0010
0001
,
0100
0010
0001
0001
,
0001
0100
0001
0010
,
0100
0100
0100
0001
,
0010
0001
0010
0100
,
0010
0100
0001
0100
,
2002
0000
0000
3003
,
0000
1000
0000
1000
0000
1000
0000
0001
,
0000
0001
0000
0001
0000
1001
0000
0000
;

//---------------dance-single - ----------------
#NOTEDATA:;
#CHARTNAME:;
#STEPSTYPE:dance-single;
#DESCRIPTION:;
#CHARTSTYLE:;
#DIFFICULTY:Beginner;
#METER:4;
#RADARVALUES:0.195226,0.183663,0.008932,0.062523,0.000000,153.000000,152.000000,1.000000,7.000000,0.000000,0.000000,0.000000,0.000000,0.000000,0.195226,0.183663,0.008932,0.062523,0.000000,153.000000,152.000000,1.000000,7.000000,0.000000,0.000000,0.000000,0.000000,0.000000;
#CREDIT:;
#NOTES:
// measure 0
0000
0000
0000
0000
,  // measure 1
0000
0000
0000
0000
,  // measure 2
1000
0000
1000
0000
,  // measure 3
0001
0000
0001
0000
,  // measure 4
1000
0000
1000
0000
,  // measure 5
0001
0000
0001
0000
,  // measure 6
1000
0000
0001
0000
,  // measure 7
1000
0000
0001
0000
,  // measure 8
1000
0000
0010
0000
,  // measure 9
1000
0000
0010
0000
,  // measure 10
0001
0000
0001
0000
,  // measure 11
0100
0000
1000
0000
,  // measure 12
0010
0000
1000
0000
,  // measure 13
0010
0000
0100
0000
,  // measure 14
0100
0000
0001
0000
,  // measure 15
0010
0000
1000
0000
,  // measure 16
0100
0000
0001
0000
,  // measure 17
0002
0000
0000
0003
,  // measure 18
0001
0000
0010
0000
,  // measure 19
0010
0000
1000
0000
,  // measure 20
0010
0000
1000
0000
,  // measure 21
1000
0000
0010
0000
,  // measure 22
0010
0000
0100
0000
,  // measure 23
0100
0000
0010
0000
,  // measure 24
1000
0000
1000
0000
,  // measure 25
1000
0000
0010
0000
,  // measure 26
1000
0000
1000
0000
,  // measure 27
0010
0000
0010
0000
,  // measure 28
0001
0000
0100
0000
,  // measure 29
0010
0000
1000
0000
,  // measure 30
1000
0000
1000
0000
,  // measure 31
0010
0000
0010
0000
,  // measure 32
0001
0000
0100
0000
,  // measure 33
0200
0000
0300
0000
,  // measure 34
0100
0000
1000
0000
,  // measure 35
1000
0000
0010
0000
,  // measure 36
0001
0000
0001
0000
,  // measure 37
0001
0000
0100
0000
,  // measure 38
1000
0000
1000
0000
,  // measure 39
0100
0000
0100
0000
,  // measure 40
0020
0000
0000
0000
,  // measure 41
0000
0000
0000
0030
,  // measure 42
0010
0000
1000
0000
,  // measure 43
1000
0000
0100
0000
,  // measure 44
1000
0000
0100
0000
,  // measure 45
0001
0000
0010
0000
,  // measure 46
1000
0000
0001
0000
,  // measure 47
1000
0000
0001
0000
,  // measure 48
1000
0000
0010
0000
,  // measure 49
0100
0000
0001
0000
,  // measure 50
1000
0000
1000
0000
,  // measure 51
0001
0000
0001
0000
,  // measure 52
1000
0000
1000
0000
,  // measure 53
0001
0000
0001
0000
,  // measure 54
1000
0000
0001
0000
,  // measure 55
1000
0000
0001
0000
,  // measure 56
1000
0000
0010
0000
,  // measure 57
1000
0000
0010
0000
,  // measure 58
0001
0000
0001
0000
,  // measure 59
1000
0000
0001
0000
,  // measure 60
1000
0000
0010
0000
,  // measure 61
0100
0000
1000
0000
,  // measure 62
1000
0000
0100
0000
,  // measure 63
0010
0000
0001
0000
,  // measure 64
0100
0000
0001
0000
,  // measure 65
2000
0000
0000
3000
,  // measure 66
1000
0000
1000
0000
,  // measure 67
1000
0000
0010
0000
,  // measure 68
0100
0000
0100
0000
,  // measure 69
0010
0000
1000
0000
,  // measure 70
0100
0000
1000
0000
,  // measure 71
0100
0000
0010
0000
,  // measure 72
1000
0000
0010
0000
,  // measure 73
0010
0000
1000
0000
,  // measure 74
0001
0000
0010
0000
,  // measure 75
0100
0000
0001
0000
,  // measure 76
0001
0000
0001
0000
,  // measure 77
0100
0000
0100
0000
,  // measure 78
0010
0000
0010
0000
,  // measure 79
0010
0000
0001
0000
,  // measure 80
0002
0000
0003
0000
,  // measure 81
2002
0000
0000
0000
,  // measure 82
0000
3003
0000
0000
;
