#TITLE:SECRET AGENT;
#SUBTITLE:;
#ARTIST:CAPTAIN JACK;
#TITLETRANSLIT:;
#SUBTITLETRANSLIT:;
#ARTISTTRANSLIT:;
#GENRE:;
#CREDIT:;
#BANNER:;
#BACKGROUND:Secret Agent-bg.png;
#LYRICSPATH:;
#CDTITLE:;
#MUSIC:Secret_Agent.ogg;
#OFFSET:-0.380000;
#SAMPLESTART:64.139977;
#SAMPLELENGTH:12.000000;
#SELECTABLE:YES;
#BPMS:0.000000=150.000000
;
#STOPS:
;
#BGCHANGES:;
#KEYSOUNDS:;
#ATTACKS:;

//---------------dance-single - ----------------
#NOTES:
     dance-single:
     :
     Hard:
     12:
     0.554355,0.615808,0.295428,0.383258,0.111784,486.000000,449.000000,37.000000,48.000000,0.000000,0.000000,0.554355,0.615808,0.295428,0.383258,0.111784,486.000000,449.000000,37.000000,48.000000,0.000000,0.000000:
0000
0000
0000
0000
,
0000
0000
0000
0000
,
0000
0000
0000
0000
,
0000
0000
0000
0000
,
2000
0000
3200
0000
,
0320
0000
0032
0000
,
2003
0000
3020
0000
0230
0000
0302
2000
,
0000
0000
0003
3000
0000
0001
1000
0001
,
1000
0100
1000
0010
1000
0100
1000
0010
,
0100
0001
0010
0001
0100
0001
0010
0001
,
0001
0010
0100
1000
1000
0100
0010
0001
,
0001
0010
0100
1000
1000
0100
0010
0001
,
1000
0010
0100
0001
0001
0100
0010
1000
,
1000
0100
0010
0001
0001
0010
0100
1000
,
0001
0100
0010
1000
1000
0010
0100
0001
,
1000
0001
0100
0010
1000
0001
0100
0010
,
1001
0000
0000
0000
0101
0000
0000
0000
0001
0000
1000
0001
1000
0000
0100
0000
,
1100
0000
0000
0000
1010
0000
0000
0000
0010
0000
1000
0010
0100
0000
0010
0000
,
0101
0000
0000
0000
0011
0000
0000
0000
0001
0000
1000
0001
0010
0000
0001
0000
,
1100
0000
0000
0000
1010
0000
0000
0000
0010
0000
1000
0010
0100
0000
0001
0000
,
1001
0000
0000
0000
0110
0000
0000
0000
0001
0000
1000
0010
0100
0000
0001
0000
,
0101
0000
0000
0000
1100
0000
0000
0000
1000
0000
0010
0100
0001
0000
1000
0000
,
1100
0000
0000
0000
0011
0000
0000
0000
0001
0000
0100
0010
1000
0000
0100
0000
,
1010
0101
1010
0101
,
0001
1000
0001
1000
0001
0001
0001
0000
,
1000
0001
1000
0001
1000
1000
1000
0000
,
0010
0100
0010
0100
0010
0010
0010
0000
,
0100
0010
0100
0010
0100
0100
0100
0000
,
0010
1000
0010
1000
0010
0010
0010
0000
,
0100
0001
0100
0001
0100
0100
0100
0000
,
0001
0010
0001
0010
0001
0001
0001
0000
,
1000
0100
1000
0100
1000
1000
1000
0000
,
1000
0100
0010
0100
1000
0100
0010
0100
,
1000
0010
0100
0010
1000
0010
0100
0010
,
1000
0100
0010
0001
1000
0100
0010
0001
,
1000
0100
0010
0001
1000
0100
0010
0001
,
0001
0010
0100
0010
0001
0010
0100
0010
,
0001
0100
0010
0100
0001
0100
0010
0100
,
0001
0010
0100
1000
0001
0010
0100
1000
,
0001
0010
0100
1000
0001
0010
0100
1000
,
1002
0100
0100
0103
,
1000
0001
1000
0001
1000
0000
1100
0000
,
0001
0000
0000
0001
0100
0000
0000
0100
0010
0000
0000
0010
1000
0000
0000
1000
,
0100
0000
0000
0100
0010
0000
0000
0010
0001
0000
0000
0001
1000
0000
0000
0000
,
2001
0100
0100
3100
,
0001
1000
0001
1000
0001
0000
0011
0000
,
1000
0000
0000
1000
0001
0000
0000
0001
0100
0000
0000
0100
0010
0000
0000
0010
,
1000
0000
0000
1000
0100
0000
0000
0100
0010
0000
0000
0010
0001
0000
0000
0000
,
1002
0000
0203
0000
,
0320
0000
2030
0000
,
3200
0000
0320
0000
,
0032
0000
2003
0000
,
3020
0230
0302
2003
,
3020
0230
0320
2030
,
3200
0320
0032
2003
,
3020
0230
0320
2030
,
3001
0100
0001
0100
0010
1000
0010
1000
,
1000
0100
1000
0100
0010
0001
0010
0001
,
0001
0100
0001
0100
0010
1000
0010
1000
,
1000
0100
0010
0001
1000
0100
0010
0001
,
1000
0001
0100
0001
1000
0100
1000
0001
,
0100
0001
1000
0100
1000
0001
0100
0001
,
1000
0010
1000
0001
0010
0001
1000
0010
,
1000
0001
0010
0001
1000
0100
0010
0001
,
1001
0000
0000
0000
0101
0000
0000
0000
0001
0000
1000
0001
1000
0000
0100
0000
,
1100
0000
0000
0000
1010
0000
0000
0000
0010
0000
1000
0010
0100
0000
0010
0000
,
0101
0000
0000
0000
0011
0000
0000
0000
0001
0000
1000
0001
0010
0000
0001
0000
,
1100
0000
0000
0000
1010
0000
0000
0000
0010
0000
1000
0010
0100
0000
0001
0000
,
1001
0000
0000
0000
0110
0000
0000
0000
0001
0000
1000
0010
0100
0000
0001
0000
,
0101
0000
0000
0000
1100
0000
0000
0000
1000
0000
0010
0100
0001
0000
1000
0000
,
1100
0000
0000
0000
0011
0000
0000
0000
0001
0000
0100
0010
1000
0000
0100
0000
,
2000
3200
0320
0032
,
0203
0000
0320
0000
,
2030
0000
3200
0000
,
0320
0000
0032
0000
,
2003
0000
3002
0000
,
2000
0000
0000
0000
,
0000
3003
0000
0000
0000
0000
0000
0000
;

//---------------dance-single - ----------------
#NOTES:
     dance-single:
     :
     Medium:
     10:
     0.430025,0.492646,0.295428,0.670702,0.000000,377.000000,340.000000,37.000000,84.000000,0.000000,0.000000,0.430025,0.492646,0.295428,0.670702,0.000000,377.000000,340.000000,37.000000,84.000000,0.000000,0.000000:
0000
0000
0000
0000
,
0000
0000
0000
0000
,
0000
0000
0000
0000
,
0000
0000
0000
0000
,
2000
0000
3200
0000
,
0320
0000
0032
0000
,
2003
0000
3020
0000
0230
0000
0302
2000
,
0000
0000
0000
0000
0000
0003
3000
0000
,
1000
0100
1000
0000
1000
0100
1000
0000
,
0001
0010
0001
0000
0001
0010
0001
0000
,
0001
0010
0100
0000
1000
0100
0010
0000
,
0001
0010
0100
0000
1000
0100
0010
0000
,
1000
0010
0100
0000
0001
0100
0010
0000
,
1000
0100
0010
0000
0001
0010
0100
0000
,
0001
0100
0010
0000
1000
0010
0100
0000
,
1000
0001
0100
0000
1000
0001
0100
0000
,
1001
0000
0101
0000
0002
1000
1003
0000
,
1100
0000
1010
0000
0020
1000
0130
0000
,
0101
0000
0011
0000
0002
1000
0013
0000
,
1100
0000
1010
0000
0020
1000
0130
0000
,
1001
0000
0110
0000
0020
1000
0130
0000
,
0101
0000
1100
0000
2000
0010
3001
0000
,
1100
0000
0011
0000
0002
0100
1003
0000
,
1001
1001
1001
1001
,
0001
1000
0001
1000
0002
0000
0003
0000
,
1000
0001
1000
0001
2000
0000
3000
0000
,
0010
0100
0010
0100
0020
0000
0030
0000
,
0100
0010
0100
0010
0200
0000
0300
0000
,
0010
1000
0010
1000
0020
0000
0030
0000
,
0100
0001
0100
0001
0200
0000
0300
0000
,
0001
0010
0001
0010
0002
0000
0003
0000
,
1000
0100
1000
0100
2000
0000
3000
0000
,
1000
0100
0010
0100
1000
0000
0010
0000
,
1000
0010
0100
0010
1000
0000
0100
0000
,
1000
0100
0010
0001
1000
0000
0010
0000
,
0001
0010
0100
1000
0001
0000
0010
0000
,
0001
0010
0100
0010
0001
0000
0100
0000
,
0001
0100
0010
0100
0001
0000
0010
0000
,
0001
0010
0100
1000
0001
0000
0100
0000
,
1000
0100
0010
0001
1000
0000
0100
0000
,
1002
0100
0100
0103
,
1000
0001
1000
0001
1000
0000
1100
0000
,
0002
0203
0320
2030
,
3200
0320
0032
1003
,
2001
0100
0100
3100
,
0001
1000
0001
1000
0001
0000
0011
0000
,
2000
3002
0203
0320
,
2030
3200
0320
0031
,
1002
0000
0203
0000
,
0320
0000
2030
0000
,
3200
0000
0320
0000
,
0032
0000
2003
0000
,
3020
0230
0302
2003
,
3020
0230
0320
2030
,
3200
0320
0032
2003
,
3020
0230
0320
2030
,
3001
0100
0001
0000
0010
1000
0010
0000
,
1000
0100
1000
0000
0010
0001
0010
0000
,
0001
0100
0001
0000
0010
1000
0010
0000
,
1000
0100
0010
0000
0001
0100
0010
0000
,
1000
0001
0100
0000
0001
0100
0001
0000
,
0100
0001
1000
0000
1000
0001
0100
0000
,
0001
0010
0001
0000
0010
0001
1000
0000
,
1000
0001
0010
0000
0001
0100
0010
0000
,
1001
0000
0101
0000
0002
1000
1003
0000
,
1100
0000
1010
0000
2000
0001
3100
0000
,
0101
0000
0011
0000
0002
1000
0013
0000
,
1100
0000
1010
0000
2000
0001
3100
0000
,
1001
0000
0110
0000
0020
1000
0130
0000
,
0101
0000
1100
0000
2000
0010
3001
0000
,
1100
0000
0011
0000
0002
0100
1003
0000
,
2000
3200
0320
0032
,
0203
0000
0320
0000
,
2030
0000
3200
0000
,
0320
0000
0032
0000
,
2003
0000
3002
0000
,
2000
0000
0000
0000
,
0000
3003
0000
0000
0000
0000
0000
0000
;

//---------------dance-single - ----------------
#NOTES:
     dance-single:
     :
     Easy:
     6:
     0.335351,0.461856,0.295428,0.662717,0.000000,294.000000,257.000000,37.000000,83.000000,0.000000,0.000000,0.335351,0.461856,0.295428,0.662717,0.000000,294.000000,257.000000,37.000000,83.000000,0.000000,0.000000:
// measure 0
0000
0000
0000
0000
,  // measure 1
0000
0000
0000
0000
,  // measure 2
0000
0000
0000
0000
,  // measure 3
0000
0000
0000
0000
,  // measure 4
2000
0000
3200
0000
,  // measure 5
0320
0000
0032
0000
,  // measure 6
2003
3020
0230
0002
,  // measure 7
0000
0000
0000
0303
,  // measure 8
1000
1000
1000
1000
,  // measure 9
0001
0001
0001
0001
,  // measure 10
0001
0100
1000
0010
,  // measure 11
0001
0100
1000
0010
,  // measure 12
1000
0100
0001
0010
,  // measure 13
1000
0010
0001
0100
,  // measure 14
0001
0010
1000
0100
,  // measure 15
1000
0100
1000
0100
,  // measure 16
1001
0101
0002
1003
,  // measure 17
1100
1010
0020
0130
,  // measure 18
0101
0011
0002
0013
,  // measure 19
1100
1010
0020
0130
,  // measure 20
1001
0110
0020
0130
,  // measure 21
0101
1100
2000
3001
,  // measure 22
1100
0011
0002
1003
,  // measure 23
1001
1001
1001
1001
,  // measure 24
0001
0001
0002
0003
,  // measure 25
1000
1000
2000
3000
,  // measure 26
0010
0010
0020
0030
,  // measure 27
0100
0100
0200
0300
,  // measure 28
0010
0010
0020
0030
,  // measure 29
0100
0100
0200
0300
,  // measure 30
0001
0001
0002
0003
,  // measure 31
1000
1000
2000
3000
,  // measure 32
1000
0010
1000
0010
,  // measure 33
1000
0100
1000
0100
,  // measure 34
1000
0010
1000
0010
,  // measure 35
0001
0100
0001
0010
,  // measure 36
0001
0100
0001
0100
,  // measure 37
0001
0010
0001
0010
,  // measure 38
0001
0100
0001
0100
,  // measure 39
1000
0010
1000
0100
,  // measure 40
1002
0100
0100
0103
,  // measure 41
1000
1000
1000
1100
,  // measure 42
0002
0203
0320
2030
,  // measure 43
3200
0320
0032
1003
,  // measure 44
2001
0100
0100
3100
,  // measure 45
0001
0001
0001
0011
,  // measure 46
2000
3002
0203
0320
,  // measure 47
2030
3200
0320
0031
,  // measure 48
1002
0000
0203
0000
,  // measure 49
0320
0000
2030
0000
,  // measure 50
3200
0000
0320
0000
,  // measure 51
0032
0000
2003
0000
,  // measure 52
3020
0230
0302
2003
,  // measure 53
3020
0230
0320
2030
,  // measure 54
3200
0320
0032
2003
,  // measure 55
3020
0230
0320
2030
,  // measure 56
3001
0001
0010
0010
,  // measure 57
1000
1000
0010
0010
,  // measure 58
0001
0001
0010
0010
,  // measure 59
1000
0010
0001
0010
,  // measure 60
1000
0100
0001
0001
,  // measure 61
0100
1000
1000
0100
,  // measure 62
0001
0001
0010
1000
,  // measure 63
1000
0010
0001
0010
,  // measure 64
1001
0101
0002
1003
,  // measure 65
1100
1010
2000
3100
,  // measure 66
0101
0011
0002
0013
,  // measure 67
1100
1010
2000
3100
,  // measure 68
1001
0110
0020
0130
,  // measure 69
0101
1100
2000
3001
,  // measure 70
1100
0011
0002
1003
,  // measure 71
2000
3200
0320
0032
,  // measure 72
0203
0000
0320
0000
,  // measure 73
2030
0000
3200
0000
,  // measure 74
0320
0000
0032
0000
,  // measure 75
2003
0000
3002
0000
,  // measure 76
2000
0000
0000
0000
,  // measure 77
0000
3003
0000
0000
0000
0000
0000
0000
;

//---------------dance-single - ----------------
#NOTES:
     dance-single:
     :
     Beginner:
     3:
     0.175660,0.215533,0.007985,0.031938,0.000000,154.000000,153.000000,1.000000,4.000000,0.000000,0.000000,0.175660,0.215533,0.007985,0.031938,0.000000,154.000000,153.000000,1.000000,4.000000,0.000000,0.000000:
// measure 0
0000
0000
0000
0000
,  // measure 1
0000
0000
0000
0000
,  // measure 2
0000
0000
0000
0000
,  // measure 3
0000
0000
0000
0000
,  // measure 4
1000
0000
1000
0000
,  // measure 5
0001
0000
0001
0000
,  // measure 6
0200
0000
0300
0000
,  // measure 7
0020
0000
0030
0000
,  // measure 8
1000
1000
1000
0000
,  // measure 9
0001
0001
0001
0000
,  // measure 10
0001
0000
1000
0000
,  // measure 11
0001
0000
1000
0000
,  // measure 12
1000
0000
0001
0000
,  // measure 13
1000
0000
0001
0000
,  // measure 14
0001
0000
1000
0000
,  // measure 15
1000
0000
1000
0000
,  // measure 16
0001
0000
0001
0000
,  // measure 17
0100
0000
0010
0000
,  // measure 18
0100
0000
0001
0000
,  // measure 19
0100
0000
0010
0000
,  // measure 20
0001
0000
0010
0000
,  // measure 21
0100
0000
1000
0000
,  // measure 22
0100
0000
0001
0000
,  // measure 23
0010
0000
0100
0000
,  // measure 24
0001
0001
0001
0000
,  // measure 25
1000
1000
1000
0000
,  // measure 26
0010
0010
0010
0000
,  // measure 27
0100
0100
0100
0000
,  // measure 28
0010
0010
0010
0000
,  // measure 29
0100
0100
0100
0000
,  // measure 30
0001
0001
0001
0000
,  // measure 31
1000
1000
1000
0000
,  // measure 32
1000
0000
1000
0000
,  // measure 33
1000
0000
1000
0000
,  // measure 34
0001
0000
0001
0000
,  // measure 35
0001
0000
0001
0000
,  // measure 36
0100
0000
0100
0000
,  // measure 37
0100
0000
0100
0000
,  // measure 38
0010
0000
0010
0000
,  // measure 39
0010
0000
0010
0000
,  // measure 40
1000
0000
0100
0000
,  // measure 41
1000
0000
1000
0000
,  // measure 42
0001
0000
0010
0000
,  // measure 43
0100
0000
0001
0000
,  // measure 44
0001
0000
0100
0000
,  // measure 45
0001
0000
0001
0000
,  // measure 46
1000
0000
0100
0000
,  // measure 47
1000
0000
0010
0000
,  // measure 48
0001
0000
0100
0000
,  // measure 49
0010
0000
1000
0000
,  // measure 50
0100
0000
0010
0000
,  // measure 51
0001
0000
1000
0000
,  // measure 52
0010
0000
0001
0000
,  // measure 53
0010
0000
1000
0000
,  // measure 54
0100
0000
0001
0000
,  // measure 55
1000
0000
0010
0000
,  // measure 56
0001
0001
0000
0000
,  // measure 57
1000
1000
0000
0000
,  // measure 58
0001
0001
0000
0000
,  // measure 59
1000
1000
0000
0000
,  // measure 60
0100
0100
0000
0000
,  // measure 61
0100
0100
0000
0000
,  // measure 62
0010
0010
0000
0000
,  // measure 63
0010
0010
0000
0000
,  // measure 64
0001
0001
0000
0000
,  // measure 65
1000
1000
0000
0000
,  // measure 66
0001
0001
0000
0000
,  // measure 67
1000
1000
0000
0000
,  // measure 68
0010
0010
0000
0000
,  // measure 69
0100
0100
0000
0000
,  // measure 70
0010
0010
0000
0000
,  // measure 71
1000
0000
0010
0000
,  // measure 72
0100
0000
0001
0000
,  // measure 73
1000
0000
0100
0000
,  // measure 74
0010
0000
0001
0000
,  // measure 75
1000
0000
0001
0000
,  // measure 76
2002
0000
0000
0000
,  // measure 77
0000
3003
0000
0000
0000
0000
0000
0000
;
