#TITLE:SCREW;
#SUBTITLE:;
#ARTIST:SHITKICKER;
#TITLETRANSLIT:;
#SUBTITLETRANSLIT:;
#ARTISTTRANSLIT:;
#GENRE:;
#CREDIT:;
#BANNER:;
#BACKGROUND:SCREW-bg.png;
#LYRICSPATH:;
#CDTITLE:;
#MUSIC:SCREW.ogg;
#OFFSET:-0.420000;
#SAMPLESTART:2.270000;
#SAMPLELENGTH:6.476000;
#SELECTABLE:YES;
#BPMS:0.000000=108.084000
,36.000000=432.335999
,52.000000=216.167999
,164.000000=216.108002
,228.000000=215.268005
,320.000000=399.992004
,635.000000=216.167999
;
#STOPS:164.000000=0.079000
;
#BGCHANGES:3.250=SCREW.mp4=1.000=0=0=1=====,
99999=-nosongbg-=1.000=0=0=0 // don't automatically add -songbackground-
;
#KEYSOUNDS:;
#ATTACKS:;

//---------------dance-single - Nifara----------------
#NOTES:
     dance-single:
     Nifara:
     Easy:
     8:
     0.262775,0.497251,0.050534,0.010107,0.000000,182.000000,177.000000,5.000000,1.000000,0.000000,0.000000,0.262775,0.497251,0.050534,0.010107,0.000000,182.000000,177.000000,5.000000,1.000000,0.000000,0.000000:
0000
0000
0000
0000
,
0000
0000
0000
0000
,
0000
0000
0000
0000
,
0000
0000
0000
0000
,
0000
0000
0000
0000
,
0000
0000
0000
0000
,
0000
0000
0000
0000
,
0000
0000
0000
0000
,
0001
1000
0100
0001
,
1000
0001
1000
0001
,
1000
0001
1000
0001
,
1000
0000
0000
0000
,
0000
0000
0000
0000
,
1000
0000
0001
0000
,
1000
0000
0001
0000
,
0010
0000
0100
0000
,
0010
0000
0100
0000
,
1000
0000
0001
0000
,
1000
0000
0001
0000
,
0010
0000
0100
0000
,
0010
0000
0100
0000
,
0010
0000
0010
0000
,
1000
0000
1000
0000
,
0001
0000
0001
0000
,
0001
1000
0001
0000
,
0010
0000
0010
0000
,
1000
0000
1000
0000
,
0001
0000
0001
0000
,
0001
1000
0001
0000
,
0001
0000
1000
0000
,
0010
0000
0001
0000
,
1000
0000
0100
0000
,
0010
0010
1010
0000
,
0001
0000
1000
0000
,
0010
0000
1000
0000
,
0001
0000
0010
0000
,
0100
0000
1000
0000
,
0001
0000
1000
0000
,
0100
0000
0010
0000
,
0001
0000
1000
0000
,
1000
0100
0010
0100
1000
0000
1000
0000
,
1001
0000
0000
1100
,
1100
0000
0000
0000
,
0000
0000
0000
0000
,
0000
0000
0000
0000
,
0000
0000
0000
0000
,
0000
0000
0000
0000
,
0000
0000
0000
0000
,
0000
0000
0000
0000
,
0000
0000
0000
0000
,
1000
0100
1000
0000
,
1000
0100
1000
0000
,
1000
0100
1000
0000
,
1000
0100
1000
0100
,
1000
0100
1000
0000
,
1000
0100
1000
0000
,
1000
0100
1000
0000
,
1000
0000
0000
0000
,
0001
0000
1000
0000
,
0001
0000
1000
0000
,
0001
0000
1000
0000
,
0001
0000
1000
0000
,
0001
0000
0001
0000
,
0001
0000
0001
0000
,
0001
0000
0001
0000
,
0001
0001
1001
0000
,
1000
0100
1000
1000
,
1000
0001
0001
0001
,
0010
0100
0100
0100
,
1000
0001
0001
0001
,
0010
0100
0100
0100
,
1000
0010
0010
0010
,
1000
0001
0100
0100
,
0100
0100
0100
0100
,
1000
0010
0010
0010
,
0001
1000
1000
1000
,
0100
0001
0001
0001
,
0010
0100
0100
0100
,
0010
1000
1000
1000
,
0001
0000
0001
0000
0001
1000
0001
0000
,
0002
0000
0000
0000
,
0000
0000
0000
0000
,
0003
0000
0000
0000
;

//---------------dance-single - Nifara----------------
#NOTES:
     dance-single:
     Nifara:
     Medium:
     12:
     0.437477,0.565977,0.212241,0.010107,0.000000,303.000000,282.000000,21.000000,1.000000,0.000000,0.000000,0.437477,0.565977,0.212241,0.010107,0.000000,303.000000,282.000000,21.000000,1.000000,0.000000,0.000000:
0000
0000
0000
0000
,
0000
0000
0000
0000
,
0000
0000
0000
0000
,
0000
0000
0000
0000
,
0000
0000
0000
0000
,
0000
0000
0000
0000
,
0000
0000
0000
0000
,
0000
0000
0000
0000
,
1000
0001
1000
0001
,
0001
0000
1000
0000
,
0100
0000
0100
0000
,
2000
0000
0000
0000
,
0000
0000
0000
0000
,
3001
0001
0001
0000
1001
0000
0000
0000
,
0010
0010
0010
0000
1010
0000
0000
0000
,
1000
1000
1000
0000
1001
0000
0000
0000
,
0100
0100
0100
0000
0101
0000
0000
0000
,
0010
0010
0010
0000
1010
0000
0000
0000
,
0100
0100
0100
0000
0101
0000
0000
0000
,
1000
1000
1000
0000
1001
0000
0000
0000
,
0001
0001
0001
0000
1001
0000
0000
0000
,
1000
0001
1000
0000
,
0001
1000
0001
0000
,
0100
0001
0100
1000
,
0010
1000
0100
0000
,
0001
1000
0010
0000
,
1000
0001
1000
0000
,
0010
0100
0001
1000
,
0100
0000
0001
0001
0001
0000
1001
0000
,
0010
1000
0001
0000
,
1000
0001
0010
0000
,
1000
0001
0010
1000
,
0010
0001
1000
0000
,
0001
1000
0100
0010
,
0001
1000
0001
1000
,
0010
0100
0001
1000
,
0010
0100
0001
1000
,
0010
0100
0001
1000
,
0001
0010
0001
0100
,
1000
0010
0100
0001
,
1000
0100
0001
1000
0010
0001
1000
0100
,
0001
0000
0000
1100
,
1001
1000
1000
1000
,
1000
1000
1000
1000
,
1000
1000
1000
1000
,
1000
1000
1000
1000
,
1000
1000
1000
1000
,
1000
1000
1000
1000
,
1000
1000
1000
1000
,
1000
1000
1000
1000
,
1000
0100
1000
0000
,
1000
0100
1000
0000
,
1000
0100
1000
0000
,
1000
0001
0010
1000
,
0100
0100
1000
0000
,
0100
0100
0010
0000
,
0001
0001
1000
0000
,
1001
0000
0000
0000
,
0001
0001
0001
0000
1001
0000
0000
0000
,
0010
0010
0010
0000
1010
0000
0000
0000
,
1000
1000
1000
0000
1001
0000
0000
0000
,
0100
0100
0100
0000
0101
0000
0000
0000
,
0010
0010
0010
0000
1010
0000
0000
0000
,
0100
0100
0100
0000
0101
0000
0000
0000
,
1000
1000
1000
0000
1001
0000
0000
0000
,
0001
0001
0001
0000
1001
0000
0000
0000
,
1000
1000
1000
0000
1000
0000
0001
0000
,
0001
0001
0001
0000
0001
0000
1000
0000
,
0100
0100
0100
0000
0100
0000
0001
0000
,
0001
0001
0001
0000
0001
0000
1000
0000
,
0100
0100
0100
0000
0001
0000
1000
0000
,
1000
1000
1000
0000
0100
0000
0010
0000
,
0001
0001
0001
0000
0001
0000
0010
0000
,
0010
1000
0010
1000
0010
0010
0010
0000
,
1000
0000
0001
0000
0001
0001
0001
0000
,
0001
0000
0100
0000
0100
0100
0100
0000
,
0100
0000
0010
0000
0010
0010
0010
0000
,
0010
0000
1000
0000
1000
1000
1000
0000
,
1000
0000
0100
0000
0100
0100
0100
0000
,
0010
1000
0010
1000
0010
0010
0010
0000
,
1010
0000
0000
0000
;

//---------------dance-single - Nifara----------------
#NOTES:
     dance-single:
     Nifara:
     Hard:
     17:
     0.708915,0.889392,0.505336,0.010107,0.070747,491.000000,441.000000,50.000000,1.000000,0.000000,0.000000,0.708915,0.889392,0.505336,0.010107,0.070747,491.000000,441.000000,50.000000,1.000000,0.000000,0.000000:
0000
0000
0000
0000
,
0000
0000
0000
0000
0000
1000
0000
0000
,
0000
0000
0000
0000
0000
1000
0000
0000
,
0000
0001
0000
0000
0000
0000
0000
0000
1000
0000
0000
0000
0000
0000
0000
0000
,
0000
0000
0000
0000
,
0000
0000
0000
0000
,
0000
0000
0000
0000
,
0000
0000
0000
0000
,
1000
0001
1000
0000
1000
0001
1000
0000
,
1000
0100
0001
1000
,
0010
0001
1000
0100
,
0002
0000
0000
0000
,
0000
0000
0000
0000
,
0013
1000
0001
0010
0100
0010
0001
0100
,
0001
0100
0010
0100
0010
1000
0010
0100
,
0001
0010
0100
1000
0001
1000
0100
1000
,
0001
0100
0010
0100
0010
0100
0001
1000
,
0010
1000
0001
0010
0001
0100
0010
0100
,
0010
1000
0100
0010
0100
1000
0010
0100
,
0010
1000
0100
0010
0100
0010
0001
1000
,
0001
1000
0001
0000
,
0010
0100
0010
1000
0001
0010
0100
1000
,
0010
0100
0001
1000
0010
0100
0001
0010
,
0001
0100
0010
1000
0001
0100
0010
1000
,
0001
0000
0001
0010
0001
1000
0000
1000
,
1000
0100
1000
0100
0010
0100
1000
0010
,
1000
0100
0010
0001
0100
0010
1000
0010
,
0100
0001
0010
0001
0100
0010
1000
0100
,
1000
0000
1000
0001
1000
0000
0100
0010
,
0100
0010
0100
1000
0010
0100
0010
1000
,
0001
1000
0100
0010
0100
0010
0100
1000
,
0001
0010
0100
0010
0001
0100
0010
0100
,
0010
0000
0110
0000
,
0010
0100
0001
0010
0001
0100
0010
1000
,
0100
1000
0100
1000
0010
0100
0010
0100
,
0010
1000
0001
0010
0001
0010
0001
1000
,
0010
0100
0001
0010
0100
1000
0001
0100
,
0010
1000
0100
1000
0010
0100
0001
1000
,
0100
0010
0100
1000
0001
0100
0001
1000
,
0001
0100
0010
0100
0001
0010
0001
0010
,
0100
0010
0001
0010
0100
0010
0001
0010
,
0100
0000
0000
1001
,
0100
1000
0100
0000
0000
0000
0000
0000
0000
0000
0000
0000
0000
0000
0000
0000
,
0100
0010
0100
0000
0000
0000
0000
0000
0000
0000
0000
0000
0000
0000
0000
0000
,
0100
1000
0100
0000
0000
0000
0000
0000
0000
0000
0000
0000
0000
0000
0000
0000
,
0010
0001
0010
0001
0010
0000
0000
0000
0000
0000
0000
0000
0000
0000
0000
0000
,
1000
0000
0010
0000
1000
0100
1000
0000
,
0001
0000
1000
0000
1000
0001
1000
0000
,
0100
0000
0001
0000
0001
0010
0100
0000
,
1000
0000
0010
0000
0010
1000
0010
0000
,
0010
0010
0010
0000
,
0010
0010
0010
0000
,
1000
1000
1000
0000
,
0001
1000
0001
1000
0001
1000
0001
1000
0001
1000
0001
1000
0001
1000
0001
1000
,
0001
0001
0001
0000
,
1000
1000
1000
0000
,
0100
0100
0100
0000
,
1001
0000
0010
0010
,
0010
1000
0001
0010
0100
0010
0001
0100
,
0001
0100
0010
0100
0010
1000
0010
0100
,
0001
0010
0100
1000
0001
1000
0100
1000
,
0001
0100
0010
0100
0010
0100
0001
1000
,
0010
1000
0001
0010
0001
0100
0010
0100
,
0010
1000
0100
0010
0100
1000
0010
0100
,
0010
1000
0100
0010
0100
0010
0001
1000
,
0001
1000
0000
1001
0000
0000
0000
0000
,
1000
0000
0100
0000
1100
1100
1100
0000
,
0010
0001
0010
0001
0011
0011
0011
0000
,
0100
0000
0001
0000
0101
0101
0101
0000
,
1000
0100
0010
0001
1001
1001
1001
0000
,
1000
0000
0100
0000
1100
1100
1100
0000
,
1000
0100
1000
0100
1100
1100
1100
0000
,
0100
0000
0001
0000
0101
0101
0101
0000
,
0100
0010
0100
0010
0100
0010
0100
0000
,
1100
0000
0011
0000
0110
1100
0110
0000
,
0110
0000
1001
0000
0110
0110
0110
0000
,
1100
0000
0101
0000
0101
0101
0101
0000
,
1100
0000
0110
0000
0110
0110
0110
0000
,
0011
0000
1010
0000
1010
1010
1010
0000
,
1000
0100
1000
0100
1000
0100
1000
0000
,
1000
0000
0000
0000
;

//---------------dance-single - Nifara----------------
#NOTES:
     dance-single:
     Nifara:
     Challenge:
     18:
     0.890836,1.367440,0.525550,0.060640,0.833805,617.000000,565.000000,52.000000,6.000000,0.000000,0.000000,0.890836,1.367440,0.525550,0.060640,0.833805,617.000000,565.000000,52.000000,6.000000,0.000000,0.000000:
0000
0000
0000
0000
,
0000
0000
0000
0000
0000
1000
0000
0000
,
0000
0000
1000
0000
0000
0000
0000
0000
0000
0000
0000
0000
0000
0000
0000
1000
0000
0000
0000
0000
0000
0000
0000
0000
,
0000
0001
0000
0000
0000
0000
0000
0000
1000
0000
0000
0000
1001
0000
0000
0000
,
0000
0000
0000
0000
,
0000
0000
0000
0000
,
1000
0000
1000
0000
1000
0000
1000
0100
,
0001
0000
0001
0000
0001
0000
0001
0010
,
1000
0100
0010
1000
0001
1000
0001
1000
,
0001
1000
0100
0010
0001
1000
0100
0010
,
0001
1000
0100
0010
0001
1000
0100
0010
,
0002
0000
0000
0000
,
0000
0000
0000
0000
,
1003
0001
1000
0100
1000
0000
1000
0000
1000
0000
1000
0000
1000
0000
1000
0000
,
1000
0010
1000
0100
1000
0000
1000
0000
0001
0000
0100
0000
0001
0000
0001
0000
,
0001
0010
0001
0010
0001
0000
0001
0000
0001
0000
0001
0000
0001
0000
0001
0000
,
0001
1000
0001
0010
0001
0000
0100
0000
0010
0000
0010
0000
0010
0000
0010
0000
,
0010
0100
0010
1000
0010
0000
0010
0000
0010
0000
0010
0000
0010
0000
0010
0000
,
0010
0100
0010
1000
0010
0000
1000
0000
0100
0000
0100
0000
0100
0000
0100
0000
,
0100
1000
0100
1000
0100
0000
0100
0000
0100
0000
0100
0000
0100
0000
0100
0000
,
0200
0000
0000
0300
,
1001
0000
0000
0000
1100
0000
0000
0000
1000
0100
1000
0100
1000
0000
0000
0000
,
1001
0000
0000
0000
0110
0000
0000
0000
0010
0100
0010
1000
0010
0000
0000
0000
,
1001
0000
0000
0000
0011
0000
0000
0000
0001
0010
0100
1000
0100
0000
0000
0000
,
1000
0100
0010
0001
0010
0100
1000
0100
0010
0001
0010
0100
1000
0000
0000
0000
,
1001
0000
0000
0000
0101
0000
0000
0000
0001
0100
0001
0010
0001
0000
0000
0000
,
0101
0000
0000
0000
0110
0000
0000
0000
0100
0010
0100
0010
0100
0000
0000
0000
,
1001
0000
0000
0000
0101
0000
0000
0000
0010
0001
0010
0001
0010
0000
0000
0000
,
0010
0100
0010
0001
0010
0100
0010
0001
0010
0100
0010
0001
0010
0000
0000
0000
,
0001
0100
0010
0100
0001
0000
0000
0000
0010
0001
0010
0001
0010
0000
0000
0000
,
1000
0100
0010
0100
1000
0000
0000
0000
1000
0100
0010
0001
0010
0000
0000
0000
,
0010
0100
0010
0100
0010
0000
0000
0000
1000
0100
1000
0100
1000
0000
0000
0000
,
1100
1001
0110
0011
1010
0000
0000
0000
,
1000
0100
1000
0000
0000
0000
0000
0000
1000
0001
1000
0000
0000
0000
0000
0000
,
0010
0001
0010
0000
0000
0000
0000
0000
0100
1000
0100
0000
0000
0000
0000
0000
,
0010
0100
0010
0000
0000
0000
0000
0000
1000
0100
0010
0000
0000
0000
0000
0000
,
1000
0100
0010
0000
0000
0000
0000
0000
1000
0100
0010
0000
0000
0000
0000
0000
,
1000
0001
1000
0000
0000
0000
0000
0000
0001
1000
0001
0000
0000
0000
0000
0000
,
0100
0010
0001
0000
0000
0000
0000
0000
0100
0010
0001
0000
0000
0000
0000
0000
,
1000
0001
1000
0000
0000
0000
0000
0000
0100
0010
0100
0000
0000
0000
0000
0000
,
0100
1000
0001
1000
0100
1000
0001
0010
0100
0010
0001
0100
0001
0010
0100
1000
,
0100
0000
0000
0000
0000
0000
0000
0000
0000
0000
0000
0000
0000
0000
0000
0000
0000
0000
0000
0000
0000
0000
0000
0000
0000
0000
0000
0000
0000
0000
0000
0000
0000
0000
0000
0000
0000
0000
0000
0000
0000
0000
0000
0000
0000
0000
0000
0000
0000
0000
0000
0000
0000
0000
0000
0000
0000
0000
0000
0000
0000
0000
0000
0000
0000
0000
0000
0000
0000
0000
0000
0000
0000
0000
0000
0000
0000
0000
0000
0000
0000
0000
0000
0000
0000
0000
0000
0000
0000
0000
0000
0000
0000
0000
0000
0000
0000
0000
0000
0000
0000
0000
0000
0000
0000
0000
0000
0000
0000
0000
0000
0000
0000
0000
0000
0000
0000
0000
0000
0000
0000
0000
0000
0000
0000
0000
0000
0000
0000
0000
0000
0000
0000
0000
1001
0000
0000
0000
0000
0000
0000
0000
0000
0000
0000
0000
0000
0000
0000
0000
0000
0000
0000
0000
0000
0000
0000
0000
0000
0000
0000
0000
0000
0000
0000
0000
0000
0000
0000
0000
0000
0000
0000
0000
0000
0000
0000
0000
0000
0000
0000
0000
0000
0000
0000
0000
0000
0000
0000
0000
0000
0000
,
0001
0010
0001
0010
0001
0010
0001
0010
0001
0010
0001
0010
0001
0100
0001
0100
,
0001
0100
0001
0100
0001
0100
0001
0100
0001
1000
0001
1000
0001
1000
0001
1000
,
0001
1000
0001
1000
0001
0100
0001
0100
0001
0100
0001
0100
0001
0100
0001
0100
,
0001
0010
0001
0010
0001
0010
0001
0010
0001
0010
0001
0010
0001
0100
0001
0100
,
0001
0000
0000
0000
1000
0000
0000
0000
0100
1000
0100
1000
0100
0000
0000
0000
,
1000
0000
0000
0000
0001
0000
0000
0000
0001
0010
0001
0010
0001
0000
0000
0000
,
1000
0000
0000
0000
0001
0000
0000
0000
0100
1000
0100
1000
0100
0000
0000
0000
,
1000
0000
0000
0000
0001
0000
0000
0000
0010
0001
0010
0001
0010
0000
0000
0000
,
1010
0110
0020
0000
,
1030
1010
2001
0000
,
3001
0101
1002
0003
,
1000
0100
0010
0001
0010
0100
1000
0100
0010
0001
0010
0100
1000
0100
0010
0001
,
1000
0001
1001
0000
,
1001
0101
0011
0000
,
1100
1010
1001
0000
,
1001
0000
0000
0000
,
1000
0000
0001
1000
0001
1000
0000
0000
,
0010
0100
0010
0000
0110
0000
0000
0000
,
1000
0000
1000
0100
0010
0001
0000
0000
,
1000
0100
0010
0000
1010
0000
0000
0000
,
0110
0000
0001
1000
0001
0010
0000
0000
,
0010
0100
0010
0000
0110
0000
0000
0000
,
1000
0000
0100
1000
0100
1000
0000
0000
,
1000
0010
1000
0000
,
1000
0100
0000
0000
1000
0100
0000
0000
0001
0010
0001
0010
0001
0000
0000
0000
,
1000
0100
1000
0000
1000
0100
1000
0000
1000
0001
1000
0001
1000
0000
0000
0000
,
0001
0100
0000
0000
0001
0100
0000
0000
0001
0100
0001
0100
0001
0000
0000
0000
,
0001
0100
0001
0000
0001
0100
0001
0000
0001
0100
0001
0100
0001
0000
0000
0000
,
1000
0010
0000
0000
0100
0010
0000
0000
0100
0010
0100
0010
0100
0000
0000
0000
,
1000
0010
1000
0000
1000
0010
1000
0000
1000
0010
1000
0010
1000
0000
0000
0000
,
0100
0001
0000
0000
0100
0010
0000
0000
0100
0001
0100
0001
0100
0000
0000
0000
,
0100
0001
0100
0000
0100
0001
0100
0000
0100
0001
0100
0001
0100
0000
0000
0000
,
1100
0000
0110
0000
0011
0000
0000
0000
0010
0001
0010
0001
0010
0000
0000
0000
,
1001
0000
0110
0000
1001
0000
0000
0000
1000
0001
1000
0001
1000
0000
0000
0000
,
0011
0000
0101
0000
1001
0000
0000
0000
0001
1000
0001
1000
0001
0000
0000
0000
,
1100
0000
0011
0000
1100
0000
0000
0000
1000
0100
1000
0100
1000
0000
0000
0000
,
1001
0000
0101
0000
0011
0000
0000
0000
0010
0001
0010
0001
0010
0000
0000
0000
,
0001
0010
0100
1000
1000
0100
1000
0000
,
2000
0000
0000
0000
,
0000
0000
0000
0000
,
3000
0000
0000
0000
;

//---------------dance-single - Nifara----------------
#NOTES:
     dance-single:
     :
     Beginner:
     5:
     0.184809,0.290063,0.020213,0.030320,0.000000,128.000000,126.000000,2.000000,3.000000,0.000000,0.000000,0.184809,0.290063,0.020213,0.030320,0.000000,128.000000,126.000000,2.000000,3.000000,0.000000,0.000000:
// measure 0
0000
0000
0000
0000
,  // measure 1
0000
0000
0000
0000
,  // measure 2
0000
0000
0000
0000
,  // measure 3
0000
0000
0000
0000
,  // measure 4
0000
0000
0000
0000
,  // measure 5
0000
0000
0000
0000
,  // measure 6
0000
0000
0000
0000
,  // measure 7
0000
0000
0000
0000
,  // measure 8
1000
1000
1000
0000
,  // measure 9
2002
0000
0000
0000
,  // measure 10
0000
0000
0000
0000
,  // measure 11
3003
0000
0000
0000
,  // measure 12
0000
0000
0000
0000
,  // measure 13
0000
0000
0001
0000
,  // measure 14
1000
0000
0001
0000
,  // measure 15
0010
0000
0100
0000
,  // measure 16
0010
0000
0100
0000
,  // measure 17
1000
0000
0001
0000
,  // measure 18
1000
0000
0001
0000
,  // measure 19
0010
0000
0100
0000
,  // measure 20
0010
0000
0100
0000
,  // measure 21
0010
0000
0010
0000
,  // measure 22
1000
0000
1000
0000
,  // measure 23
0001
0000
0001
0000
,  // measure 24
0001
1000
0001
0000
,  // measure 25
0010
0000
0010
0000
,  // measure 26
1000
0000
1000
0000
,  // measure 27
0001
0000
0001
0000
,  // measure 28
0001
1000
0001
0000
,  // measure 29
0001
0000
1000
0000
,  // measure 30
0010
0000
0001
0000
,  // measure 31
1000
0000
0100
0000
,  // measure 32
0010
0010
1010
0000
,  // measure 33
0001
0000
1000
0000
,  // measure 34
0010
0000
1000
0000
,  // measure 35
0001
0000
0010
0000
,  // measure 36
0100
0000
1000
0000
,  // measure 37
0001
0000
1000
0000
,  // measure 38
0100
0000
0010
0000
,  // measure 39
0001
0000
1000
0000
,  // measure 40
1000
0000
1000
1000
,  // measure 41
1000
0000
0000
0000
,  // measure 42
0000
0000
0000
0000
,  // measure 43
0000
0000
0000
0000
,  // measure 44
0000
0000
0000
0000
,  // measure 45
0000
0000
0000
0000
,  // measure 46
0000
0000
0000
0000
,  // measure 47
0000
0000
0000
0000
,  // measure 48
0000
0000
0000
0000
,  // measure 49
0000
0000
0000
0000
,  // measure 50
1000
0000
1000
0000
,  // measure 51
1000
0000
1000
0000
,  // measure 52
1000
0000
1000
0000
,  // measure 53
1000
0000
1000
0000
,  // measure 54
1000
0000
1000
0000
,  // measure 55
1000
0000
1000
0000
,  // measure 56
1000
0000
1000
0000
,  // measure 57
1000
0000
0000
0000
,  // measure 58
0001
0000
1000
0000
,  // measure 59
0001
0000
1000
0000
,  // measure 60
0001
0000
1000
0000
,  // measure 61
0001
0000
1000
0000
,  // measure 62
0001
0000
0001
0000
,  // measure 63
0001
0000
0001
0000
,  // measure 64
0001
0000
0001
0000
,  // measure 65
0001
0001
0000
0000
,  // measure 66
1000
0000
1000
1000
,  // measure 67
1000
0000
0001
0000
,  // measure 68
0010
0000
0100
0000
,  // measure 69
1000
0000
0001
0000
,  // measure 70
0010
0000
0100
0000
,  // measure 71
1000
0000
0010
0000
,  // measure 72
1000
0000
0100
0000
,  // measure 73
0100
0100
0100
0000
,  // measure 74
1000
0000
0010
0000
,  // measure 75
0001
0000
1000
0000
,  // measure 76
0100
0000
0001
0000
,  // measure 77
0010
0000
0100
0000
,  // measure 78
0010
0000
1000
0000
,  // measure 79
0001
0000
0001
0000
,  // measure 80
0002
0000
0000
0000
,  // measure 81
0000
0000
0000
0000
,  // measure 82
0003
0000
0000
0000
;
