#VERSION:0.83;
#TITLE:SCHRANZ H;
#SUBTITLE:;
#ARTIST:TCN160;
#TITLETRANSLIT:;
#SUBTITLETRANSLIT:;
#ARTISTTRANSLIT:;
#GENRE:;
#ORIGIN:;
#CREDIT:;
#BANNER:SCHRANZ H-bn.png;
#BACKGROUND:SCHRANZ H-bg.png;
#PREVIEWVID:;
#JACKET:SCHRANZ H-jacket.png;
#CDIMAGE:;
#DISCIMAGE:;
#LYRICSPATH:;
#CDTITLE:;
#MUSIC:SCHRANZ H.ogg;
#OFFSET:-0.025475;
#SAMPLESTART:47.968040;
#SAMPLELENGTH:12.000000;
#SELECTABLE:YES;
#BPMS:0.000=160.000;
#STOPS:;
#DELAYS:;
#WARPS:;
#TIMESIGNATURES:0.000=4=4;
#TICKCOUNTS:0.000=4;
#COMBOS:0.000=1;
#SPEEDS:0.000=1.000=0.000=0;
#SCROLLS:0.000=1.000;
#FAKES:;
#LABELS:0.000=Song Start;
#BGCHANGES:
;
#KEYSOUNDS:;
#ATTACKS:
;

//---------------dance-single - ----------------
#NOTEDATA:;
#CHARTNAME:;
#STEPSTYPE:dance-single;
#DESCRIPTION:;
#CHARTSTYLE:;
#DIFFICULTY:Hard;
#METER:13;
#RADARVALUES:0.572943,0.583935,0.374904,0.209249,0.239764,460.000000,417.000000,43.000000,24.000000,0.000000,0.000000,0.000000,0.000000,0.000000,0.572943,0.583935,0.374904,0.209249,0.239764,460.000000,417.000000,43.000000,24.000000,0.000000,0.000000,0.000000,0.000000,0.000000;
#CREDIT:;
#NOTES:
// measure 0
0000
0000
0000
0000
,  // measure 1
0000
0000
0000
0000
,  // measure 2
0000
0000
0000
0000
,  // measure 3
0000
0000
0000
0000
,  // measure 4
0000
0000
0000
0000
,  // measure 5
1000
0000
0000
1000
0100
0000
0000
0100
0010
0000
0000
0010
0001
0000
0000
0001
,  // measure 6
0100
0000
0000
0100
0010
0000
0000
0010
1000
0000
0000
1000
0001
0000
0010
0000
,  // measure 7
0100
0000
0000
0100
1000
0000
0000
1000
0100
0000
0000
0100
0010
0000
0000
0010
,  // measure 8
0001
0100
0000
0000
0100
0010
0000
0000
0010
1000
0000
0000
1000
0001
0000
0000
,  // measure 9
0110
0000
0000
0000
1001
0000
0000
0001
0010
0000
0000
0010
0100
0000
0000
0100
,  // measure 10
1000
0000
0000
1000
0010
0000
0000
0010
0100
0000
0000
0100
0001
0000
0000
0000
,  // measure 11
1000
0000
0000
1000
0010
0000
0000
0010
0100
0000
0000
0100
0001
0000
0000
0001
,  // measure 12
0100
0000
0000
0100
0010
0000
0000
0010
1000
0000
0000
1000
0100
0000
0010
0000
,  // measure 13
0001
0000
0000
0001
1000
0000
0000
1000
0100
0000
0000
0100
1000
0000
0000
1000
,  // measure 14
0001
0000
0000
0001
0100
0000
0000
0100
0001
0000
0000
0001
1000
0000
0000
0000
,  // measure 15
0110
0000
0000
0010
1000
0000
0000
1000
0100
0000
0000
0100
0010
0000
0000
0010
,  // measure 16
0001
0000
0000
0001
0010
0000
0000
0010
0100
0000
1000
0000
0010
0000
0100
0000
,  // measure 17
0001
0000
0000
0010
0100
0000
0010
0000
0001
0000
0100
0000
0010
0000
0000
0000
,  // measure 18
0100
0000
0000
0010
0100
0000
0010
0000
1000
0000
0100
0000
0010
0000
0000
0000
,  // measure 19
0100
0000
0000
0010
0100
0000
0010
0000
0001
0000
0100
0000
0010
0000
0000
0000
,  // measure 20
0100
0000
0000
0010
0100
0000
0010
0000
1000
0000
0100
0000
0010
0000
0000
0000
,  // measure 21
1100
0000
0000
0001
0010
0000
0001
0000
0100
0000
1000
0000
0100
0000
0000
0000
,  // measure 22
0101
0000
0000
1000
0010
0000
1000
0000
0100
0000
0001
0000
0100
0000
0000
0000
,  // measure 23
1001
0000
0000
1000
0001
0000
0100
0000
0010
0000
1000
0000
0100
0000
0000
0000
,  // measure 24
0020
0031
0200
0301
2000
3010
0200
0310
,  // measure 25
1000
0100
0000
0001
0000
0010
0100
1000
,  // measure 26
0000
0010
0000
0001
0100
0001
1000
0000
,  // measure 27
0010
0000
0001
0100
0001
1000
0000
0110
,  // measure 28
0000
2002
3003
0110
0101
1000
0100
1000
,  // measure 29
0001
0010
0100
0010
0001
0100
1000
0100
,  // measure 30
0001
1000
0010
1000
0001
0010
0100
1000
,  // measure 31
0010
0100
0001
1000
0100
0000
0110
0000
,  // measure 32
1001
0000
0101
0000
0010
1000
0001
1001
,  // measure 33
0000
1100
0000
0010
0001
1000
1001
0000
,  // measure 34
0101
0000
0010
1000
0100
0110
0000
0011
,  // measure 35
0000
0010
0001
0100
0110
0000
1010
0000
,  // measure 36
0100
0001
0010
0110
0000
1001
0000
0100
,  // measure 37
1000
0010
0110
0000
1001
0000
0100
1000
,  // measure 38
0010
1001
0000
0110
0000
0101
0100
0010
,  // measure 39
1000
1000
1000
0100
0001
0100
1000
0001
,  // measure 40
0001
0001
0100
0010
1000
0010
0100
0100
,  // measure 41
0100
0001
1000
0100
0010
0001
0001
0001
,  // measure 42
0010
0100
0010
0001
0100
0100
0100
0010
,  // measure 43
1000
0100
0001
0100
0100
0100
1000
0001
,  // measure 44
0100
1000
0100
0100
0100
0001
1000
0100
,  // measure 45
0010
0002
2003
3002
0203
0320
2030
3002
,  // measure 46
0023
0000
0000
0000
,  // measure 47
0000
0000
0000
0000
,  // measure 48
0000
0000
0000
0000
,  // measure 49
0030
0000
0000
0000
,  // measure 50
0001
0100
1000
0010
,  // measure 51
1000
0100
0001
0010
,  // measure 52
0100
1000
0100
0000
0010
0001
0010
0000
,  // measure 53
0001
0100
0010
1000
0100
0000
1001
0000
,  // measure 54
1000
0010
0100
1000
0010
0100
1001
0000
,  // measure 55
0001
0010
0100
0001
0010
0100
1001
0000
,  // measure 56
0010
0001
0100
0010
0001
0100
1001
0000
,  // measure 57
0010
1000
0100
0010
1000
1000
1000
0000
,  // measure 58
0001
0010
0100
0001
1000
0100
1001
0000
,  // measure 59
1000
0010
0100
1000
0001
0100
1001
0000
,  // measure 60
0010
0100
0001
0010
1000
0100
1001
0000
,  // measure 61
1000
0100
0010
1000
1001
0000
0110
0000
,  // measure 62
0001
0010
0000
0000
0010
0100
0000
0000
0100
1000
0000
0000
1000
0010
0000
0000
,  // measure 63
0010
0001
0000
0000
0001
0010
0000
0000
0010
1000
0000
0000
1000
0000
0100
0000
,  // measure 64
0010
0101
0010
1100
,  // measure 65
0001
1001
1000
1010
,  // measure 66
0001
0100
0001
1000
0001
0010
0001
1000
,  // measure 67
1000
0100
1000
0001
1000
0010
1000
0000
,  // measure 68
0200
0300
0000
0000
0000
0000
0000
0000
0000
0000
0000
0000
0000
0000
0000
0000
0000
0000
0000
0000
0000
0000
0000
0000
0000
0000
0000
0000
0000
0000
0000
0000
0000
0000
0000
0000
0000
0000
0000
0000
0000
0000
0000
0000
0000
0000
0000
0000
0020
0030
0000
0000
0000
0000
0000
0000
0000
0000
0000
0000
0000
0000
0000
0000
0000
0000
0000
0000
0000
0000
0000
0000
0000
0000
0000
0000
0000
0000
0000
0000
0000
0000
0000
0000
0000
0000
0000
0000
0000
0000
0000
0000
0000
0000
0000
0000
0002
0003
0000
0000
0000
0000
0000
0000
0000
0000
0000
0000
0000
0000
0000
0000
0000
0000
0000
0000
0000
0000
0000
0000
0000
0000
0000
0000
0000
0000
0000
0000
0000
0000
0000
0000
0000
0000
0000
0000
0000
0000
0000
0000
0000
0000
0000
0000
0200
0300
0000
0000
0000
0000
0000
0000
0000
0000
0000
0000
0000
0000
0000
0000
0000
0000
0000
0000
0000
0000
0000
0000
0000
0000
0000
0000
0000
0000
0000
0000
0000
0000
0000
0000
0000
0000
0000
0000
0000
0000
0000
0000
0000
0000
0000
0000
,  // measure 69
0020
0030
0000
0000
0000
0000
0000
0000
0000
0000
0000
0000
0000
0000
0000
0000
0000
0000
0000
0000
0000
0000
0000
0000
0000
0000
0000
0000
0000
0000
0000
0000
0000
0000
0000
0000
0000
0000
0000
0000
0000
0000
0000
0000
0000
0000
0000
0000
2000
3000
0000
0000
0000
0000
0000
0000
0000
0000
0000
0000
0000
0000
0000
0000
0000
0000
0000
0000
0000
0000
0000
0000
0000
0000
0000
0000
0000
0000
0000
0000
0000
0000
0000
0000
0000
0000
0000
0000
0000
0000
0000
0000
0000
0000
0000
0000
0200
0300
0000
0000
0000
0000
0000
0000
0000
0000
0000
0000
0000
0000
0000
0000
0000
0000
0000
0000
0000
0000
0000
0000
0000
0000
0000
0000
0000
0000
0000
0000
0000
0000
0000
0000
0000
0000
0000
0000
0000
0000
0000
0000
0000
0000
0000
0000
0020
0030
0000
0000
0000
0000
0000
0000
0000
0000
0000
0000
0000
0000
0000
0000
0000
0000
0000
0000
0000
0000
0000
0000
1000
0000
0000
0000
0000
0000
0000
0000
0000
0000
0000
0000
0000
0000
0000
0000
0000
0000
0000
0000
0000
0000
0000
0000
,  // measure 70
1100
0202
0000
0000
0303
0000
0000
0000
;

//---------------dance-single - ----------------
#NOTEDATA:;
#CHARTNAME:;
#STEPSTYPE:dance-single;
#DESCRIPTION:;
#CHARTSTYLE:;
#DIFFICULTY:Challenge;
#METER:15;
#RADARVALUES:0.703724,0.768335,0.435935,0.217967,0.488247,565.000000,515.000000,50.000000,25.000000,0.000000,0.000000,0.000000,0.000000,0.000000,0.703724,0.768335,0.435935,0.217967,0.488247,565.000000,515.000000,50.000000,25.000000,0.000000,0.000000,0.000000,0.000000,0.000000;
#CREDIT:;
#NOTES:
// measure 0
0000
0000
0000
0000
,  // measure 1
0000
0000
0000
0000
,  // measure 2
0000
0000
0000
0000
,  // measure 3
0000
0000
0000
0000
,  // measure 4
0000
0000
0000
0000
,  // measure 5
0100
0000
0010
0001
0010
0000
0100
1000
0100
0000
0010
0001
0010
0000
0001
0100
,  // measure 6
0001
0000
0100
0010
0100
0000
0010
1000
0010
0000
1000
0100
1000
0000
0001
0000
,  // measure 7
0010
0000
0100
1000
0100
0000
0010
0001
0010
0000
0100
1000
0001
0000
0100
0001
,  // measure 8
0100
0010
0000
0000
0010
1000
0000
0000
1000
0001
0000
0000
0001
0100
0000
0000
,  // measure 9
0110
0000
0000
0000
1001
0000
1000
0000
0100
0000
0010
0001
0100
0000
0010
1000
,  // measure 10
0100
0000
1000
0001
1000
0000
0010
1000
0010
0000
0100
0010
1000
0000
0100
0000
,  // measure 11
0010
0000
0001
1000
0001
0000
0010
0001
0010
0000
0100
0010
0100
0000
1000
0100
,  // measure 12
1000
0000
0001
0010
0001
0000
0100
0001
0100
0000
0010
0000
0010
0000
0000
0000
,  // measure 13
1000
0000
0100
1000
0001
0000
0010
0001
0010
0000
0100
0010
0100
0000
1000
0100
,  // measure 14
1000
0000
0010
1000
0010
0000
0100
0001
1000
0000
0010
1000
0010
0000
0100
0010
,  // measure 15
0100
0000
0001
0100
0001
0000
1000
0100
1000
0000
0001
0010
0001
0000
1000
0100
,  // measure 16
1000
0000
0100
0010
0100
0000
1000
0001
1000
0000
0010
0000
0010
0000
0010
0000
,  // measure 17
0100
0000
0001
0100
0010
0000
1000
0000
0100
0000
0010
0000
0110
0000
0000
0000
,  // measure 18
0001
0000
1000
0100
0010
0000
0100
0000
1000
0000
0001
0000
1001
0000
0000
0000
,  // measure 19
0010
0000
0001
1000
0100
0000
1000
0000
0001
0000
0100
0000
0110
0000
0000
0000
,  // measure 20
0001
0000
0100
0010
1000
0000
0010
0000
0100
0000
0001
0000
1001
0000
0000
0000
,  // measure 21
1000
0000
0010
0100
0010
0000
1000
0000
0100
0000
0010
0000
0110
0000
0000
0000
,  // measure 22
0001
0000
0010
0100
0010
0000
0001
0000
0100
0000
0010
0000
0110
0000
0000
0000
,  // measure 23
1000
0000
0001
0100
0001
0000
1000
0000
0010
0000
0100
0000
0110
0000
0000
0000
,  // measure 24
2000
3100
2000
3001
0020
0130
0020
0031
,  // measure 25
1000
0100
0000
0100
0000
0010
0001
0100
,  // measure 26
0000
0100
0000
0001
1000
0010
0100
0000
,  // measure 27
0100
0000
0001
0010
0100
1000
0000
1001
,  // measure 28
0000
0110
1000
0100
0010
0000
0110
0000
,  // measure 29
0010
0001
0100
0010
0000
0110
0000
0010
,  // measure 30
1000
0100
0010
0000
0110
0000
0010
0001
,  // measure 31
0100
0010
0000
0110
0000
2002
3003
0000
,  // measure 32
1001
0000
1100
0000
0011
0010
0100
1001
,  // measure 33
0000
0101
0000
1010
0010
0100
1001
0000
,  // measure 34
0101
0000
1010
0010
0100
1001
0000
1100
,  // measure 35
0000
0011
0010
0100
1001
0000
0110
0000
,  // measure 36
1100
0100
0010
0011
0000
1001
0000
0101
,  // measure 37
0100
0010
1010
0000
1001
0000
0110
0010
,  // measure 38
1000
1001
0000
0011
0000
0001
0100
0001
,  // measure 39
1000
0000
0010
0100
0010
0000
1000
0010
1000
0000
0100
1000
0100
0000
0010
0000
,  // measure 40
0001
0100
0010
0000
1000
0100
0010
0000
0001
1000
0100
0000
0010
0000
0001
0010
,  // measure 41
0001
0000
0010
0100
0010
0000
0100
1000
0100
0000
1000
0000
0001
0010
0100
0000
,  // measure 42
1000
0010
0100
0000
0001
1000
0010
0000
1000
0000
0001
0100
0001
0000
0100
0010
,  // measure 43
0100
0000
0010
1000
0010
0000
0100
0000
0001
1000
0100
0000
0010
0001
1000
0000
,  // measure 44
0010
1000
0001
0000
0100
0000
0010
1000
0010
0000
0100
0001
0100
0000
0001
1000
,  // measure 45
0001
0020
0230
2300
3002
0203
0320
2030
,  // measure 46
3200
0000
0000
0000
,  // measure 47
0000
0000
0000
0000
,  // measure 48
0000
0000
0000
0000
,  // measure 49
0300
0000
0000
0000
,  // measure 50
0010
0000
0000
0010
0001
0000
0000
0001
1000
0000
0000
1000
0100
0000
0000
0100
,  // measure 51
1000
0000
0000
1000
0010
0000
0000
0010
0001
0000
0000
0001
0010
0000
0000
0010
,  // measure 52
1000
0000
0000
1000
0001
0000
0000
0001
0100
0000
0000
0100
0010
0000
0000
0010
,  // measure 53
1000
0000
0000
1000
0001
0000
0000
0001
0010
0000
0000
0000
1001
0000
0000
0000
,  // measure 54
0100
0000
0010
0001
0100
0000
0010
1000
0100
0000
0010
0001
0100
0000
0000
0000
,  // measure 55
0010
0000
1000
0001
0100
0000
0001
1000
0100
0000
1000
0001
0100
0000
0000
0000
,  // measure 56
0010
0000
1000
0100
1000
0000
1000
0001
1000
0000
1000
0010
1000
0000
0000
0000
,  // measure 57
0001
0000
0001
0100
0001
0000
0001
0100
0010
0000
0010
0000
0110
0000
0000
0000
,  // measure 58
1000
0000
0100
1000
0100
0000
0010
0001
1000
0000
0010
0100
0001
0000
0000
0000
,  // measure 59
1000
0000
1000
0100
0010
0000
0010
0001
1000
0000
1000
0001
0100
0000
0000
0000
,  // measure 60
0010
0000
0010
1000
0100
0000
0100
1000
0001
0000
0001
0010
0100
0000
0000
0000
,  // measure 61
1000
0000
0001
0010
0001
0000
1000
0010
1000
0000
0000
0000
0110
0000
0000
0000
,  // measure 62
1000
0100
1000
0000
0001
0100
0001
0000
1000
0010
1000
0000
0001
0010
0001
0000
,  // measure 63
1000
0100
0010
0000
0001
0100
0010
0000
1000
0001
0100
0000
0001
1000
0100
0000
,  // measure 64
0010
0011
0010
0011
,  // measure 65
0100
1100
0100
1100
,  // measure 66
0010
0001
0100
0010
1000
0100
0010
0001
,  // measure 67
1000
0010
0001
0010
0100
0010
1000
0000
,  // measure 68
0200
0300
0000
0000
0000
0000
0000
0000
0000
0000
0000
0000
0000
0000
0000
0000
0000
0000
0000
0000
0000
0000
0000
0000
0000
0000
0000
0000
0000
0000
0000
0000
0000
0000
0000
0000
0000
0000
0000
0000
0000
0000
0000
0000
0000
0000
0000
0000
0200
0300
0000
0000
0000
0000
0000
0000
0000
0000
0000
0000
0000
0000
0000
0000
0000
0000
0000
0000
0000
0000
0000
0000
0000
0000
0000
0000
0000
0000
0000
0000
0000
0000
0000
0000
0000
0000
0000
0000
0000
0000
0000
0000
0000
0000
0000
0000
0020
0030
0000
0000
0000
0000
0000
0000
0000
0000
0000
0000
0000
0000
0000
0000
0000
0000
0000
0000
0000
0000
0000
0000
0000
0000
0000
0000
0000
0000
0000
0000
0000
0000
0000
0000
0000
0000
0000
0000
0000
0000
0000
0000
0000
0000
0000
0000
0020
0030
0000
0000
0000
0000
0000
0000
0000
0000
0000
0000
0000
0000
0000
0000
0000
0000
0000
0000
0000
0000
0000
0000
0000
0000
0000
0000
0000
0000
0000
0000
0000
0000
0000
0000
0000
0000
0000
0000
0000
0000
0000
0000
0000
0000
0000
0000
,  // measure 69
0200
0300
0000
0000
0000
0000
0000
0000
0000
0000
0000
0000
0000
0000
0000
0000
0000
0000
0000
0000
0000
0000
0000
0000
0000
0000
0000
0000
0000
0000
0000
0000
0000
0000
0000
0000
0000
0000
0000
0000
0000
0000
0000
0000
0000
0000
0000
0000
0020
0030
0000
0000
0000
0000
0000
0000
0000
0000
0000
0000
0000
0000
0000
0000
0000
0000
0000
0000
0000
0000
0000
0000
0000
0000
0000
0000
0000
0000
0000
0000
0000
0000
0000
0000
0000
0000
0000
0000
0000
0000
0000
0000
0000
0000
0000
0000
0200
0300
0000
0000
0000
0000
0000
0000
0000
0000
0000
0000
0000
0000
0000
0000
0000
0000
0000
0000
0000
0000
0000
0000
0000
0000
0000
0000
0000
0000
0000
0000
0000
0000
0000
0000
0000
0000
0000
0000
0000
0000
0000
0000
0000
0000
0000
0000
0022
0033
0000
0000
0000
0000
0000
0000
0000
0000
0000
0000
0000
0000
0000
0000
0000
0000
0000
0000
0000
0000
0000
0000
0101
0000
0000
0000
0000
0000
0000
0000
0000
0000
0000
0000
0000
0000
0000
0000
0000
0000
0000
0000
0000
0000
0000
0000
,  // measure 70
1100
2020
0000
0000
3030
0000
0000
0000
;

//---------------dance-single - ----------------
#NOTEDATA:;
#CHARTNAME:;
#STEPSTYPE:dance-single;
#DESCRIPTION:;
#CHARTSTYLE:;
#DIFFICULTY:Medium;
#METER:10;
#RADARVALUES:0.411024,0.489119,0.261561,0.017437,0.000000,330.000000,300.000000,30.000000,2.000000,0.000000,0.000000,0.000000,0.000000,0.000000,0.411024,0.489119,0.261561,0.017437,0.000000,330.000000,300.000000,30.000000,2.000000,0.000000,0.000000,0.000000,0.000000,0.000000;
#CREDIT:;
#NOTES:
0000
0000
0000
0000
,
0000
0000
0000
0000
,
0000
0000
0000
0000
,
0000
0000
0000
0000
,
0000
0000
0000
0000
,
0001
0010
0001
0000
0010
0100
0010
0000
,
0100
1000
0100
0000
1000
0010
1000
0000
,
0010
0100
0010
0000
0100
0001
0100
0000
,
1010
1100
0101
0011
,
1001
0000
0001
0010
0100
0000
1000
0100
,
0010
0000
0001
1000
0010
0000
0100
0001
,
1000
0000
0100
0010
0001
0000
1000
0100
,
0010
0000
0100
1000
0001
0000
0100
0000
,
1000
0010
1000
0000
0010
0100
0010
0000
,
0100
0001
0100
0000
0001
1000
0001
0000
,
0010
0001
0010
0000
0100
1000
0100
0000
,
0010
0001
1000
0000
0010
1000
0001
0000
,
0100
0010
0100
0010
0000
0000
1000
0000
,
0001
0010
0001
0010
0000
0000
0100
0000
,
1000
0010
1000
0010
0000
0000
0100
0000
,
0010
1000
0010
1000
0000
0000
0001
0000
,
0010
0100
0010
0100
0000
0000
1000
0000
,
0100
0010
0100
0010
0000
0000
0001
0000
,
1000
0010
1000
0010
0000
0000
0100
0000
,
0001
0010
1000
0100
,
0001
1000
0000
1000
0000
0001
1000
0001
,
0000
0001
0000
1000
0001
1000
0001
0000
,
0001
0000
1000
0001
1000
0001
0000
0001
,
0000
1000
0100
1000
0001
0000
0001
0000
,
0001
0000
0001
0010
0000
0010
0000
0010
,
0000
0010
0100
0000
0100
0000
0100
0000
,
0100
1000
0000
1000
0000
2000
3000
1000
,
0001
0000
0001
0000
0000
1000
0010
0100
,
0000
0100
0000
0000
0001
0010
0100
0000
,
0100
0000
0000
1000
0010
1000
0000
0001
,
0000
0000
0001
0010
0001
0000
1000
0000
,
0000
0100
1000
0001
0000
0010
0000
0000
,
0001
1000
0010
0000
1000
0000
0000
0010
,
0100
0001
0000
1000
0000
0000
0010
1000
,
0100
0000
0100
0000
0100
0000
0100
0010
,
0000
0010
0000
0010
0000
0010
0001
0000
,
0001
0000
0001
0000
0001
1000
0000
1000
,
0000
1000
0000
1000
0010
0000
0010
0000
,
0010
0000
0010
0100
0000
0100
0000
0100
,
0000
0100
0001
0000
0001
0000
0001
0000
,
0001
1000
0000
1000
0000
1000
0000
1000
,
0020
0000
0000
0000
,
0000
0000
0000
0000
,
0000
0000
0000
0000
,
0030
0000
0000
0000
,
0100
0100
0010
0010
,
0100
0100
0010
0010
,
0001
0010
0100
1000
,
0010
0000
0100
0000
0010
0100
0010
0000
,
0110
0000
1001
0000
1000
0001
1000
0000
,
0110
0000
1001
0000
0001
1000
0001
0000
,
1010
0000
0101
0000
1000
0010
1000
0000
,
0011
0000
1100
0000
0001
0001
0001
0000
,
1001
0000
0101
0000
1000
0001
0100
0000
,
1001
0000
1100
0000
0001
1000
0100
0000
,
0110
0000
1001
0000
1000
0010
0100
0000
,
1001
0110
0001
0001
,
1100
0100
0110
0010
,
0011
0001
1001
1000
,
1010
0010
0110
0100
,
0101
0001
1001
1000
,
1100
0001
0100
1000
,
0100
0001
0100
1000
,
0001
0001
1000
1000
,
0001
0000
0001
0000
1000
0000
1000
0010
,
0100
0001
0000
0000
0000
0000
0000
0000
;

//---------------dance-single - ----------------
#NOTEDATA:;
#CHARTNAME:;
#STEPSTYPE:dance-single;
#DESCRIPTION:;
#CHARTSTYLE:;
#DIFFICULTY:Easy;
#METER:7;
#RADARVALUES:0.326328,0.458549,0.165655,0.017437,0.000000,262.000000,243.000000,19.000000,2.000000,0.000000,0.000000,0.000000,0.000000,0.000000,0.326328,0.458549,0.165655,0.017437,0.000000,262.000000,243.000000,19.000000,2.000000,0.000000,0.000000,0.000000,0.000000,0.000000;
#CREDIT:;
#NOTES:
0000
0000
0000
0000
,
0000
0000
0000
0000
,
0000
0000
0000
0000
,
0000
0000
0000
0000
,
0000
0000
0000
0000
,
1000
0010
0100
0001
,
1000
0010
0100
0001
,
0010
0100
1000
0001
,
0010
0010
0010
0010
,
0010
1001
0100
0010
,
1000
0100
0010
0010
,
0001
0100
0010
1000
,
0001
0100
0020
0130
,
0001
0010
0100
1000
,
0001
0010
0100
0010
,
0001
1000
0010
0100
,
0010
1000
0100
0001
,
0010
0010
0100
1001
,
0010
0010
0100
1001
,
1000
0010
0100
1010
,
0001
0010
0100
0011
,
1000
0001
0100
0110
,
0001
1000
0100
0110
,
1000
0001
0100
0110
,
0001
1000
0100
0110
,
1000
0000
0000
0000
,
0000
0001
0000
0000
0000
0000
0000
0000
,
1000
0000
0000
0000
0000
0000
0000
0001
,
0000
0000
0100
0100
,
0100
0000
0000
0010
0000
0010
0000
0010
,
0000
1000
1000
1000
,
0000
0001
0000
0001
0000
0001
0000
0000
,
1001
0000
1000
0000
1000
0000
1000
0100
,
0000
0100
0000
0100
0000
0100
0010
0000
,
0010
0000
0010
0000
0010
0001
0000
0001
,
0000
0001
0000
0001
1000
0000
1000
0000
,
1000
0000
1000
0010
0000
0010
0000
0010
,
0000
0010
0100
0000
0100
0000
0100
0000
,
0100
0001
0000
0001
0000
0001
0000
0001
,
0010
0000
0100
0000
1000
0000
0010
0100
,
0000
0001
0000
0010
0000
0100
1000
0000
,
0001
0000
1000
0000
0010
0100
0000
0001
,
0000
0010
0000
0100
0010
0000
0001
0000
,
1000
0000
0100
0010
0000
0100
0000
1000
,
0000
0001
0010
0000
0100
0000
0010
0000
,
0001
0100
0000
0010
0000
1000
0000
0001
,
0200
0000
0000
0000
,
0000
0000
0000
0000
,
0000
0000
0000
0000
,
0300
0000
0000
0000
,
0010
0010
1000
1000
,
0001
0001
0010
0010
,
0100
0100
1000
1000
,
0001
0001
0100
1001
,
0010
1000
0010
0010
,
0100
0001
0100
0100
,
0010
1000
0100
0100
,
0010
0001
1001
1001
,
0100
0010
1000
1000
,
0100
0010
0001
0001
,
0100
0010
1000
1000
,
0100
1000
1001
0110
,
1010
0010
1010
0100
,
0101
0100
0101
0100
,
0010
0010
1000
1000
,
0001
0001
0010
0010
,
0100
1000
0001
0010
,
0001
1000
0001
0100
,
0010
0010
0010
0010
,
0010
0010
0010
0010
,
0100
0010
0000
0000
0000
0000
0000
0000
;

//---------------dance-single - ----------------
#NOTEDATA:;
#CHARTNAME:;
#STEPSTYPE:dance-single;
#DESCRIPTION:;
#CHARTSTYLE:;
#DIFFICULTY:Beginner;
#METER:4;
#RADARVALUES:0.155691,0.305155,0.139499,0.008719,0.000000,125.000000,109.000000,16.000000,1.000000,0.000000,0.000000,0.000000,0.000000,0.000000,0.155691,0.305155,0.139499,0.008719,0.000000,125.000000,109.000000,16.000000,1.000000,0.000000,0.000000,0.000000,0.000000,0.000000;
#CREDIT:;
#NOTES:
0000
0000
0000
0000
,
0000
0000
0000
0000
,
0000
0000
0000
0000
,
0000
0000
0000
0000
,
0000
0000
0000
0000
,
1001
0000
0000
0000
,
1000
0000
0000
0000
,
0001
0000
0000
0000
,
0010
0010
0010
0010
,
0100
0000
0000
0000
,
0100
0000
0010
0000
,
0100
0000
0000
0000
,
0001
0000
0100
0000
,
0001
0000
0000
0000
,
1000
0000
0100
0000
,
1000
0000
0000
0000
,
0010
0000
0010
0000
,
0100
0000
0100
0000
,
0010
0000
0010
0000
,
1000
0000
1000
0000
,
0001
0000
0001
0000
,
0010
0000
0010
0000
,
0100
0000
0100
0000
,
1000
0000
0001
0000
,
0100
0100
0100
0000
,
0010
0000
0000
0000
,
0000
0000
0000
0000
,
0000
0000
0000
0000
,
0000
0000
1001
0000
,
0000
0000
0000
1000
0000
0000
0000
0000
,
0000
0001
0000
0000
,
0000
1000
0000
0000
0000
0000
0000
0000
,
1001
0000
0000
0000
0000
0000
0000
0110
,
0000
0000
0000
1001
,
0000
0000
0000
0000
0000
0110
0000
0000
,
0000
0000
1000
0000
,
0000
0000
0000
1001
0000
0000
0000
0000
,
0000
0001
0000
0000
,
0000
1001
0000
0000
0000
0000
0000
0000
,
0010
0000
0010
0000
0000
0000
0000
0100
,
0000
0100
0000
0000
0000
0000
0001
0000
,
0001
0000
0000
0000
0000
1000
0000
1000
,
0000
0000
0100
0100
,
0000
0000
0000
0010
0000
0010
0000
0000
,
0000
0001
0001
0000
,
0000
1000
0000
1000
0000
0000
0000
0000
,
0020
0000
0000
0000
,
0030
0000
0000
0000
,
0000
0000
0000
0000
,
0000
0000
0000
0000
,
0100
0000
0100
0000
,
0010
0000
0010
0000
,
0001
0000
0001
0000
,
1000
0000
1000
0000
,
1001
0000
0010
0000
,
1001
0000
0100
0000
,
1001
0000
0010
0000
,
0100
0000
0010
0010
,
0100
0000
0001
0000
,
0010
0000
1000
0000
,
0100
0000
1000
0000
,
1001
0000
1001
1001
,
1001
0000
0010
0000
,
0100
0000
0010
0000
,
1000
0000
0100
0000
,
0001
0000
0010
0000
,
0100
0000
0100
0000
,
0100
0000
0100
0000
,
0010
0000
0010
0000
,
0100
0000
0100
0000
,
1001
0000
0000
0000
;
