#TITLE:S.O.S. (The Tiger Took My Family);
#SUBTITLE:;
#ARTIST:Dr. Jekyll;
#TITLETRANSLIT:;
#SUBTITLETRANSLIT:;
#ARTISTTRANSLIT:;
#GENRE:;
#CREDIT:;
#BANNER:;
#BACKGROUND:S.O.S. (The Tiger Took My Family)-bg.jpg;
#LYRICSPATH:;
#CDTITLE:;
#MUSIC:S.O.S. (The Tiger Took My Family).mp3;
#OFFSET:-0.180000;
#SAMPLESTART:96.120003;
#SAMPLELENGTH:15.099998;
#SELECTABLE:YES;
#BPMS:0.000000=170.059998
;
#STOPS:
;
#BGCHANGES:;
#KEYSOUNDS:;
#ATTACKS:;

//---------------dance-single - ----------------
#NOTES:
     dance-single:
     :
     Easy:
     9:
     0.346470,0.401169,0.415289,0.340537,0.000000,292.000000,242.000000,50.000000,41.000000,0.000000,0.000000,0.346470,0.401169,0.415289,0.340537,0.000000,292.000000,242.000000,50.000000,41.000000,0.000000,0.000000:
0000
0000
0000
0000
,
0000
0000
0000
0000
,
0000
0000
0000
0000
,
0000
0000
0000
0000
,
1000
0110
1000
1000
,
0001
0110
0001
0000
,
1000
0000
0001
0000
,
1001
0110
1001
0000
,
1000
0010
0100
0001
,
0010
0001
0100
0010
,
0100
0010
1000
0100
,
1000
0001
0100
0010
,
1000
0001
0010
0001
,
0100
0010
1000
0010
,
0100
0001
0100
0001
,
0010
0001
1000
0100
,
2001
0000
3200
0000
,
0320
0000
0032
0000
,
0203
0000
0320
0000
,
1030
0100
0010
0001
,
2000
0000
3002
0000
,
0023
0000
0032
0000
,
2003
0000
3020
0000
,
0130
0001
1000
0010
,
1001
1001
0101
0000
,
0010
0100
0001
1000
,
1001
1001
1100
0000
,
0010
1000
0100
0001
,
1001
1001
0011
0000
,
0001
0100
0010
1000
,
1001
1001
1010
0000
,
1000
0100
0010
0001
,
2001
0000
0100
0000
,
3002
0000
0100
0000
,
2003
0000
0010
0000
,
3002
0000
0100
0003
,
2001
0000
3200
0000
,
0320
0000
0032
0000
,
0203
0000
0320
0000
,
1030
0100
0010
0001
,
2000
0000
3002
0000
,
0023
0000
0032
0000
,
2003
0000
3020
0000
,
0130
0001
1000
0010
,
1001
1001
0101
0000
,
0010
0100
0001
1000
,
1001
1001
1100
0000
,
0010
1000
0100
0001
,
1001
1001
0011
0000
,
0001
0100
0010
1000
,
1001
1001
1010
0000
,
1000
0100
0010
0001
,
1000
0010
0100
0001
,
0010
0001
0100
0010
,
0100
0010
1000
0100
,
1000
0001
0100
0010
,
1000
0001
0010
0001
,
0100
0010
1000
0010
,
0100
0001
0100
0001
,
0010
0001
1000
0100
,
2001
0000
3200
0000
,
0320
0000
0032
0000
,
0203
0000
0320
0000
,
1030
0100
0010
0001
,
2000
0000
3002
0000
,
0023
0000
0032
0000
,
2003
0000
3020
0000
,
0130
0001
1000
0010
,
1001
1001
0101
0000
,
0010
0100
0001
1000
,
1001
1001
1100
0000
,
0010
1000
0100
0001
,
1001
1001
0011
0000
,
0001
0100
0010
1000
,
1001
1001
1010
0000
,
1000
0100
0010
0001
,
1000
0110
1000
1000
,
0001
0110
0001
0000
,
1000
0000
0001
0000
,
1001
0110
1001
0001
,
0002
0000
0003
0000
;

//---------------dance-single - ----------------
#NOTES:
     dance-single:
     :
     Medium:
     12:
     0.460378,0.503019,0.506653,0.282397,0.000000,388.000000,327.000000,61.000000,34.000000,0.000000,0.000000,0.460378,0.503019,0.506653,0.282397,0.000000,388.000000,327.000000,61.000000,34.000000,0.000000,0.000000:
0000
0000
0000
0000
,
0000
0000
0000
0000
,
0000
0000
0000
0000
,
0000
0000
0000
0000
,
1000
0000
0100
1000
0100
0000
1000
0100
,
1000
0000
0100
1000
0200
0000
0000
0310
,
0001
0000
0000
0010
0001
0000
0000
0010
,
0001
0010
0001
0010
0001
0000
0000
0000
,
1001
0100
1001
0100
,
1010
0100
1010
0100
,
0011
0100
0011
1000
,
0101
1000
0101
1000
,
1010
0100
1010
0001
,
1010
0100
1010
0001
,
0110
0001
1100
0010
,
0101
0010
1100
0001
,
2001
0100
0010
3100
,
1002
0100
0010
0103
,
2001
0010
0100
3010
,
1002
0010
0100
0013
,
2001
0010
0100
3100
,
1002
0100
0010
0013
,
2001
0010
3200
0320
,
0032
0010
1000
1003
,
1000
1000
1000
0000
,
1000
0100
1000
0100
1000
0000
1000
0000
,
0001
0001
0001
0000
,
0001
0100
0001
0100
0001
0000
0001
0000
,
1000
0010
1000
0000
,
0010
1000
0010
1000
0010
0000
1000
0000
,
0001
0001
0001
0000
,
0001
0100
0001
0100
0001
0100
0001
0000
,
1001
0100
0100
0100
,
1001
0100
0100
0100
,
1001
0100
1001
0100
,
1001
0110
1001
0000
,
2001
0100
0010
3100
,
1002
0100
0010
0103
,
2001
0010
0100
3010
,
1002
0010
0100
0013
,
2001
0010
0100
3100
,
1002
0100
0010
0013
,
2001
0010
3200
0320
,
0032
0010
1000
1003
,
1000
1000
1000
0000
,
1000
0100
1000
0100
1000
0000
1000
0000
,
0001
0001
0001
0000
,
0001
0100
0001
0100
0001
0000
0001
0000
,
1000
0010
1000
0000
,
0010
1000
0010
1000
0010
0000
1000
0000
,
0001
0001
0001
0000
,
0001
0100
0001
0100
0001
0100
0001
0000
,
1001
0100
1001
0100
,
1010
0100
1010
0100
,
0011
0100
0011
1000
,
0101
1000
0101
1000
,
1010
0100
1010
0001
,
1010
0100
1010
0001
,
0110
0001
1100
0010
,
0101
0010
1100
0001
,
2001
0100
0010
3100
,
1002
0100
0010
0103
,
2001
0010
0100
3010
,
1002
0010
0100
0013
,
2001
0010
0100
3100
,
1002
0100
0010
0013
,
2001
0010
3200
0320
,
0032
0010
1000
1003
,
1000
1000
1000
0000
,
1000
0100
1000
0100
1000
0000
1000
0000
,
0001
0001
0001
0000
,
0001
0100
0001
0100
0001
0000
0001
0000
,
1000
0010
1000
0000
,
0010
1000
0010
1000
0010
0000
1000
0000
,
0001
0001
0001
0000
,
0001
0100
0001
0100
0001
0100
0001
0000
,
1000
0000
0100
1000
0100
0000
1000
0100
,
1000
0000
0100
1000
0200
0000
0000
0310
,
0001
0000
0000
0010
0001
0000
0000
0010
,
0001
0010
0001
0010
0001
0000
0000
0000
,
2002
0000
0000
3003
;

//---------------dance-single - ----------------
#NOTES:
     dance-single:
     :
     Hard:
     15:
     0.653784,0.637158,0.523264,0.398678,0.020764,551.000000,488.000000,63.000000,48.000000,0.000000,0.000000,0.653784,0.637158,0.523264,0.398678,0.020764,551.000000,488.000000,63.000000,48.000000,0.000000,0.000000:
0000
0000
0000
0000
,
0000
0000
0000
0000
,
0000
0000
0000
0000
,
0000
0000
0000
0000
,
1000
0100
0010
0001
0010
0100
1000
0100
,
0010
0001
0010
0100
2000
0000
0000
3001
,
0002
0000
0000
0103
0200
0000
0000
0310
,
1000
0000
0001
0010
0100
0000
1000
0000
0001
0000
0000
0000
0000
0000
0000
0000
,
1000
0100
0010
0001
0010
0100
0010
0001
,
0010
0100
0010
1000
0010
0100
0010
0001
,
0010
0100
0010
1000
0010
0100
0010
0001
,
0010
0100
0010
1000
0010
0100
0010
0001
,
0010
0100
1000
0100
0010
0100
1000
0100
,
0010
0100
0001
0100
0010
0100
1000
0100
,
0010
0100
0001
0100
0010
0100
1000
0100
,
0010
0100
1000
0100
1000
0001
1000
0001
,
0200
0000
0310
1000
0200
0000
1300
0010
,
0200
0000
0301
0010
0002
0000
0103
0010
,
2000
0000
3100
1000
0020
0000
0130
1001
,
0000
1010
1001
0000
0101
0001
0010
0100
,
2000
0000
3010
0100
0002
0000
0103
0010
,
2000
0000
3010
0100
0002
0000
0013
0001
,
0200
0000
0310
1000
0020
0000
0130
0010
,
2000
0000
3001
0001
0100
0010
1000
0001
,
1001
0000
1001
0000
1001
0000
0001
0100
,
0001
0010
0001
1000
0010
1000
0100
0000
,
1100
0000
1100
0000
1100
0000
1000
0100
,
0010
0001
0010
0100
1000
0001
0100
0000
,
0110
0000
0110
0000
0110
0000
0100
0010
,
0001
0010
0100
0001
0010
0001
0100
0000
,
0011
0000
0011
0000
0011
0000
1000
0010
,
0100
0001
1000
0100
1000
0010
1002
0000
,
1003
1100
0001
0101
,
1000
1100
0001
0101
,
1000
1100
0101
1100
,
0101
0000
1100
0000
0101
0001
0100
0001
,
0200
0000
0310
1000
0200
0000
1300
0010
,
0200
0000
0301
0010
0002
0000
0103
0010
,
2000
0000
3100
1000
0020
0000
0130
1001
,
0000
0000
1010
0000
1001
0000
0000
0000
0101
0000
0001
1000
0010
0000
0100
0001
,
2000
0000
3010
0100
0002
0000
0103
0010
,
2000
0000
3010
0100
0002
0000
0013
0001
,
0200
0000
0310
1000
0020
0000
0130
0010
,
2000
0000
3001
0001
0100
0010
1000
0000
,
1001
0000
1001
0000
1001
0000
0001
0100
,
0001
0010
0001
1000
0010
1000
0100
0000
,
1100
0000
1100
0000
1100
0000
1000
0100
,
0010
0001
0010
0100
1000
0001
0100
0000
,
0110
0000
0110
0000
0110
0000
0100
0010
,
0001
0010
0100
0001
0010
0001
0100
0000
,
0011
0000
0011
0000
0011
0000
1000
0010
,
0100
0001
1000
0100
0010
0100
1002
0000
,
1003
0100
0010
0001
0010
0100
0010
0001
,
0010
0100
0010
1000
0010
0100
0010
0001
,
0010
0100
0010
1000
0010
0100
0010
0001
,
0010
0100
0010
1000
0010
0100
0010
0001
,
0010
0100
1000
0100
0010
0100
1000
0100
,
0010
0100
0001
0100
0010
0100
1000
0100
,
0010
0100
0001
0100
0010
0100
1000
0100
,
0010
0100
1000
0100
1000
0001
1000
0001
,
0200
0000
0310
1000
0200
0000
1300
0010
,
0200
0000
0301
0010
0002
0000
0103
0010
,
2000
0000
3100
1000
0020
0000
0130
1001
,
0000
1010
1001
0000
0101
0001
1000
0000
,
2000
0000
3010
0100
0002
0000
0103
0010
,
2000
0000
3010
0100
0002
0000
0013
0001
,
0100
0010
1000
0001
0010
0001
0100
0010
,
2000
0000
3001
0001
0100
0010
1001
0000
,
1001
0000
1001
0000
1001
0000
0001
0100
,
0001
0010
0001
1000
0010
1000
0100
0000
,
1100
0000
1100
0000
1100
0000
1000
0100
,
0010
0001
0010
0100
1000
0001
0100
0000
,
0110
0000
0110
0000
0110
0000
0100
0010
,
0001
0010
0100
0001
0010
0001
0100
0000
,
0011
0000
0011
0000
0011
0000
1000
0010
,
0100
0001
1000
0100
1000
0010
1002
0000
,
1003
0100
0010
0001
0010
0100
1000
0100
,
0010
0001
0010
0100
2000
0000
0000
3001
,
0002
0000
0000
0000
0000
0000
0103
0010
0200
0000
0000
0000
0000
0000
0310
0000
,
1000
0000
0001
0010
0100
0000
1000
0000
0001
0000
0000
0000
0000
0000
0000
0000
,
2002
0000
0000
3003
;

//---------------dance-single - ----------------
#NOTES:
     dance-single:
     :
     Beginner:
     4:
     0.212391,0.232562,0.008306,0.016612,0.000000,179.000000,178.000000,1.000000,2.000000,0.000000,0.000000,0.212391,0.232562,0.008306,0.016612,0.000000,179.000000,178.000000,1.000000,2.000000,0.000000,0.000000:
// measure 0
0000
0000
0000
0000
,  // measure 1
0000
0000
0000
0000
,  // measure 2
0000
0000
0000
0000
,  // measure 3
0000
0000
0000
0000
,  // measure 4
1000
0000
1000
0000
,  // measure 5
0001
0000
0001
0000
,  // measure 6
0100
0000
0100
0000
,  // measure 7
0010
0000
0010
0000
,  // measure 8
0001
0000
0100
0000
,  // measure 9
0001
0000
0100
0000
,  // measure 10
0001
0000
1000
0000
,  // measure 11
0010
0000
0100
0000
,  // measure 12
1000
0000
0010
0000
,  // measure 13
0100
0000
1000
0000
,  // measure 14
0001
0000
0100
0000
,  // measure 15
0010
0000
1000
0000
,  // measure 16
0001
0000
0100
0000
,  // measure 17
0010
0000
0001
0000
,  // measure 18
0100
0000
0010
0000
,  // measure 19
1000
1000
1000
0000
,  // measure 20
1000
0000
0001
0000
,  // measure 21
0010
0000
0001
0000
,  // measure 22
1000
0000
0010
0000
,  // measure 23
0100
0000
0001
0000
,  // measure 24
0001
0001
0001
0000
,  // measure 25
0001
0001
0001
0000
,  // measure 26
1000
1000
1000
0000
,  // measure 27
1000
1000
1000
0000
,  // measure 28
0010
0010
0010
0000
,  // measure 29
0010
0010
0010
0000
,  // measure 30
0100
0100
0100
0000
,  // measure 31
0100
0100
0100
0000
,  // measure 32
1000
0000
0100
0000
,  // measure 33
0001
0000
0010
0000
,  // measure 34
1000
0000
0010
0000
,  // measure 35
0001
0000
0100
0000
,  // measure 36
0001
0000
0100
0000
,  // measure 37
0010
0000
0001
0000
,  // measure 38
0100
0000
0010
0000
,  // measure 39
1000
1000
1000
0000
,  // measure 40
1000
0000
0001
0000
,  // measure 41
0010
0000
0001
0000
,  // measure 42
1000
0000
0010
0000
,  // measure 43
0100
0000
0001
0000
,  // measure 44
0001
0001
0001
0000
,  // measure 45
0001
0001
0001
0000
,  // measure 46
1000
1000
1000
0000
,  // measure 47
1000
1000
1000
0000
,  // measure 48
0010
0010
0010
0000
,  // measure 49
0010
0010
0010
0000
,  // measure 50
0100
0100
0100
0000
,  // measure 51
0100
0100
0100
0000
,  // measure 52
1000
0000
0001
0000
,  // measure 53
0010
0000
0001
0000
,  // measure 54
0100
0000
0001
0000
,  // measure 55
1000
0000
0001
0000
,  // measure 56
1000
0000
0010
0000
,  // measure 57
0001
0000
1000
0000
,  // measure 58
0100
0000
0100
0000
,  // measure 59
0010
0000
1000
0000
,  // measure 60
0001
0000
0100
0000
,  // measure 61
0010
0000
0001
0000
,  // measure 62
0100
0000
0010
0000
,  // measure 63
1000
1000
1000
0000
,  // measure 64
1000
0000
0001
0000
,  // measure 65
0010
0000
0001
0000
,  // measure 66
1000
0000
0010
0000
,  // measure 67
0100
0000
0001
0000
,  // measure 68
0001
0001
0001
0000
,  // measure 69
0001
0001
0001
0000
,  // measure 70
1000
1000
1000
0000
,  // measure 71
1000
1000
1000
0000
,  // measure 72
0010
0010
0010
0000
,  // measure 73
0010
0010
0010
0000
,  // measure 74
0100
0100
0100
0000
,  // measure 75
0100
0100
0100
0000
,  // measure 76
1000
0000
1000
0000
,  // measure 77
2000
0000
3000
0000
,  // measure 78
0001
0000
0001
0000
,  // measure 79
0002
0000
0003
0000
,  // measure 80
1001
0000
0000
0000
;
