#VERSION:0.83;
#TITLE:S.M.D.U.;
#SUBTITLE:;
#ARTIST:Brock Landars;
#TITLETRANSLIT:;
#SUBTITLETRANSLIT:;
#ARTISTTRANSLIT:;
#GENRE:;
#ORIGIN:;
#CREDIT:;
#BANNER:;
#BACKGROUND:S.M.D.U-bg.jpg;
#PREVIEWVID:;
#JACKET:S.M.D.U-jacket.png;
#CDIMAGE:;
#DISCIMAGE:;
#LYRICSPATH:;
#CDTITLE:;
#MUSIC:S.M.D.U.ogg;
#OFFSET:-0.077000;
#SAMPLESTART:28.663246;
#SAMPLELENGTH:12.000000;
#SELECTABLE:YES;
#BPMS:0.000=130.680,
64.000=261.363,
128.000=130.682,
172.000=130.680,
176.000=261.320,
220.000=261.322,
432.000=131.681,
436.000=131.684;
#STOPS:;
#DELAYS:;
#WARPS:;
#TIMESIGNATURES:0.000=4=4;
#TICKCOUNTS:0.000=4;
#COMBOS:0.000=1;
#SPEEDS:0.000=1.000=0.000=0;
#SCROLLS:0.000=1.000;
#FAKES:;
#LABELS:0.000=Song Start;
#BGCHANGES:;
#KEYSOUNDS:;
#ATTACKS:
;

//---------------dance-single - Nifara and hamsand210----------------
#NOTEDATA:;
#CHARTNAME:Nifara and hamsand210;
#STEPSTYPE:dance-single;
#DESCRIPTION:Nifara and hamsand210;
#CHARTSTYLE:;
#DIFFICULTY:Hard;
#METER:18;
#RADARVALUES:0.865707,1.314285,0.000000,0.178920,0.163362,779.000000,779.000000,0.000000,23.000000,0.000000,0.000000,0.000000,0.000000,0.000000,0.865707,1.314285,0.000000,0.178920,0.163362,779.000000,779.000000,0.000000,23.000000,0.000000,0.000000,0.000000,0.000000,0.000000;
#CREDIT:Nifara and hamsand210;
#NOTES:
0000
0000
0000
0000
,
0000
0000
0000
0000
,
0000
0000
0000
0000
,
0000
0000
0000
0000
,
0100
0100
0100
0000
0100
0000
0010
0010
,
0010
0000
0010
0000
1000
0001
1000
1000
,
0100
0100
0100
0000
0100
0000
0010
0010
,
0010
0000
0010
0000
0001
1000
0001
0001
,
0100
0100
0100
0000
0100
0000
0010
0010
,
0010
0000
0010
0000
1000
0001
1000
1000
,
0100
0100
0100
0000
0100
0000
0010
0010
,
0010
0000
0010
0000
0001
1000
0001
0001
,
0100
0100
0100
0000
0100
0000
0010
0010
,
0010
0000
0010
0000
1000
0001
1000
1000
,
0001
0001
0100
0010
1000
0001
0100
0010
,
0100
0010
1000
0010
1000
0100
1000
0001
,
0100
0001
1000
0010
0100
0010
1000
0001
,
0010
0100
0010
0001
1000
0010
1000
0100
,
0010
0001
1000
0010
0100
0001
1000
0001
,
0100
0001
0100
0001
0200
0000
0000
0000
,
0310
0000
0000
0000
1000
0001
0010
0100
,
1000
0001
0100
0010
1000
0001
0100
0001
,
1000
0010
0100
0001
0010
0100
0010
0001
,
1000
0100
0010
0001
0200
0000
0000
0000
,
0301
0010
0100
0010
0001
0010
0100
0010
,
0001
1000
0010
1000
0001
1000
0010
0100
,
0001
1000
0100
0010
0100
1000
0010
0100
,
0010
1000
0100
0010
0002
0000
0000
0000
,
0013
0100
1000
0010
0100
0010
0100
0010
,
1000
0100
1000
0010
0100
0001
0010
0100
,
0010
0001
0100
0001
0100
0010
1000
0010
,
1000
0100
0010
0001
1000
0010
0100
0001
,
0020
0000
0000
0000
,
0001
0001
0001
0031
,
0001
0000
1000
0010
0100
0010
0100
0010
,
1000
0200
2000
0000
0000
0000
3000
1300
,
1000
0000
0001
0010
0100
1000
0100
1000
0100
1000
0100
1000
0010
0100
0001
0100
,
0010
0000
1000
0001
1000
0100
1000
0010
1000
0010
0100
0010
1000
0010
0100
0001
,
0010
0000
0001
1000
0010
1000
0001
1000
0010
1000
0100
1000
0010
1000
0100
1000
,
0100
0000
0100
1000
0010
1000
0001
1000
0010
1000
0001
0100
0010
0100
0010
0100
,
0001
0000
0010
0100
1000
0100
0010
0100
1000
0001
0100
0001
1000
0001
0010
0001
,
0100
0000
0010
1000
0100
0010
0100
1000
0010
0100
0001
0100
0001
0010
0001
0010
,
0001
1000
0100
0010
0001
0100
0001
1000
,
0010
0100
0010
1000
0001
0010
0100
0010
,
0001
1000
0010
1000
0100
0010
0001
1000
,
0010
0100
0001
1000
0001
0100
0001
0100
,
0010
1000
0001
0010
0100
1000
0001
0100
,
0010
1000
0001
0100
0002
0000
0000
0000
,
1003
0010
0100
0001
0010
0100
0010
0001
,
1000
0100
0010
0001
0100
0001
0010
0100
,
0010
0100
0010
0100
0010
0001
1000
0010
,
1000
0001
1000
0010
0200
0000
0000
0000
,
0301
1000
0100
0010
0100
1000
0010
0100
,
0010
1000
0100
0010
0001
0010
0100
1000
,
0010
0100
0010
0100
0010
1000
0100
1000
,
0010
0100
0001
0010
0200
0000
0000
0000
,
0310
0001
0100
0001
0100
0010
1000
0010
,
1000
0100
0010
0001
1000
0010
0100
0001
,
0010
0001
1000
0010
0100
0010
0100
0010
,
1000
0100
1000
0001
2000
0000
0000
0000
,
3100
1000
0100
0010
0001
1000
0100
0010
,
0001
0010
0001
0100
0001
0100
0010
1000
,
0010
0100
0010
1000
0100
1000
0001
1000
,
0001
1000
0001
1000
0002
0000
0000
0000
,
0103
0010
0100
0010
0100
0010
1000
0010
,
1000
0001
1000
0001
0010
0001
0100
0010
,
0100
0001
0100
0010
1000
0010
0100
0010
,
1000
0010
0100
0001
0200
0000
0000
0000
,
0301
1000
0001
0010
0001
0100
0010
0100
,
0010
0100
0001
1000
0100
0010
0001
0010
,
0100
1000
0010
0100
0010
1000
0010
1000
,
0001
0010
0100
0010
0200
0000
0000
0000
,
1300
0001
0010
0100
1000
0001
1000
0010
,
1000
0010
0100
0001
0100
0010
0100
0001
,
1000
0100
0010
0001
0100
0010
1000
0100
,
0010
0001
0100
0010
0200
0000
0000
0000
,
0310
1000
0010
0100
0010
1000
0100
1000
,
0100
1000
0010
0100
0001
0100
0001
0100
,
0010
1000
0100
1000
0001
0100
0001
0100
,
0001
1000
0100
1000
0200
0000
0000
0000
,
1300
0010
0100
0010
1000
0100
0010
0100
,
1000
0010
0100
0010
0100
0001
1000
0100
,
0010
0100
1000
0010
0100
0001
0100
0010
,
0100
0001
0100
0010
2000
0000
0000
0000
,
3001
0010
0001
0010
0001
0100
0001
0100
,
0001
0010
0001
0010
0001
0100
0001
0100
,
0010
1000
0010
1000
0100
1000
0100
1000
,
0100
0010
0001
0100
0020
0000
0000
0000
,
0130
0001
0100
0010
0100
0001
0100
0001
,
0010
0001
0010
0001
1000
0001
1000
0100
,
1000
0010
1000
0100
1000
0010
0100
0001
,
0100
0010
1000
0100
2000
0000
0000
0000
,
3010
0100
0001
0100
0010
0100
0010
0001
,
0010
0100
0010
0100
0001
0100
0010
1000
,
0100
1000
0100
1000
0010
1000
0100
1000
,
0010
0100
0001
0100
0020
0000
0000
0000
,
1030
0100
0010
0001
1000
0100
0010
0001
,
1000
0001
0100
0010
1000
0001
0100
0010
,
1000
0100
0010
0100
1000
0001
0100
0010
,
0100
0001
1000
0100
0020
0000
0000
0000
,
0031
0010
0100
1000
0010
0100
0001
0010
,
0100
1000
0010
0100
0001
0010
0100
1000
,
0010
0100
0001
0010
0100
1000
0010
0100
,
0001
0010
0100
1000
0200
0000
0000
0000
,
1300
0100
1000
0100
0001
0100
0001
0100
,
1000
0100
1000
0100
0001
0100
0001
0100
,
1000
0010
1000
0010
0001
0010
0001
0010
,
1000
0010
1000
0010
2000
0000
0000
0000
,
0002
0000
0000
0000
,
3003
0000
0000
0000
;

//---------------dance-single - Nifara and hamsand210----------------
#NOTEDATA:;
#CHARTNAME:;
#STEPSTYPE:dance-single;
#DESCRIPTION:Nifara and hamsand210;
#CHARTSTYLE:;
#DIFFICULTY:Medium;
#METER:13;
#RADARVALUES:0.457858,0.678341,0.093350,0.178920,0.000000,412.000000,400.000000,12.000000,23.000000,0.000000,0.000000,0.000000,0.000000,0.000000,0.457858,0.678341,0.093350,0.178920,0.000000,412.000000,400.000000,12.000000,23.000000,0.000000,0.000000,0.000000,0.000000,0.000000;
#CREDIT:;
#NOTES:
0000
0000
0000
0000
,
0000
0000
0000
0000
,
0000
0000
0000
0000
,
0000
0000
0000
0000
,
0000
0100
0100
0000
,
0010
0000
0010
0000
0000
0000
0000
1000
,
0000
0100
0100
0000
,
0010
0000
0010
0000
0000
0000
0000
0001
,
0000
0100
0100
0000
,
0010
0000
0010
0000
0000
0000
0000
1000
,
0000
0100
0100
0000
,
0010
0000
0010
0000
0000
0000
0000
0001
,
0000
0100
0100
0000
,
0010
0000
0010
0000
0000
0000
0000
1000
,
0000
0000
1000
0010
1000
0010
0100
0001
,
0100
0001
1000
0010
0100
0001
2000
0000
,
0002
0000
0000
3003
,
0001
0100
0001
0100
,
0010
1000
0010
1000
,
0100
1000
2000
0000
,
3001
0001
0100
0010
,
1000
1000
0010
0100
,
0001
0001
0100
0010
,
1000
0100
2000
0000
,
3010
0100
0001
0100
,
0010
0100
0001
1000
,
0100
1000
0010
1000
,
0010
0100
0002
0000
,
0013
0001
0010
0001
,
0100
0001
0100
0001
,
1000
0010
1000
0010
,
1000
0010
0100
0010
,
0020
0000
0000
0000
,
1000
1000
1000
1030
,
0001
1001
0101
0001
,
1001
0000
1100
0000
1000
1000
1000
1000
,
1000
0000
1001
0000
0001
0100
0001
0100
,
0001
0000
1001
0000
1000
0100
1000
0100
,
1000
0000
1001
0000
0010
0001
0010
0001
,
0010
0000
1001
0000
0010
1000
0010
1000
,
0010
0000
1001
0000
1000
0100
0010
0100
,
1000
0000
1001
0000
0001
0010
0100
0010
,
0001
0000
1001
0000
1000
0010
0100
0001
,
0100
0000
1001
0000
0001
0100
0010
1000
,
0010
1000
0010
1000
,
0100
1000
0010
0100
,
0001
0100
0010
0100
,
0001
1000
0200
0000
,
1300
0010
0100
0001
,
0100
0010
0100
0001
,
0100
0001
0010
0001
,
1000
0100
2000
0000
,
3001
0100
0010
0100
,
0001
0100
0010
0100
,
0001
0100
0010
0100
,
0001
0100
0020
0000
,
1030
0100
0010
0100
,
1000
0100
0010
0100
,
1000
0100
0010
0100
,
1000
0100
0020
0000
,
0031
0100
0001
0100
,
0010
1000
0010
1000
,
0001
0100
0001
0100
,
0010
1000
0020
0000
,
1030
0100
0010
0001
,
0100
0010
1000
0100
,
0010
0001
0100
0010
,
1000
0100
0020
0000
,
0031
0100
1000
0010
,
0001
0100
1000
0010
,
0001
0100
1000
0010
,
0001
0100
2000
0000
,
3010
0100
0001
0100
,
0010
0100
0001
0010
,
0001
0010
0001
1000
,
0010
0100
0002
0000
,
1003
1000
0001
0100
,
0001
1000
0010
1000
,
0001
0100
0010
1000
,
0001
1000
0200
0000
,
0310
0010
0001
0100
,
0001
0010
0001
1000
,
1000
0010
0100
0001
,
1000
0100
0020
0000
,
0031
0100
0001
0100
,
0010
1000
0010
1000
,
0010
1000
0100
1000
,
0010
1000
0020
0000
,
1030
0001
0100
0001
,
0100
0010
1000
0010
,
1000
0100
1000
0010
,
1000
0100
2000
0000
,
3001
1000
0001
0100
,
0001
1000
0001
0001
,
1000
0001
1000
1000
,
0010
1000
0002
0000
,
1003
0001
0100
0010
,
1000
0100
0010
0001
,
1000
0001
0100
0010
,
1000
0100
0020
0000
,
0031
0100
0010
0100
,
0001
0010
0001
0100
,
0010
1000
0100
1000
,
0010
1000
0020
0000
,
0130
0010
1000
0001
,
1000
0100
0010
0100
,
1000
0001
0100
0010
,
1000
0001
2000
0000
,
0002
0000
0000
0000
,
3003
0000
0000
0000
;

//---------------dance-single - Nifara and hamsand210----------------
#NOTEDATA:;
#CHARTNAME:;
#STEPSTYPE:dance-single;
#DESCRIPTION:Nifara and hamsand210;
#CHARTSTYLE:;
#DIFFICULTY:Easy;
#METER:9;
#RADARVALUES:0.275604,0.593548,0.093350,0.171141,0.000000,248.000000,236.000000,12.000000,22.000000,0.000000,0.000000,0.000000,0.000000,0.000000,0.275604,0.593548,0.093350,0.171141,0.000000,248.000000,236.000000,12.000000,22.000000,0.000000,0.000000,0.000000,0.000000,0.000000;
#CREDIT:;
#NOTES:
0000
0000
0000
0000
,
0000
0000
0000
0000
,
0000
0000
0000
0000
,
0000
0000
0000
0000
,
0000
0100
0100
0000
,
0010
0000
0010
0000
0000
0000
0000
1000
,
0000
0100
0100
0000
,
0010
0000
0010
0000
0000
0000
0000
0001
,
0000
0100
0100
0000
,
0010
0000
0010
0000
0000
0000
0000
1000
,
0000
0100
0100
0000
,
0010
0000
0010
0000
0000
0000
0000
0001
,
0000
0100
0100
0000
,
0010
0000
0010
0000
0000
0000
0000
1000
,
0000
0010
0010
0000
,
1000
0001
1000
0001
,
0002
0000
0000
0003
,
0001
0000
0001
0000
,
0010
0000
0010
0000
,
0100
0000
2000
0000
,
3001
0000
0100
0000
,
1000
0000
0010
0000
,
0001
0000
0100
0000
,
1000
0000
2000
0000
,
3010
0000
0001
0000
,
0010
0000
0001
0000
,
0100
0000
0010
0000
,
0010
0000
0002
0000
,
0013
0000
0010
0000
,
0100
0000
0100
0000
,
1000
0000
1000
0000
,
1000
0000
0100
0000
,
0020
0000
0000
0000
,
1000
1000
1000
1030
,
0001
1001
0101
0001
,
1001
1100
1000
1000
,
1000
1001
0001
0100
,
0001
1001
1000
0100
,
1000
1001
0010
0001
,
0010
1001
0010
1000
,
0010
1001
1000
0010
,
1000
1001
0001
0100
,
0001
1001
1000
0100
,
0100
1001
0001
0010
,
0010
0000
0010
0000
,
0100
0000
0010
0000
,
0001
0000
0010
0000
,
0001
0000
0200
0000
,
1300
0000
0100
0000
,
0100
0000
0100
0000
,
0100
0000
0010
0000
,
1000
0000
2000
0000
,
3001
0000
0010
0000
,
0001
0000
0010
0000
,
0001
0000
0010
0000
,
0001
0000
0020
0000
,
1030
0000
0010
0000
,
1000
0000
0010
0000
,
1000
0000
0010
0000
,
1000
0000
0020
0000
,
0031
0000
0001
0000
,
0010
0000
0010
0000
,
0001
0000
0001
0000
,
0010
0000
0020
0000
,
1030
0000
0010
0000
,
0100
0000
1000
0000
,
0010
0000
0100
0000
,
1000
0000
0020
0000
,
0031
0000
1000
0000
,
0001
0000
1000
0000
,
0001
0000
1000
0000
,
0001
0000
2000
0000
,
3010
0000
0001
0000
,
0010
0000
0001
0000
,
0001
0000
0001
0000
,
0010
0000
0002
0000
,
1003
0000
0001
0000
,
0001
0000
0010
0000
,
0001
0000
0010
0000
,
0001
0000
0200
0000
,
0310
0000
0001
0000
,
0001
0000
0001
0000
,
1000
0000
0100
0000
,
1000
0000
0020
0000
,
0031
0000
0001
0000
,
0010
0000
0010
0000
,
0010
0000
0100
0000
,
0010
0000
0020
0000
,
1030
0000
0100
0000
,
0100
0000
1000
0000
,
1000
0000
1000
0000
,
1000
0000
2000
0000
,
3001
0000
0001
0000
,
0001
0000
0001
0000
,
1000
0000
1000
0000
,
0010
0000
0002
0000
,
1003
0000
0100
0000
,
1000
0000
0010
0000
,
1000
0000
0100
0000
,
1000
0000
0020
0000
,
0031
0000
0010
0000
,
0001
0000
0001
0000
,
0010
0000
0100
0000
,
0010
0000
0020
0000
,
0130
0000
1000
0000
,
1000
0000
0010
0000
,
1000
0000
0100
0000
,
1000
0000
2000
0000
,
0002
0000
0000
0000
,
3003
0000
0000
0000
;

//---------------dance-single - Nifara and hamsand210----------------
#NOTEDATA:;
#CHARTNAME:;
#STEPSTYPE:dance-single;
#DESCRIPTION:Nifara and hamsand210;
#CHARTSTYLE:;
#DIFFICULTY:Beginner;
#METER:4;
#RADARVALUES:0.145581,0.296774,0.000000,0.015558,0.000000,131.000000,131.000000,0.000000,2.000000,0.000000,0.000000,0.000000,0.000000,0.000000,0.145581,0.296774,0.000000,0.015558,0.000000,131.000000,131.000000,0.000000,2.000000,0.000000,0.000000,0.000000,0.000000,0.000000;
#CREDIT:;
#NOTES:
// measure 0
0000
0000
0000
0000
,  // measure 1
0000
0000
0000
0000
,  // measure 2
0000
0000
0000
0000
,  // measure 3
0000
0000
0000
0000
,  // measure 4
0000
0100
0100
0000
,  // measure 5
0010
0010
0000
0000
,  // measure 6
0000
0100
0100
0000
,  // measure 7
0010
0010
0000
0000
,  // measure 8
0000
0100
0100
0000
,  // measure 9
0010
0010
0000
0000
,  // measure 10
0000
0100
0100
0000
,  // measure 11
0010
0010
0000
0000
,  // measure 12
0000
0100
0100
0000
,  // measure 13
0010
0010
0000
0000
,  // measure 14
0000
0010
0010
0000
,  // measure 15
0001
0000
0001
0000
,  // measure 16
0002
0000
0000
0003
,  // measure 17
0001
0000
0000
0000
,  // measure 18
0010
0000
0000
0000
,  // measure 19
0100
0000
0000
0000
,  // measure 20
0001
0000
0000
0000
,  // measure 21
1000
0000
0000
0000
,  // measure 22
0001
0000
0000
0000
,  // measure 23
1000
0000
0000
0000
,  // measure 24
0010
0000
0000
0000
,  // measure 25
0010
0000
0000
0000
,  // measure 26
0100
0000
0000
0000
,  // measure 27
0010
0000
0000
0000
,  // measure 28
0010
0000
0000
0000
,  // measure 29
0100
0000
0000
0000
,  // measure 30
1000
0000
0000
0000
,  // measure 31
1000
0000
0000
0000
,  // measure 32
0010
0000
0000
0000
,  // measure 33
1000
1000
1000
0000
,  // measure 34
0001
0001
0001
0000
,  // measure 35
1000
1000
1000
0000
,  // measure 36
1000
0000
0001
0000
,  // measure 37
0001
0000
1000
0000
,  // measure 38
1000
0000
0010
0000
,  // measure 39
0010
0000
0010
0000
,  // measure 40
0010
0000
1000
0000
,  // measure 41
1000
0000
0001
0000
,  // measure 42
0001
0000
1000
0000
,  // measure 43
0100
0000
0001
0000
,  // measure 44
0010
0000
0000
0000
,  // measure 45
0100
0000
0000
0000
,  // measure 46
0001
0000
0000
0000
,  // measure 47
0001
0000
0000
0000
,  // measure 48
1000
0000
0000
0000
,  // measure 49
0100
0000
0000
0000
,  // measure 50
0100
0000
0000
0000
,  // measure 51
1000
0000
0000
0000
,  // measure 52
0001
0000
0000
0000
,  // measure 53
0001
0000
0000
0000
,  // measure 54
0001
0000
0000
0000
,  // measure 55
0001
0000
0000
0000
,  // measure 56
1000
0000
0000
0000
,  // measure 57
1000
0000
0000
0000
,  // measure 58
1000
0000
0000
0000
,  // measure 59
1000
0000
0000
0000
,  // measure 60
0001
0000
0000
0000
,  // measure 61
0010
0000
0000
0000
,  // measure 62
0001
0000
0000
0000
,  // measure 63
0010
0000
0000
0000
,  // measure 64
1000
0000
0000
0000
,  // measure 65
0100
0000
0000
0000
,  // measure 66
0010
0000
0000
0000
,  // measure 67
1000
0000
0000
0000
,  // measure 68
0001
0000
0000
0000
,  // measure 69
0001
0000
0000
0000
,  // measure 70
0001
0000
0000
0000
,  // measure 71
0001
0000
0000
0000
,  // measure 72
0010
0000
0000
0000
,  // measure 73
0010
0000
0000
0000
,  // measure 74
0001
0000
0000
0000
,  // measure 75
0010
0000
0000
0000
,  // measure 76
1000
0000
0000
0000
,  // measure 77
0001
0000
0000
0000
,  // measure 78
0001
0000
0000
0000
,  // measure 79
0001
0000
0000
0000
,  // measure 80
0010
0000
0000
0000
,  // measure 81
0001
0000
0000
0000
,  // measure 82
1000
0000
0000
0000
,  // measure 83
1000
0000
0000
0000
,  // measure 84
0001
0000
0000
0000
,  // measure 85
0010
0000
0000
0000
,  // measure 86
0010
0000
0000
0000
,  // measure 87
0010
0000
0000
0000
,  // measure 88
1000
0000
0000
0000
,  // measure 89
0100
0000
0000
0000
,  // measure 90
1000
0000
0000
0000
,  // measure 91
1000
0000
0000
0000
,  // measure 92
0001
0000
0000
0000
,  // measure 93
0001
0000
0000
0000
,  // measure 94
1000
0000
0000
0000
,  // measure 95
0010
0000
0000
0000
,  // measure 96
1000
0000
0000
0000
,  // measure 97
1000
0000
0000
0000
,  // measure 98
1000
0000
0000
0000
,  // measure 99
1000
0000
0000
0000
,  // measure 100
0001
0000
0000
0000
,  // measure 101
0001
0000
0000
0000
,  // measure 102
0010
0000
0000
0000
,  // measure 103
0010
0000
0000
0000
,  // measure 104
0100
0000
0000
0000
,  // measure 105
1000
0000
0000
0000
,  // measure 106
1000
0000
0000
0000
,  // measure 107
1000
0000
0000
0000
,  // measure 108
0002
0000
0000
0000
,  // measure 109
0003
0000
0000
0000
;
