#TITLE:Resentful;
#SUBTITLE:(Anthracite's Magnum Opus Mix);
#ARTIST:Misery;
#TITLETRANSLIT:;
#SUBTITLETRANSLIT:;
#ARTISTTRANSLIT:;
#GENRE:;
#CREDIT:;
#BANNER:;
#BACKGROUND:;
#LYRICSPATH:;
#CDTITLE:;
#MUSIC:Resentful (Anthracite's Magnum Opus Mix).ogg;
#OFFSET:0.000000;
#SAMPLESTART:35.939911;
#SAMPLELENGTH:12.000000;
#SELECTABLE:YES;
#BPMS:0.000000=160.200043
,152.000000=160.420044
,160.000000=160.200043
;
#STOPS:
;
#BGCHANGES:;
#KEYSOUNDS:;
#ATTACKS:;

//---------------dance-single - ----------------
#NOTES:
     dance-single:
     :
     Hard:
     14:
     0.650146,0.815559,0.088604,0.032220,0.330251,565.000000,554.000000,11.000000,4.000000,0.000000,0.000000,0.650146,0.815559,0.088604,0.032220,0.330251,565.000000,554.000000,11.000000,4.000000,0.000000,0.000000:
0000
0000
0000
0000
,
0000
0000
0000
0000
,
0000
0000
0000
0000
,
0000
0000
0000
0000
,
1001
0000
0100
0001
0000
0100
0001
0000
,
1001
0000
0000
0000
1000
0000
0010
0000
0000
0000
1000
0000
0100
1000
0100
1000
,
0100
0000
1000
0010
0000
0100
0001
0000
,
1001
0000
0000
0000
0001
0000
0010
0000
0000
0000
0100
0000
1000
0001
1000
0001
,
0100
0000
0010
0100
0000
0100
0001
0000
,
1000
0000
0000
0000
0100
0000
0010
0000
0000
0000
0010
0000
0100
1000
0100
1000
,
0100
0000
1000
0010
0000
0100
0001
0000
,
0001
0000
0000
0000
0100
0000
0010
0000
0000
0000
0010
0000
1000
0100
0010
0001
,
0100
0000
0010
0100
0000
0001
0100
0000
,
0010
0000
0000
0000
1000
0000
0010
0000
0000
0000
0100
0000
0010
1000
0010
1000
,
0100
0000
1000
0010
0000
0100
0001
0000
,
0100
0000
0000
0000
0010
0000
1000
0000
0000
0000
0001
0000
0100
0010
0100
0001
,
0010
0000
0100
1000
0000
0100
1000
0000
,
0010
0000
0000
0000
0100
0000
0001
0000
0000
0000
0010
0000
0001
0100
0010
0100
,
0001
0000
1000
0010
0000
0100
0010
0000
,
1000
0000
0000
0000
0100
0000
0010
0000
0000
0000
0100
0000
1000
0010
0100
0010
,
1000
0000
0010
0100
0000
0010
0001
0000
,
0010
0000
0000
0000
0100
0000
0010
0000
0000
0000
0001
0000
0010
0100
0010
1000
,
0010
0000
0100
0001
0000
1000
0010
0000
,
1000
0000
0000
0000
0100
0000
0010
0000
0000
0000
0001
0000
1000
0100
0010
0001
,
1000
0100
1000
0100
1000
0010
0100
0001
,
0100
0010
0100
0001
0010
0001
0100
0001
,
1000
0100
1000
0010
0100
0010
1000
0100
,
0010
0100
1000
0001
0100
0010
0100
0001
,
0010
0001
0100
0001
0010
0001
1000
0100
,
1000
0010
0100
0001
0100
0010
1000
0100
,
0010
0001
0010
0100
1000
0100
0010
0001
,
1000
0010
0100
0001
0001
0001
1000
0010
,
0100
0010
1000
1000
1000
0100
0010
0001
,
0001
0001
1000
1000
1000
0010
0010
0010
,
0100
0100
0100
0001
1000
0100
0010
0001
,
1000
0010
0100
0001
0100
0001
0100
0001
,
0010
0001
0010
0001
0010
0001
0010
0001
,
1000
0100
1000
0100
1000
0100
1000
2002
,
0000
0000
0000
0000
,
0000
0000
0000
3003
,
1001
0000
0100
0001
0000
0100
0001
0000
,
1001
0000
0000
0000
1000
0000
0010
0000
0000
0000
1000
0000
0100
1000
0100
1000
,
0100
0000
1000
0010
0000
0100
0001
0000
,
1001
0000
0000
0000
0001
0000
0010
0000
0000
0000
0100
0000
1000
0001
1000
0001
,
0100
0000
0010
0100
0000
0100
0001
0000
,
1000
0000
0000
0000
0100
0000
0010
0000
0000
0000
0010
0000
0100
1000
0100
1000
,
0100
0000
1000
0010
0000
0100
0001
0000
,
0001
0000
0000
0000
0100
0000
0010
0000
0000
0000
0010
0000
1000
0100
0010
0001
,
1000
0000
0100
1000
0000
0100
1000
0000
0100
0000
1000
0100
0000
1000
0100
0000
,
0010
0000
0001
0010
0000
0001
0010
0000
0001
0000
0010
0001
0000
0010
0001
0000
,
0100
0000
0001
0100
0000
0010
0100
0000
0001
0000
0100
0010
0000
0100
0001
0000
,
1000
0000
0010
0100
0000
0010
1000
0000
0010
0000
0100
0010
0000
1000
0010
0000
,
1000
0000
0100
0010
0000
0001
0010
0000
0100
0000
1000
0100
0000
0010
0001
0000
,
0010
0000
0100
1000
0000
0100
0010
0000
0001
0000
0010
0100
0000
1000
0100
0000
,
0010
0000
0001
1000
0000
0010
0100
0000
0001
0000
1000
0010
0000
0100
0001
0000
,
1000
0000
0010
0100
0000
0001
1000
0000
0010
0000
0100
0001
0000
1000
0010
0000
,
1001
1000
0100
1000
0010
1000
0100
1000
,
0001
0100
0001
1000
0001
0100
0001
0001
,
1000
0001
1000
0100
1000
0001
1000
1000
,
0010
1000
0010
0100
0010
0100
0001
0100
,
0010
0100
0001
1000
0100
0010
0001
0100
,
0010
0100
0001
1000
0100
1000
0010
0100
,
0001
1000
0100
0010
0100
1000
0001
0100
,
0010
0100
0001
0100
0010
1000
0100
1000
,
1001
0000
0100
0001
0000
0100
0001
0000
,
1001
0000
0000
0000
1000
0000
0010
0000
0000
0000
1000
0000
0100
1000
0100
1000
,
0100
0000
1000
0010
0000
0100
0001
0000
,
1001
0000
0000
0000
0001
0000
0010
0000
0000
0000
0100
0000
1000
0001
1000
0001
,
0100
0000
0010
0100
0000
0100
0001
0000
,
1000
0000
0000
0000
0100
0000
0010
0000
0000
0000
0010
0000
0100
1000
0100
1000
,
0100
0000
1000
0010
0000
0100
0001
0000
,
0001
0000
0000
0000
0100
0000
0010
0000
0000
0000
0010
0000
1000
0100
0010
0001
,
0100
0000
0010
0100
0000
0001
0100
0000
,
0010
0000
0000
0000
1000
0000
0010
0000
0000
0000
0100
0000
0010
1000
0010
1000
,
0100
0000
1000
0010
0000
0100
0001
0000
,
0100
0000
0000
0000
0010
0000
1000
0000
0000
0000
0001
0000
0100
0010
0100
0001
,
0010
0000
0100
1000
0000
0100
1000
0000
,
0010
0000
0000
0000
0100
0000
0001
0000
0000
0000
0010
0000
0001
0100
0010
0100
,
0001
0000
1000
0000
0001
0000
1000
0000
0001
1000
0001
1000
0001
1000
0001
1000
,
0010
0000
0100
0000
0010
0000
0100
0000
0010
0100
0010
0100
0010
0100
0010
0200
,
0020
0000
0000
0000
,
0330
0000
0000
0000
;

//---------------dance-single - ----------------
#NOTES:
     dance-single:
     :
     Medium:
     11:
     0.453376,0.554580,0.072494,0.032220,0.064439,394.000000,385.000000,9.000000,4.000000,0.000000,0.000000,0.453376,0.554580,0.072494,0.032220,0.064439,394.000000,385.000000,9.000000,4.000000,0.000000,0.000000:
0000
0000
0000
0000
,
0000
0000
0000
0000
,
0000
0000
0000
0000
,
0000
0000
0000
0000
,
1001
0000
0100
0001
0000
0100
0001
0000
,
1001
0000
1000
0010
0000
1000
0100
0100
,
0100
0000
1000
0010
0000
0100
0001
0000
,
1001
0000
0001
0010
0000
0100
1000
1000
,
0100
0000
0010
0100
0000
0100
0001
0000
,
1000
0000
0100
0010
0000
0010
0100
0100
,
0100
0000
1000
0010
0000
0100
0001
0000
,
0001
0000
0100
0010
0000
0010
1000
0010
,
0100
0000
0010
0100
0000
0001
0100
0000
,
0010
0000
1000
0010
0000
0100
0010
0010
,
0100
0000
1000
0010
0000
0100
0001
0000
,
0100
0000
0010
1000
0000
0001
0100
0100
,
0010
0000
0100
1000
0000
0100
1000
0000
,
0010
0000
0100
0001
0000
0010
0001
0010
,
0001
0000
1000
0010
0000
0100
0010
0000
,
1000
0000
0100
0010
0000
0100
1000
0100
,
1000
0000
0010
0100
0000
0010
0001
0000
,
0010
0000
0100
0010
0000
0001
0010
0010
,
0010
0000
0100
0001
0000
1000
0010
0000
,
1000
0000
0100
0010
0000
0001
1000
0010
,
1000
1000
0001
0100
,
0100
0001
0010
0100
,
1000
0001
0100
0010
,
0010
1000
0010
0100
,
0001
0100
0010
1000
,
0010
0100
0001
1000
,
0010
0010
1000
1000
,
0001
0001
0010
0001
,
0100
0010
1000
0010
,
0100
0001
1000
0010
,
0100
0100
0010
0010
,
1000
0100
0010
0001
,
0010
0010
0100
0100
,
1000
0000
0001
0000
1000
0000
0002
2000
,
0000
0000
0000
0000
,
0000
0000
0000
3003
,
1001
0000
0100
0001
0000
0100
0001
0000
,
1001
0000
1000
0010
0000
1000
0100
0100
,
0100
0000
1000
0010
0000
0100
0001
0000
,
1001
0000
0001
0010
0000
0100
1000
1000
,
0100
0000
0010
0100
0000
0100
0001
0000
,
1000
0000
0100
0010
0000
0010
0100
0100
,
0100
0000
1000
0010
0000
0100
0001
0000
,
0001
0000
0100
0010
0000
0010
1000
0010
,
1000
0000
0000
1000
0000
0000
1000
0000
0100
0000
0000
0100
0000
0000
0100
0000
,
0010
0000
0000
0010
0000
0000
0010
0000
0001
0000
0000
0001
0000
0000
0001
0000
,
0100
0000
0000
0100
0000
0000
0100
0000
0001
0000
0000
0010
0000
0000
0001
0000
,
1000
0000
0000
0100
0000
0000
1000
0000
0010
0000
0000
0010
0000
0000
0010
0000
,
1000
0000
0000
0010
0000
0000
0010
0000
0100
0000
0000
0100
0000
0000
0001
0000
,
0010
0000
0000
1000
0000
0000
0010
0000
0001
0000
0000
0100
0000
0000
0100
0000
,
0010
0000
0000
1000
0000
0000
0100
0000
1000
0000
0000
0010
0000
0000
0100
0000
,
0001
0000
0000
0100
0000
0000
0010
0000
0100
0000
0000
0001
0000
0000
0010
0000
,
0001
0100
0010
0100
,
0001
1000
0001
1000
,
0001
1000
0100
1000
,
0010
0100
0010
1000
,
0010
0100
0010
0100
,
0010
1000
0100
0010
,
0001
0100
0100
0001
,
0010
0001
1000
0100
,
1001
0000
0100
0001
0000
0100
0001
0000
,
1001
0000
1000
0010
0000
1000
0100
0100
,
0100
0000
1000
0010
0000
0100
0001
0000
,
1001
0000
0001
0010
0000
0100
1000
1000
,
0100
0000
0010
0100
0000
0100
0001
0000
,
1000
0000
0100
0010
0000
0010
0100
0100
,
0100
0000
1000
0010
0000
0100
0001
0000
,
0001
0000
0100
0010
0000
0010
1000
0010
,
0100
0000
0010
0100
0000
0001
0100
0000
,
0010
0000
1000
0010
0000
0100
0010
0010
,
0100
0000
1000
0010
0000
0100
0001
0000
,
0100
0000
0010
1000
0000
0001
0100
0100
,
0010
0000
0100
1000
0000
0100
1000
0000
,
0010
0000
0100
0001
0000
0010
0001
0010
,
0001
1000
0001
1000
0001
1000
0001
1000
,
0010
0100
0010
0100
0010
0100
0010
0200
,
0020
0000
0000
0000
,
0330
0000
0000
0000
;

//---------------dance-single - ----------------
#NOTES:
     dance-single:
     :
     Easy:
     7:
     0.286524,0.326224,0.080549,0.161098,0.000000,249.000000,239.000000,10.000000,20.000000,0.000000,0.000000,0.286524,0.326224,0.080549,0.161098,0.000000,249.000000,239.000000,10.000000,20.000000,0.000000,0.000000:
0000
0000
0000
0000
,
0000
0000
0000
0000
,
0000
0000
0000
0000
,
0000
0000
0000
0000
,
1001
0100
0000
0001
,
1001
1000
0000
0100
,
0100
1000
0000
0001
,
1001
0001
0000
1000
,
0100
0010
0000
0001
,
1000
0100
0000
0100
,
0100
1000
0000
0001
,
0001
0100
0000
1000
,
0100
0010
0000
0100
,
0010
1000
0000
0010
,
0100
1000
0000
0001
,
0100
0010
0000
0100
,
0010
0100
0000
1000
,
0010
0100
0000
0001
,
0001
1000
0000
0010
,
1000
0100
0000
1000
,
1000
0010
0000
0001
,
0010
0100
0000
0010
,
0010
0100
0000
0010
,
1000
0100
0000
1000
,
1000
1000
0001
0100
,
0100
0001
0010
0100
,
1000
0001
0100
0010
,
0010
1000
0010
0100
,
0001
0100
0010
1000
,
0010
0100
0001
1000
,
0010
0010
1000
1000
,
0001
0001
0010
0001
,
0100
0010
1000
0010
,
0100
0001
1000
0010
,
0100
0100
0010
0010
,
1000
0100
0010
0001
,
0010
0010
0100
0100
,
1000
0001
1000
2002
,
0000
0000
0000
0000
,
0000
0000
0000
3003
,
1001
0100
0000
0001
,
1001
1000
0000
0100
,
0100
1000
0000
0001
,
1001
0001
0000
1000
,
0100
0010
0000
0001
,
1000
0100
0000
0100
,
0100
1000
0000
0001
,
0001
0100
0000
1000
,
2000
0000
3200
0000
,
0320
0000
0032
0000
,
0203
0000
0302
0000
,
2003
0000
3020
0000
,
2030
0000
3200
0000
,
0320
0000
0032
0000
,
2003
0000
3020
0000
,
0230
0000
0302
0000
,
1003
0100
0100
1000
,
0001
1000
0001
1000
,
0001
1000
0100
1000
,
0010
0100
0010
1000
,
0010
0100
0010
0100
,
0010
1000
0100
0010
,
0001
0100
0100
0001
,
0010
0001
1000
0100
,
1001
0100
0000
0001
,
1001
1000
0000
0100
,
0100
1000
0000
0001
,
1001
0001
0000
1000
,
0100
0010
0000
0001
,
1000
0100
0000
0100
,
0100
1000
0000
0001
,
0001
0100
0000
1000
,
0100
0010
0000
0100
,
0010
1000
0000
0010
,
0100
1000
0000
0001
,
0100
0010
0000
0100
,
0010
0100
0000
1000
,
0010
0100
0000
0001
,
1000
0001
1000
0001
,
0100
0010
0100
0020
,
0200
0000
0000
0000
,
0330
0000
0000
0000
;

//---------------dance-single - ----------------
#NOTES:
     dance-single:
     :
     Beginner:
     3:
     0.164550,0.193318,0.016110,0.072494,0.000000,143.000000,141.000000,2.000000,9.000000,0.000000,0.000000,0.164550,0.193318,0.016110,0.072494,0.000000,143.000000,141.000000,2.000000,9.000000,0.000000,0.000000:
// measure 0
0000
0000
0000
0000
,  // measure 1
0000
0000
0000
0000
,  // measure 2
0000
0000
0000
0000
,  // measure 3
0000
0000
0000
0000
,  // measure 4
1001
0000
0100
0000
,  // measure 5
0001
0000
0100
0000
,  // measure 6
0100
0000
1000
0000
,  // measure 7
0001
0000
0001
0000
,  // measure 8
0100
0000
0010
0000
,  // measure 9
1000
0000
0100
0000
,  // measure 10
0100
0000
1000
0000
,  // measure 11
0001
0000
0100
0000
,  // measure 12
0100
0000
0010
0000
,  // measure 13
0010
0000
1000
0000
,  // measure 14
0100
0000
0100
0000
,  // measure 15
0010
0000
0010
0000
,  // measure 16
1000
0000
0001
0000
,  // measure 17
0010
0000
1000
0000
,  // measure 18
0001
0000
1000
0000
,  // measure 19
1000
0000
0100
0000
,  // measure 20
1000
0000
0010
0000
,  // measure 21
0010
0000
0100
0000
,  // measure 22
0100
0000
0001
0000
,  // measure 23
1000
0000
0001
0000
,  // measure 24
1000
0000
0001
0000
,  // measure 25
0100
0000
0010
0000
,  // measure 26
1000
0000
0100
0000
,  // measure 27
0010
0000
0010
0000
,  // measure 28
0001
0000
0010
0000
,  // measure 29
0010
0000
0001
0000
,  // measure 30
1000
0000
1000
0000
,  // measure 31
0001
0000
0010
0000
,  // measure 32
0100
0000
1000
0000
,  // measure 33
0100
0000
1000
0000
,  // measure 34
0100
0000
0010
0000
,  // measure 35
1000
0000
0010
0000
,  // measure 36
0010
0000
0100
0000
,  // measure 37
1000
0000
2000
0000
,  // measure 38
0000
0000
0000
0000
,  // measure 39
0000
0000
0000
3000
,  // measure 40
1000
0000
0001
0000
,  // measure 41
0001
0000
1000
0000
,  // measure 42
0100
0000
1000
0000
,  // measure 43
0001
0000
0001
0000
,  // measure 44
0100
0000
0001
0000
,  // measure 45
1000
0000
1000
0000
,  // measure 46
0100
0000
1000
0000
,  // measure 47
0001
0000
0010
0000
,  // measure 48
2000
0000
3000
0000
,  // measure 49
0020
0000
0030
0000
,  // measure 50
0200
0000
0300
0000
,  // measure 51
0002
0000
0003
0000
,  // measure 52
2000
0000
3000
0000
,  // measure 53
0020
0000
0030
0000
,  // measure 54
0200
0000
0300
0000
,  // measure 55
0002
0000
0003
0000
,  // measure 56
1000
0000
0100
0000
,  // measure 57
0001
0000
1000
0000
,  // measure 58
0001
0000
0100
0000
,  // measure 59
0010
0000
0100
0000
,  // measure 60
0010
0000
1000
0000
,  // measure 61
0010
0000
0100
0000
,  // measure 62
0001
0000
0100
0000
,  // measure 63
0010
0000
1000
0000
,  // measure 64
1000
0000
0100
0000
,  // measure 65
0001
0000
1000
0000
,  // measure 66
0100
0000
1000
0000
,  // measure 67
0001
0000
0100
0000
,  // measure 68
0100
0000
0010
0000
,  // measure 69
1000
0000
0100
0000
,  // measure 70
0100
0000
1000
0000
,  // measure 71
0001
0000
0100
0000
,  // measure 72
0100
0000
0010
0000
,  // measure 73
0010
0000
1000
0000
,  // measure 74
0100
0000
1000
0000
,  // measure 75
0100
0000
0001
0000
,  // measure 76
0010
0000
0001
0000
,  // measure 77
0010
0000
0100
0000
,  // measure 78
1000
0000
0001
0000
,  // measure 79
0100
0000
0010
0000
,  // measure 80
1001
0000
0000
0000
;
