#VERSION:0.83;
#TITLE:Red Rocket Rising;
#SUBTITLE:;
#ARTIST:BeForU;
#TITLETRANSLIT:;
#SUBTITLETRANSLIT:;
#ARTISTTRANSLIT:;
#GENRE:;
#ORIGIN:;
#CREDIT:DigiMindAxel;
#BANNER:;
#BACKGROUND:DDR CD-bg.JPG;
#PREVIEWVID:;
#JACKET:Red Rocket Rising-jacket.png;
#CDIMAGE:;
#DISCIMAGE:;
#LYRICSPATH:Red Rocket Rising.lrc;
#CDTITLE:;
#MUSIC:Red Rocket Rising.ogg;
#OFFSET:-1.196000;
#SAMPLESTART:34.430000;
#SAMPLELENGTH:15.579995;
#SELECTABLE:YES;
#BPMS:0.000=155.000,
170.000=77.500,
186.000=155.000;
#STOPS:;
#DELAYS:;
#WARPS:;
#TIMESIGNATURES:0.000=4=4;
#TICKCOUNTS:0.000=4;
#COMBOS:0.000=1;
#SPEEDS:0.000=1.000=0.000=0;
#SCROLLS:0.000=1.000;
#FAKES:;
#LABELS:0.000=Song Start;
#BGCHANGES:-2.000=Red Rocket Rising.avi=1.000=1=0=0=StretchNoLoop==CrossFade==,
99999=-nosongbg-=1.000=0=0=0 // don't automatically add -songbackground-
;
#KEYSOUNDS:;
#ATTACKS:
;

//---------------dance-single - ----------------
#NOTEDATA:;
#CHARTNAME:;
#STEPSTYPE:dance-single;
#DESCRIPTION:;
#CHARTSTYLE:;
#DIFFICULTY:Hard;
#METER:12;
#RADARVALUES:0.504882,0.657873,0.195438,0.211725,0.280942,434.000000,410.000000,24.000000,26.000000,0.000000,0.000000,0.000000,0.000000,0.000000,0.504882,0.657873,0.195438,0.211725,0.280942,434.000000,410.000000,24.000000,26.000000,0.000000,0.000000,0.000000,0.000000,0.000000;
#CREDIT:;
#NOTES:
0000
0000
0000
0000
,
0000
0000
0000
0000
,
2000
3000
0002
0003
,
1001
0000
0000
0100
0000
0000
0010
0000
2002
0000
0000
0000
3003
0000
0000
0000
,
1000
0100
1000
0010
1000
0100
1000
0010
,
1000
0100
1000
0010
1000
0000
0000
0000
,
0001
0100
0001
0010
0001
0100
0001
0010
,
0001
0100
0001
0010
0001
0000
0000
0000
,
1000
0100
0010
0100
1000
0100
0010
0100
,
1000
0100
0010
0100
1000
0000
0000
0000
,
0001
0010
0100
0010
0001
0010
0100
0010
,
0001
0010
0100
0010
0001
0000
0000
0000
,
1001
0000
0100
0000
0001
0100
0010
0100
,
0010
1000
0200
0300
,
1000
0000
0010
0000
0100
0001
0100
0010
,
1000
0001
0200
0300
,
0001
0000
1000
0010
0100
0000
0010
0000
,
0100
0000
0001
0100
0002
0000
0003
0000
,
0001
0000
0000
0001
0000
0000
0001
0000
1000
0000
0100
0000
1000
0000
0010
0000
,
0200
0000
0000
0010
0000
0000
0310
0000
2000
0000
0000
0001
0000
0000
3001
0000
,
1001
0100
0010
0100
0001
1000
0010
0100
,
1001
0100
1001
0000
1000
0100
0010
0001
,
1001
0000
0000
0001
0000
0000
0001
0000
0100
0000
0000
0100
0000
0000
0100
0000
,
0010
0000
0000
0010
0000
0000
0010
0000
2000
0000
0000
0000
3000
0000
0000
0000
,
1000
0000
0000
1000
0000
0000
1000
0000
0010
0000
0000
0010
0000
0000
0010
0000
,
0100
0000
0000
0100
0000
0000
0100
0000
0002
0000
0000
0000
0103
0000
0000
0000
,
1001
0110
1001
0110
,
1001
0000
0000
1000
0000
0000
1000
0000
0001
0000
0000
0001
0000
0000
0001
0000
,
0100
0000
0000
0100
0000
0000
0100
0000
0010
0000
0000
0010
0000
0000
0010
0000
,
1000
0000
0000
0001
0000
0000
1001
0000
0100
0000
0010
0000
0100
0000
0010
0000
,
1001
0000
0000
0001
0000
0000
0100
0000
0001
0000
0000
1000
0000
0000
0100
0000
,
1000
0000
0000
0001
0000
0000
0100
0000
0002
0000
0000
0000
0103
0000
0000
0000
,
0010
0000
0000
1000
0000
0000
0010
0000
0001
0000
0000
0010
0000
0000
1000
0000
,
0010
0000
0000
0001
0000
0000
0010
0000
2000
0000
0000
0000
3100
0000
0000
0000
,
1000
0000
1100
1000
0010
0000
0100
0000
,
0001
0000
0000
0100
0000
0000
0001
0000
0010
0000
0000
0001
0000
0000
0100
0000
,
0002
0000
0000
0000
2003
0000
0000
0000
3010
0000
0000
0100
0000
0000
0010
0000
,
0100
0000
0000
0000
1001
0000
0000
0000
0100
0000
0000
0010
0100
0000
0001
0000
,
1000
0100
0010
0100
1000
0001
0100
0001
,
1000
0010
0100
0010
1000
0100
1000
0001
,
0100
0010
0100
0001
1000
0100
0010
0001
,
1000
0100
0010
0001
1000
0100
0010
0002
,
0000
0000
0000
0000
0000
0000
1000
0000
0103
0000
0010
0000
0100
0000
0001
1000
,
0100
0000
0000
1000
0000
0000
0100
0000
2000
0000
0000
0000
0000
0000
0000
0000
3001
0000
0000
0100
0000
0000
0010
0000
0100
0000
0000
0001
0000
0000
1000
0000
,
0100
0000
0000
1000
0000
0000
0010
0000
0200
0000
0000
0000
0000
0000
0000
0000
0310
0000
0000
0000
1000
0000
0000
0000
0100
0000
0000
0000
1000
0000
0001
0000
,
0100
0000
0000
0010
0000
0000
0100
0000
0002
0000
0000
0000
0000
0000
0000
0000
0013
0000
0000
0010
0000
0000
0010
0000
0001
0000
0000
0001
0000
0000
0001
0000
,
1000
0000
0000
1000
0000
0000
1000
0000
0100
0000
0000
0100
0000
0000
0100
0000
2002
0000
0000
0000
0000
0000
0000
0000
0000
0000
0000
0000
0000
0000
0000
0000
,
0000
0000
3003
0000
1001
0000
0100
0010
,
0100
0000
0010
0000
0100
0000
0010
0000
1000
0000
0000
0100
0000
0000
0001
0000
,
0010
0000
0000
1000
0000
0000
0100
0000
0001
0000
0000
0010
0000
0000
1000
0000
,
0100
0000
0000
0001
0000
0000
0010
0000
1000
0000
0000
0100
0000
0000
0001
0000
,
0010
0000
0000
1000
0000
0000
0100
0000
0001
0000
0000
0010
0000
0000
1000
0000
,
1001
0000
0100
0001
0101
0000
0001
1000
,
0010
0000
0000
0000
1000
0000
0000
0000
0100
0000
0000
1000
0000
0000
0100
0000
,
1000
0000
0000
0010
0000
0000
0100
0000
0001
0000
0000
0100
0000
0000
0010
0000
,
0100
0000
0000
0001
0000
0000
1000
0000
0100
0000
0000
1000
0000
0000
0001
0000
,
0100
0000
0010
0000
0100
0000
0001
0000
1001
0000
0000
0001
0000
0000
0100
0000
,
0001
0000
0000
1000
0000
0000
0100
0000
1000
0000
0000
0001
0000
0000
0100
0000
,
0002
0000
0000
0000
0103
0000
0000
0000
0010
0000
0000
1000
0000
0000
0100
0000
,
0001
0000
0000
0100
0000
0000
1000
0000
0100
0000
0000
0001
0000
0000
0100
0000
,
2000
0000
3100
0000
1000
0000
1100
1000
,
0010
0000
0000
0000
0100
0000
0000
0000
0001
0000
0000
0100
0000
0000
0001
0000
,
0010
0000
0000
0001
0000
0000
0100
0000
0001
0000
0000
1000
0000
0000
1000
0000
,
0010
0000
0000
1000
0000
0000
0010
0000
0100
0000
0000
0001
0000
0000
0100
0000
,
0010
1000
0100
1000
1001
0001
0010
0100
,
1000
0001
0100
0001
1000
0010
0100
0010
,
1000
0100
1000
0001
0100
0010
0100
0001
,
1000
0100
0010
0001
1000
0100
0010
0001
,
1000
0100
0010
0001
0200
0000
0000
0000
,
0000
0000
0000
0000
0300
0000
0000
2002
0000
0000
0000
0000
0000
0000
0000
0000
,
0000
3003
0000
0000
;

//---------------dance-single - ----------------
#NOTEDATA:;
#CHARTNAME:;
#STEPSTYPE:dance-single;
#DESCRIPTION:;
#CHARTSTYLE:;
#DIFFICULTY:Medium;
#METER:10;
#RADARVALUES:0.416469,0.629270,0.293157,0.195438,0.048860,358.000000,322.000000,36.000000,24.000000,0.000000,0.000000,0.000000,0.000000,0.000000,0.416469,0.629270,0.293157,0.195438,0.048860,358.000000,322.000000,36.000000,24.000000,0.000000,0.000000,0.000000,0.000000,0.000000;
#CREDIT:;
#NOTES:
0000
0000
0000
0000
,
0000
0000
0000
0000
,
1000
1000
0001
0001
,
1001
0101
1100
0000
,
1000
0001
1000
0000
0001
0000
1000
0000
,
0001
1000
0001
0000
1000
0000
0001
0000
,
0100
0010
0100
0000
0010
0000
0100
0000
,
0010
0100
0010
0000
0100
0000
0010
0000
,
1000
0100
1000
0000
0100
0000
1000
0000
,
0001
0100
0001
0000
0100
0000
0001
0000
,
0100
0010
0100
0000
0001
1000
0001
0000
,
1000
0100
1000
0010
0100
0000
1001
0000
,
0100
0000
1001
0000
0100
0001
0100
0001
,
0020
0032
0203
0320
,
1030
0000
0100
1000
0100
0000
1000
0000
,
0002
2003
3200
1300
,
0010
0100
0001
0100
,
0010
0000
0010
0100
0010
0000
0101
0000
,
0010
1000
0100
1000
,
0010
0100
0001
0100
,
0001
0000
0000
0001
0000
0000
0001
0000
1000
0000
0000
1000
0000
0000
1000
0000
,
0200
0000
0000
0300
,
1001
0000
0100
0000
0010
0100
0010
0000
,
0100
0001
0100
0000
0020
0000
1030
0000
,
0100
0000
1000
0000
0001
1000
0100
0000
,
1000
0001
0100
0000
0010
0000
0100
0000
,
0001
0000
0100
0010
0100
0000
0010
0000
,
1000
0100
1000
0100
1000
0000
0010
0100
,
0001
0000
0001
0010
0001
0000
0100
0001
,
0100
0000
0000
0010
0000
0000
0100
0000
0010
0000
1000
0000
0100
0000
1000
0000
,
0001
0000
0100
0001
0100
0000
0010
1000
,
0010
0000
1000
0100
1000
0000
0001
0000
,
0100
0000
0001
0100
0001
0000
0010
0001
,
0010
0000
0001
0100
0010
0000
1000
0000
,
0200
0000
0000
1300
0002
0000
0013
0000
,
0001
0000
0101
0000
0001
0000
0100
0010
,
0100
0000
0010
0000
1000
0000
0100
1000
,
0100
2000
3200
0320
,
0031
0100
0010
1000
,
0010
0100
0001
1000
,
0100
0010
0001
0100
,
0010
1001
0110
2002
,
0000
0000
3003
0100
0001
0100
0010
1000
,
1001
0110
1001
0000
1000
0100
1000
0010
,
0101
1010
0101
0000
0001
0010
0100
1000
,
1100
0011
1100
0000
1000
0001
0100
0001
,
0100
0010
1000
0010
2000
0000
0000
0000
,
0000
0000
0002
0000
,
0000
0000
0000
0000
0000
0000
3003
0000
1000
0000
0000
1000
0000
0000
1000
0000
,
0001
0000
0000
0001
0000
0000
0001
0000
0100
0000
0000
0100
0000
0000
0100
0000
,
0010
0000
0000
0010
0000
0000
0010
0000
1000
0000
0000
0001
0000
0000
1000
0000
,
0001
0000
0000
1000
0000
0000
0001
0000
0100
0000
0000
0010
0000
0000
0200
0000
,
0020
0300
0030
0100
0001
0000
1001
0000
,
1000
0000
1000
0000
0010
0000
0100
0001
,
0100
0000
0001
0010
0001
0000
0100
0000
,
0010
0000
0000
0000
1000
0000
0100
0000
1000
0000
0000
1000
0000
0000
1000
0000
,
0001
0100
0001
0100
0010
0000
1000
0000
,
0100
0000
1000
0000
0010
0000
0100
0001
,
0100
0101
0001
0010
,
0001
0000
1000
0000
0100
0000
1000
0100
,
1000
1010
0100
0001
,
0100
0001
0010
0001
,
1000
0010
0100
0001
,
0100
0010
1000
0100
,
0100
1001
1001
0100
,
0001
0100
1001
0100
,
1000
0100
1001
0110
,
1001
0110
1001
0110
,
1001
0110
2002
0000
,
0000
0000
0000
0000
3003
0000
0000
0220
0000
0000
0000
0000
0000
0000
0000
0000
,
0000
0330
0000
0000
;

//---------------dance-single - ----------------
#NOTEDATA:;
#CHARTNAME:;
#STEPSTYPE:dance-single;
#DESCRIPTION:;
#CHARTSTYLE:;
#DIFFICULTY:Easy;
#METER:6;
#RADARVALUES:0.318750,0.429048,0.301300,0.228011,0.004072,274.000000,237.000000,37.000000,28.000000,0.000000,0.000000,0.000000,0.000000,0.000000,0.318750,0.429048,0.301300,0.228011,0.004072,274.000000,237.000000,37.000000,28.000000,0.000000,0.000000,0.000000,0.000000,0.000000;
#CREDIT:;
#NOTES:
0000
0000
0000
0000
,
0000
0000
0000
0000
,
2002
3003
0220
0330
,
2002
0000
3003
0000
,
1000
0000
0001
0000
,
1000
0100
0001
0000
,
1000
0000
0001
0000
,
1000
0010
0001
0000
,
1000
0000
0001
0000
,
1000
0100
0001
0000
,
1000
0100
0001
0100
,
1000
0010
0001
0010
,
1000
0100
0100
1001
,
0001
0100
0100
1001
,
1000
0100
1000
1000
,
0001
0100
0001
0001
,
1000
0010
0100
0100
,
0001
0100
0010
0010
,
1000
0100
0010
0001
,
2000
0000
0000
0000
,
3002
0000
0000
0000
,
0003
0000
0100
0100
,
1001
0100
0010
0100
,
0001
1000
0100
1100
,
1000
0010
0100
0001
,
0100
0010
1000
1100
,
2002
3003
0220
0330
,
0001
0100
0010
1000
,
0100
1000
0010
0100
,
0001
0100
0010
1000
,
0100
1000
0100
1100
,
0001
0100
0001
0101
,
0001
1000
0100
1001
,
1000
0001
0100
1001
,
2000
3000
0002
0003
,
0100
0010
0100
0001
,
1000
0100
1000
0010
,
0100
0001
1000
0100
,
1000
1000
0001
0001
,
1000
1000
0001
0001
,
1000
0001
1000
0001
,
0100
0010
0100
0020
,
0000
0000
0130
0100
,
0100
0010
0100
0000
0001
1000
0001
1000
,
0100
1000
0010
0000
0100
0000
0001
0000
,
1000
0100
1000
0000
0001
0001
1000
1000
,
0010
0010
0100
0100
2002
0000
0000
0000
,
0000
3003
0220
0000
,
0000
0330
1000
1100
,
0001
0101
1000
1100
,
0001
0101
1000
1100
,
0001
0101
1001
0110
,
1001
0000
1000
0000
,
1000
0000
0001
0001
,
0100
1000
0100
0001
,
0100
1000
0100
0001
,
0001
1000
1001
1000
,
0100
1000
0010
0100
,
0002
0003
1000
0010
,
0100
0001
1000
1000
,
2000
3100
2002
0003
,
0020
3030
0100
0001
,
0100
0001
0010
0001
,
1000
0010
0100
0001
,
0100
1001
0100
1001
,
0100
1000
0010
1001
,
0100
0001
0010
1001
,
0010
0100
1001
0110
,
1001
0110
2002
0000
,
0000
0000
0000
0000
3003
0000
0000
0220
0000
0000
0000
0000
0000
0000
0000
0000
,
0000
0330
0000
0000
;

//---------------dance-single - ----------------
#NOTEDATA:;
#CHARTNAME:;
#STEPSTYPE:dance-single;
#DESCRIPTION:;
#CHARTSTYLE:;
#DIFFICULTY:Beginner;
#METER:3;
#RADARVALUES:0.158212,0.254680,0.032573,0.065146,0.000000,136.000000,132.000000,4.000000,8.000000,0.000000,0.000000,0.000000,0.000000,0.000000,0.158212,0.254680,0.032573,0.065146,0.000000,136.000000,132.000000,4.000000,8.000000,0.000000,0.000000,0.000000,0.000000,0.000000;
#CREDIT:;
#NOTES:
// measure 0
0000
0000
0000
0000
,  // measure 1
0000
0000
0000
0000
,  // measure 2
0000
0000
0000
0000
,  // measure 3
0000
0000
0000
0000
,  // measure 4
1000
1000
0000
0000
,  // measure 5
1000
1000
0000
0000
,  // measure 6
0001
0001
0000
0000
,  // measure 7
0001
0001
0000
0000
,  // measure 8
0100
0100
0000
0000
,  // measure 9
0100
0100
0000
0000
,  // measure 10
0010
0010
0000
0000
,  // measure 11
0010
0010
0000
0000
,  // measure 12
1000
0000
1000
0000
,  // measure 13
2000
0000
3000
0000
,  // measure 14
0001
0000
0001
0000
,  // measure 15
0002
0000
0003
0000
,  // measure 16
0100
0000
0100
0000
,  // measure 17
0200
0000
0300
0000
,  // measure 18
0010
0000
0010
0000
,  // measure 19
0020
0000
0030
0000
,  // measure 20
1000
1000
1000
1000
,  // measure 21
2000
0000
3000
0000
,  // measure 22
1000
0000
0001
0000
,  // measure 23
0100
0000
0001
0000
,  // measure 24
1000
0000
0010
0000
,  // measure 25
0100
0000
0010
0000
,  // measure 26
1000
0000
0100
0000
,  // measure 27
0010
0000
0001
0000
,  // measure 28
1000
0000
0010
0000
,  // measure 29
0100
0000
0001
0000
,  // measure 30
1000
0000
0001
0000
,  // measure 31
0100
0000
0001
0000
,  // measure 32
1000
0000
0010
0000
,  // measure 33
1000
0000
0010
0000
,  // measure 34
0100
0000
0010
0000
,  // measure 35
1000
0000
0100
0000
,  // measure 36
1000
0000
0001
0000
,  // measure 37
0100
0000
0001
0000
,  // measure 38
0100
0100
0100
0000
,  // measure 39
0100
0100
0100
0000
,  // measure 40
0010
0010
0010
0000
,  // measure 41
0010
0010
0010
0000
,  // measure 42
0000
0000
1001
0000
,  // measure 43
0100
0000
0010
0000
,  // measure 44
0100
0000
0001
0000
,  // measure 45
1000
0000
0001
0000
,  // measure 46
1000
0000
0200
0000
,  // measure 47
0000
0000
0000
0300
,  // measure 48
0000
0000
1000
1000
,  // measure 49
1000
1000
1000
1000
,  // measure 50
1000
1000
1000
1000
,  // measure 51
1000
1000
1000
2000
,  // measure 52
3000
0000
0001
0000
,  // measure 53
0001
0000
0100
0000
,  // measure 54
0100
0000
0010
0000
,  // measure 55
0010
0000
0100
0000
,  // measure 56
0100
0000
0001
0000
,  // measure 57
0001
0000
1000
0000
,  // measure 58
1000
0000
0010
0000
,  // measure 59
0010
0000
0100
0000
,  // measure 60
0100
0000
0010
0000
,  // measure 61
1000
0000
0001
0000
,  // measure 62
0100
0000
0010
0000
,  // measure 63
1000
0000
0001
0000
,  // measure 64
0100
0000
1001
0000
,  // measure 65
0000
0000
1001
0000
,  // measure 66
0000
0000
1001
0000
,  // measure 67
0000
0000
0100
0100
,  // measure 68
0100
0100
0200
0000
,  // measure 69
0000
0000
0300
0000
;
