#TITLE:Re Verse;
#SUBTITLE:(DDR Edit);
#ARTIST:SNK Sound Team;
#TITLETRANSLIT:;
#SUBTITLETRANSLIT:;
#ARTISTTRANSLIT:;
#GENRE:;
#CREDIT:;
#BANNER:;
#BACKGROUND:;
#LYRICSPATH:;
#CDTITLE:;
#MUSIC:26. Re Verse ~Edit~.ogg;
#OFFSET:-0.005000;
#SAMPLESTART:28.124329;
#SAMPLELENGTH:12.000000;
#SELECTABLE:YES;
#BPMS:0.000000=145.000000
;
#STOPS:71.000000=0.207000,
74.500000=0.103000,
74.750000=0.103000,
78.000000=0.207000,
81.500000=0.207000,
85.000000=0.207000,
88.500000=0.103000,
88.750000=0.103000
;
#BGCHANGES:;
#KEYSOUNDS:;
#ATTACKS:;

//---------------dance-single - ----------------
#NOTES:
     dance-single:
     :
     Hard:
     15:
     0.695037,0.954590,0.165861,0.000000,0.734528,616.000000,595.000000,21.000000,0.000000,0.000000,0.000000,0.695037,0.954590,0.165861,0.000000,0.734528,616.000000,595.000000,21.000000,0.000000,0.000000,0.000000:
0000
0000
0000
0000
,
0000
0000
0000
0000
,
0000
0000
0000
0000
,
0000
0000
0000
0000
,
0000
0000
0000
0000
,
1000
0101
1000
0101
,
0001
1100
0001
1100
,
1000
0110
0001
0110
,
1001
0110
1001
0110
,
0010
1000
0100
1000
,
0010
1000
0100
0010
,
0100
1000
0100
1000
,
0001
0010
0100
0010
,
0100
0010
0001
1000
,
0100
1000
0010
0100
,
0001
0100
0010
1000
0001
0010
0001
0010
,
0100
0010
0001
1000
0100
1000
0010
1000
,
0010
1000
0100
0010
0001
0100
0010
0100
0001
1000
0010
1000
0100
0000
1000
0010
,
0100
0001
0010
0100
0010
0100
1000
0010
0100
0001
1000
0001
0010
0100
1000
0010
,
1000
0100
0010
0100
1000
0001
0100
0010
1000
0000
0100
1000
0010
0100
0001
1000
,
0001
0010
0100
0010
0100
1000
0010
1000
0100
0010
0100
1000
0010
1000
0100
0010
,
0001
0100
0001
0100
0010
0000
0010
0100
0001
0010
0001
0100
0010
0100
0001
0010
,
0001
1000
0001
0001
0010
0100
1000
0001
0010
0001
1000
0100
0010
0001
0100
0010
,
1000
0010
0100
0001
0010
0100
0010
0001
0100
0010
1000
0001
1000
0100
0010
0100
,
0010
0100
0000
0100
0010
0100
1000
0001
0100
0010
1000
0100
0010
0001
0010
0100
,
1000
0001
0000
0001
1000
0100
0010
0100
1000
0010
0100
0010
0100
0001
0100
0010
,
1000
0100
1000
0001
0100
0001
0100
0010
0100
0001
0010
0001
1000
0010
1000
0001
,
0100
0001
0000
0001
0100
0010
0100
0001
1000
0100
0010
0100
1000
0100
0010
0100
,
1000
0010
0000
0010
1000
0010
0100
0001
1000
0100
1000
0001
0100
0010
1000
0100
,
0010
0100
0000
0100
0010
0100
0010
0001
1000
0100
0010
0001
1000
0100
1000
0100
,
0010
0001
0100
0010
1000
0001
1000
0000
0001
1000
0001
0000
1000
0001
1000
0000
,
0001
1000
0001
0000
1000
0001
1000
0000
0001
1000
0001
0000
1000
0001
1000
0000
,
0001
1000
0001
0000
1001
0000
0000
0000
0010
0000
0000
0000
0100
0000
0000
0000
,
0001
0100
0001
0100
,
0010
1000
0001
0100
,
0010
1000
0100
0010
,
0100
1000
0001
0010
,
0100
1000
0010
1000
,
0010
0000
0100
0010
1000
0000
0100
1000
,
0001
0000
0000
0001
1000
0001
0000
0001
1000
0001
0000
0001
1000
0001
0000
0001
,
1000
0001
0000
0001
1000
0000
0100
0000
0010
0000
0001
0000
1000
0000
0000
0000
,
1001
0000
0100
0001
0010
0001
1000
0000
,
1001
0000
0001
1000
0001
0100
0010
0000
,
1001
0000
0001
0100
0010
1000
0100
0000
,
1001
0000
1000
0100
0010
0001
1000
0000
,
1001
0000
0001
0010
0100
1000
0001
0000
,
1001
0000
1000
0001
0100
0010
1000
0000
,
1001
0000
0001
1000
0010
0100
0001
0000
,
1001
0000
1000
0100
1000
0010
1000
0001
,
1000
1000
0001
1000
0001
0100
0001
1000
,
0001
0001
1000
0010
0100
0010
1000
0010
,
1000
1000
0001
0100
0010
0100
0001
0010
,
0001
0001
1000
0100
0010
0100
1000
0001
,
0100
0100
0001
0010
0100
0010
0001
0100
,
0010
0010
1000
0100
1000
0001
0100
0010
,
0100
0001
1000
0100
1000
0001
0100
0001
,
1000
0000
0100
0000
1000
0000
0000
1000
0100
0000
0000
0100
0010
0000
0000
0010
,
0001
0000
0000
0001
0100
0000
0000
0100
0010
0000
0000
0010
1000
0000
0000
1000
,
0100
0000
0000
0100
0010
0000
0000
0010
0001
0000
0000
0001
0100
0000
0000
0100
,
0010
0000
0000
0010
1000
0000
0000
1000
0100
0000
0000
0100
0010
0000
0000
0010
,
0001
0000
0000
0001
0100
0000
0000
0100
0010
0000
0000
0010
1000
0000
0000
1000
,
0001
0000
0000
0001
0100
0000
0000
0100
0001
0000
0000
0001
1000
0000
0000
1000
,
0010
0000
0000
0010
1000
0000
0001
0000
1000
0000
0001
0000
0100
0000
0010
0000
,
0100
0010
1000
0001
1000
0001
0110
0000
,
0000
0000
0000
0000
,
0000
0000
0000
0000
,
0000
0000
0000
0000
1000
0100
1000
0100
1000
0100
1000
0100
1000
0100
1000
0100
,
1000
0000
0000
0000
0001
0100
0001
0100
0001
0100
0001
0100
0001
0100
0001
0100
,
0001
0000
0100
0000
0010
1000
0010
1000
0010
1000
0010
1000
0001
0100
0001
0100
,
0001
0000
0000
0000
1000
0100
1000
0100
0010
0001
0010
0001
0100
0001
0100
0001
,
1000
0000
0010
0000
1000
0100
0010
0100
1000
0100
0010
0100
1000
0100
0010
0100
,
1000
0000
0000
0000
0010
0100
0001
0100
0010
0100
0001
0100
0010
0100
0001
0100
,
0010
0000
0100
0000
0001
1000
0001
1000
0010
0100
0010
0100
0001
1000
0001
1000
,
0010
1001
0000
0000
;

//---------------dance-single - ----------------
#NOTES:
     dance-single:
     :
     Medium:
     10:
     0.442296,0.520685,0.292231,0.000000,0.007898,392.000000,355.000000,37.000000,0.000000,0.000000,0.000000,0.442296,0.520685,0.292231,0.000000,0.007898,392.000000,355.000000,37.000000,0.000000,0.000000,0.000000:
0000
0000
0000
0000
,
0000
0000
0000
0000
,
0000
0000
0000
0000
,
0000
0000
0000
0000
,
0000
0000
0000
0000
,
1000
0101
1000
0101
,
0001
1100
0001
1100
,
1000
0110
0001
0110
,
1001
0110
1001
0110
,
0010
1000
0100
1000
,
0010
1000
0100
0010
,
0100
1000
0100
1000
,
0001
0010
0100
0010
,
0100
0010
0001
1000
,
0100
1000
0010
0100
,
0001
0100
0001
0100
0001
0010
0001
0010
,
0001
0100
0001
0100
0001
0010
0001
0010
,
0001
0100
0001
0010
0001
0010
0100
1000
,
0100
0000
0010
0000
0001
0000
1000
0000
0100
0000
1000
0001
0010
0000
0001
0000
,
1000
0010
1000
0100
1000
0100
0010
0001
,
0001
0100
0100
0010
0100
0100
0010
0100
,
0001
0001
0010
0010
0001
0001
0010
0001
,
0001
0000
0001
0001
0010
0000
0001
0000
0010
0000
0001
0000
0010
0000
0100
0000
,
1000
0100
0010
0010
0100
1000
1000
0010
,
0010
0000
0010
1000
0100
1000
0010
0010
,
1000
0000
1000
0010
1000
0100
0100
0100
,
1000
1000
0100
0100
0100
0010
0001
1000
,
0100
0000
0100
0100
1000
0010
1000
0010
,
1000
0000
1000
0100
1000
1000
0100
1000
,
0010
0000
0010
0010
1000
0010
1000
1000
,
0010
0100
0001
0001
1000
1000
0001
0001
,
1000
1000
0001
0001
1000
1000
0001
0001
,
1000
1000
0001
0000
0010
0000
0100
0000
,
0001
0100
1000
0100
,
0010
0001
0001
0100
,
0010
1000
0100
0010
,
0100
1000
0001
0010
,
0100
1000
0010
1000
,
0010
0000
0100
0010
1000
0000
0100
1000
,
0001
1001
1001
1001
,
1001
0000
1000
0100
1000
0100
1000
0000
,
1001
0000
0100
0001
0100
0001
0100
0000
,
1001
0000
0010
1000
0010
1000
0010
0000
,
1001
0000
0100
0001
0100
0001
0100
0000
,
1001
0000
1000
0100
1000
0100
1000
0000
,
1001
0000
0001
0010
0001
0010
0001
0000
,
1001
0000
0100
0010
0100
0010
0100
0000
,
1001
0000
0010
1000
0010
1000
0010
0000
,
1001
1000
1000
1000
,
1000
0001
0001
0001
,
0001
1000
0100
1000
,
1000
0001
0010
0001
,
0001
1000
0110
1000
,
0110
0001
0110
0001
,
0110
1000
1000
0100
,
0100
0010
0010
0001
,
0001
1000
0100
0010
,
0001
0100
0010
1000
,
0100
0010
0001
0100
,
0010
1000
0100
0010
,
0001
0100
0010
1000
,
0001
0100
0001
1000
,
0010
0000
1000
0001
1000
0001
0100
0010
,
0100
0010
1000
0001
1000
0001
0100
0000
,
0000
0000
0000
0000
,
0000
0000
0000
0000
,
0000
1000
0101
1000
,
0101
0001
1100
0001
,
1100
1000
0110
0001
,
0110
1001
0110
1001
,
0110
0010
1000
0100
,
1000
0010
0100
0001
,
0010
0001
1000
0100
,
1000
1001
0000
0000
;

//---------------dance-single - ----------------
#NOTES:
     dance-single:
     :
     Easy:
     7:
     0.340749,0.462831,0.268537,0.000000,0.000000,302.000000,268.000000,34.000000,0.000000,0.000000,0.000000,0.340749,0.462831,0.268537,0.000000,0.000000,302.000000,268.000000,34.000000,0.000000,0.000000,0.000000:
0000
0000
0000
0000
,
0000
0000
0000
0000
,
0000
0000
0000
0000
,
0000
0000
0000
0000
,
0000
0000
0000
0000
,
1000
0101
1000
0101
,
0001
1100
0001
1100
,
1000
0110
0001
0110
,
1001
0110
1001
0110
,
0010
1000
0100
1000
,
0010
1000
0100
0010
,
0100
1000
0100
1000
,
0001
0010
0100
0010
,
0100
0010
0001
1000
,
0100
1000
0010
0100
,
0001
0001
0001
0001
,
1000
1000
1000
1000
,
0001
0000
1000
0000
0001
0000
0100
0010
,
0000
0100
0000
0001
0000
1000
0010
0000
,
1000
0000
1000
0000
1000
0010
0000
0100
,
0000
0001
0000
0010
0100
0000
0010
0000
,
0001
0000
1000
0010
0000
1000
0000
0001
,
0000
1000
0010
0000
0010
0000
0010
0000
,
1000
1000
1000
0001
,
0001
0001
0100
0010
,
1000
1000
0001
0100
,
0010
0100
0100
0001
,
1000
0100
1000
0001
,
1000
0010
1000
0100
,
0010
0001
1000
0001
,
1000
0001
1000
0001
,
1000
0001
1000
0001
,
1000
0001
0010
0100
,
0001
0100
1000
0100
,
0010
0001
0001
0100
,
0010
1000
0100
0010
,
0100
1000
0001
0010
,
0100
1000
0010
1000
,
0010
1000
0001
1000
,
0001
0100
1001
0100
,
1001
1000
1000
1000
,
1001
0100
0100
0100
,
1001
0010
0010
0010
,
1001
0001
0001
0001
,
1001
1000
1000
1000
,
1001
0001
0001
0001
,
1001
0100
0100
0100
,
1001
0010
0010
0010
,
1001
1000
1000
1000
,
1000
0001
0001
0001
,
0001
1000
0100
1000
,
1000
0001
0010
0001
,
0001
1000
0010
1000
,
0110
0001
0100
0001
,
0110
1000
1000
0100
,
0100
0010
0010
0001
,
0001
1000
0100
0010
,
0001
0100
0010
1000
,
0100
0010
0001
0100
,
0010
1000
0100
0010
,
0001
0100
0010
1000
,
0001
0100
0001
1000
,
0010
1000
0001
0100
,
0010
1000
0001
0110
,
0000
0000
0000
0000
,
0000
0000
0000
0000
,
0000
1000
0101
1000
,
0101
0001
1100
0001
,
1100
1000
0110
0001
,
0110
1001
0110
1001
,
0110
0010
1000
0100
,
1000
0010
0100
0001
,
0010
0001
1000
0100
,
1000
1001
0000
0000
;

//---------------dance-single - ----------------
#NOTES:
     dance-single:
     :
     Beginner:
     4:
     0.174888,0.202489,0.047389,0.000000,0.000000,155.000000,149.000000,6.000000,0.000000,0.000000,0.000000,0.174888,0.202489,0.047389,0.000000,0.000000,155.000000,149.000000,6.000000,0.000000,0.000000,0.000000:
// measure 0
0000
0000
0000
0000
,  // measure 1
0000
0000
0000
0000
,  // measure 2
0000
0000
0000
0000
,  // measure 3
0000
0000
0000
0000
,  // measure 4
0000
0000
0000
0000
,  // measure 5
1000
0000
1000
0000
,  // measure 6
0001
0000
0001
0000
,  // measure 7
1000
0000
0001
0000
,  // measure 8
1001
0000
1001
0000
,  // measure 9
0010
0000
0100
0000
,  // measure 10
0010
0000
0100
0000
,  // measure 11
0100
0000
0100
0000
,  // measure 12
0001
0000
0100
0000
,  // measure 13
0100
0000
0001
0000
,  // measure 14
0100
0000
0010
0000
,  // measure 15
0001
0001
0001
0000
,  // measure 16
1000
1000
1000
0000
,  // measure 17
0001
0000
0001
0000
,  // measure 18
0000
0100
0000
0000
0000
1000
0000
0000
,  // measure 19
1000
0000
0000
0000
1000
0000
0000
0100
,  // measure 20
0000
0000
0000
0010
0000
0000
0010
0000
,  // measure 21
0000
0000
1000
0000
0000
1000
0000
0000
,  // measure 22
0000
1000
0000
0000
0010
0000
0000
0000
,  // measure 23
1000
1000
0000
0001
,  // measure 24
0000
0001
0000
0010
,  // measure 25
0000
1000
0000
0100
,  // measure 26
0000
0100
0000
0001
,  // measure 27
0000
0100
0000
0001
,  // measure 28
0000
0010
0000
0100
,  // measure 29
0000
0001
0000
1000
,  // measure 30
0000
0001
0000
1000
,  // measure 31
0000
0001
0000
1000
,  // measure 32
0000
0001
0000
0100
,  // measure 33
0000
1000
0000
0010
,  // measure 34
0000
0001
0000
0100
,  // measure 35
0000
0010
0000
1000
,  // measure 36
0000
1000
0000
0010
,  // measure 37
0000
0100
0000
0001
,  // measure 38
0000
1000
0000
1000
,  // measure 39
0000
0001
0000
0001
,  // measure 40
0000
1000
1000
1000
,  // measure 41
0000
0100
0100
0100
,  // measure 42
0000
0010
0010
0010
,  // measure 43
0000
0001
0001
0001
,  // measure 44
0000
1000
1000
1000
,  // measure 45
0000
0001
0001
0001
,  // measure 46
0000
0100
0100
0100
,  // measure 47
0000
0010
0010
0010
,  // measure 48
0000
1000
1000
1000
,  // measure 49
0000
0001
0001
0001
,  // measure 50
0000
0100
0100
0100
,  // measure 51
0000
0010
0010
0010
,  // measure 52
0000
1000
0000
1000
,  // measure 53
0000
0001
0000
0001
,  // measure 54
0000
1000
0000
0100
,  // measure 55
0000
0010
0000
0001
,  // measure 56
0000
1000
0000
0010
,  // measure 57
0000
0100
0000
1000
,  // measure 58
0000
0010
0000
0100
,  // measure 59
0000
1000
0000
0001
,  // measure 60
0000
0100
0000
0001
,  // measure 61
0000
0100
0000
0010
,  // measure 62
0000
1000
0000
0001
,  // measure 63
0000
1000
0000
1001
,  // measure 64
0000
0000
0000
0000
,  // measure 65
0000
0000
0000
0000
,  // measure 66
0000
1000
0000
1000
,  // measure 67
0000
0001
0000
0001
,  // measure 68
0000
1000
0000
0001
,  // measure 69
0000
1001
0000
1001
,  // measure 70
0000
0010
0000
0100
,  // measure 71
0000
0010
0000
0001
,  // measure 72
0000
1000
0000
1000
,  // measure 73
0000
1001
0000
0000
;
