#VERSION:0.83;
#TITLE:RUN AWAY;
#SUBTITLE:;
#ARTIST:AVEJIO;
#TITLETRANSLIT:;
#SUBTITLETRANSLIT:;
#ARTISTTRANSLIT:;
#GENRE:;
#ORIGIN:;
#CREDIT:;
#BANNER:;
#BACKGROUND:DDR CD-bg.JPG;
#PREVIEWVID:;
#JACKET:Run Away-jacket.jpg;
#CDIMAGE:;
#DISCIMAGE:;
#LYRICSPATH:;
#CDTITLE:;
#MUSIC:Run Away Avejio.ogg;
#OFFSET:-0.120000;
#SAMPLESTART:61.980030;
#SAMPLELENGTH:15.000011;
#SELECTABLE:YES;
#BPMS:0.000=128.000;
#STOPS:;
#DELAYS:;
#WARPS:;
#TIMESIGNATURES:0.000=4=4;
#TICKCOUNTS:0.000=4;
#COMBOS:0.000=1;
#SPEEDS:0.000=1.000=0.000=0;
#SCROLLS:0.000=1.000;
#FAKES:;
#LABELS:0.000=Song Start;
#BGCHANGES:;
#KEYSOUNDS:;
#ATTACKS:
;

//---------------dance-single - ----------------
#NOTEDATA:;
#CHARTNAME:;
#STEPSTYPE:dance-single;
#DESCRIPTION:;
#CHARTSTYLE:;
#DIFFICULTY:Hard;
#METER:10;
#RADARVALUES:0.466023,0.493031,0.275377,0.190646,0.063549,308.000000,282.000000,26.000000,18.000000,0.000000,0.000000,0.000000,0.000000,0.000000,0.466023,0.493031,0.275377,0.190646,0.063549,308.000000,282.000000,26.000000,18.000000,0.000000,0.000000,0.000000,0.000000,0.000000;
#CREDIT:;
#NOTES:
0000
0000
0000
0000
,
0000
0000
0000
0000
,
0000
0000
0000
0000
,
0000
0000
0000
0000
,
1020
1000
1000
1030
,
0201
0001
0001
0301
,
1020
1000
1000
1030
,
0201
0001
0001
0301
,
0012
0010
0010
0013
,
1200
1000
1000
1300
,
1020
1000
1000
1030
,
0201
0001
0001
0301
,
1000
0000
0000
0001
0100
0000
0010
0000
0100
0000
0001
0000
1000
0000
1000
0000
,
0100
0000
0000
1000
0010
0000
0100
0000
0010
0000
1000
0000
0001
0000
1000
0001
,
1000
0001
0010
0001
0100
0001
0010
0001
,
2002
0000
0000
3003
,
1001
0000
0000
0001
0100
0000
0010
0000
1000
0000
0010
0000
0100
0000
0010
0000
,
1000
0000
0000
0100
1000
0000
0010
0000
0100
0000
0002
0000
0100
0000
0103
0000
,
0100
0000
0000
0001
0100
0000
0010
0000
1000
0000
1000
0000
0100
0000
1000
0000
,
0001
0000
0000
0010
0100
0000
1000
0000
0010
0000
0100
0000
0002
0000
0000
0000
,
1003
0000
0000
0010
0100
0000
0001
0000
0100
0000
0010
0000
1000
0000
0100
0000
,
1000
0000
0000
0001
0100
0000
0010
0000
0100
0000
0002
0000
0100
0000
0010
0000
,
1003
0000
0000
1000
0001
0000
0001
0000
1000
0000
0010
0000
0010
0000
0100
0000
,
0120
0100
0100
0130
,
1001
0101
1001
1010
,
1001
0110
1001
0101
,
1100
0100
1000
0010
,
0101
0001
0010
0001
,
1001
0100
0001
0100
0010
0100
0001
0100
,
0010
1000
0100
1000
0010
1000
0100
1000
,
0010
0100
0001
0100
0010
0100
0001
0100
,
0010
1000
0001
1000
0100
1000
0010
0100
,
2002
0000
0000
3003
,
1000
0010
0001
0010
1000
0010
0001
0010
,
1000
0010
0001
0010
1000
0010
0001
0010
,
1000
0100
0001
0100
1000
0100
0001
0100
,
1000
0100
0001
0100
1000
0100
0001
0100
,
1000
0010
0100
0010
1000
0010
0100
0010
,
1000
0010
0100
0010
1000
0010
0100
0010
,
0100
0001
0100
0010
0100
0001
0100
0010
,
0100
0001
0010
0001
0100
0001
0010
0001
,
1000
0100
1000
0010
0100
0001
0100
0001
,
1000
0100
1000
0001
0100
0001
1000
1000
,
0001
0001
0100
0100
0010
0010
1000
0001
,
2002
0000
0000
3003
,
1001
0000
0100
0001
0100
0000
0010
1000
,
0010
0000
1000
0100
1000
0000
0001
0010
,
0001
0000
0000
1000
0000
0000
0001
0000
0000
1000
0000
0000
0001
0000
1000
0000
,
0001
0010
0100
1000
0001
0010
0100
1000
,
1001
0000
0000
0000
;

//---------------dance-single - ----------------
#NOTEDATA:;
#CHARTNAME:;
#STEPSTYPE:dance-single;
#DESCRIPTION:;
#CHARTSTYLE:;
#DIFFICULTY:Medium;
#METER:6;
#RADARVALUES:0.305638,0.363286,0.264786,0.328334,0.000000,202.000000,177.000000,25.000000,31.000000,0.000000,0.000000,0.000000,0.000000,0.000000,0.305638,0.363286,0.264786,0.328334,0.000000,202.000000,177.000000,25.000000,31.000000,0.000000,0.000000,0.000000,0.000000,0.000000;
#CREDIT:;
#NOTES:
0000
0000
0000
0000
,
0000
0000
0000
0000
,
0000
0000
0000
0000
,
0000
0000
0000
0000
,
2000
0001
0001
3001
,
0002
1000
1000
1003
,
0200
0010
0010
0310
,
0020
0100
0100
0130
,
0002
1000
1000
1003
,
2000
0001
0001
3001
,
0200
0010
0010
0310
,
0020
0100
0100
0130
,
2000
0100
0100
3100
,
0020
0001
0001
0031
,
0200
0001
0001
0301
,
0020
1000
1000
1030
,
1002
0103
2001
3100
,
1020
0130
0201
0310
,
2100
3100
0012
0013
,
2001
3010
0102
1003
,
2001
3010
0102
1003
,
2010
3100
0102
0013
,
0201
0310
0120
1030
,
0210
0301
0120
1030
,
1000
0100
0001
1100
,
0001
0100
1000
0101
,
1000
0100
0001
0010
,
1000
0100
0001
0010
,
1000
0100
0001
1100
,
0001
0100
1000
0101
,
1000
0100
0001
0010
,
1000
0100
0001
0020
,
0000
0000
0000
0030
,
1001
0100
0001
0100
,
0010
1000
0100
1000
,
0010
0100
0001
0100
,
0010
1000
0100
1000
,
0001
0100
0001
1000
,
0001
1000
0010
1000
,
0010
1000
0001
1000
,
0100
1000
0001
0100
,
0010
0000
0010
0000
0010
0010
0010
0000
,
0100
0000
0100
0000
0100
0100
0100
0000
,
0001
0000
1000
0000
0001
1000
0001
0000
,
2002
0000
0000
3003
,
1001
0100
0001
0100
,
0010
1000
0100
1000
,
0001
0100
0001
1000
,
0010
1000
0001
0110
,
1001
0000
0000
0000
;

//---------------dance-single - ----------------
#NOTEDATA:;
#CHARTNAME:;
#STEPSTYPE:dance-single;
#DESCRIPTION:;
#CHARTSTYLE:;
#DIFFICULTY:Easy;
#METER:4;
#RADARVALUES:0.202750,0.259490,0.042366,0.328334,0.000000,134.000000,130.000000,4.000000,31.000000,0.000000,0.000000,0.000000,0.000000,0.000000,0.202750,0.259490,0.042366,0.328334,0.000000,134.000000,130.000000,4.000000,31.000000,0.000000,0.000000,0.000000,0.000000,0.000000;
#CREDIT:;
#NOTES:
0000
0000
0000
0000
,
0000
0000
0000
0000
,
0000
0000
0000
0000
,
0000
0000
0000
0000
,
2000
0000
3020
0000
,
0230
0000
0302
0000
,
2003
0000
3002
0000
,
0203
0000
0320
0000
,
2030
0000
3200
0000
,
0320
0000
0032
0000
,
2003
0000
3020
0000
,
0230
0000
0302
0000
,
1003
1000
1000
1000
,
0001
0001
0001
0001
,
1000
1000
0001
0001
,
0100
0010
0100
0010
,
1001
0000
0100
0000
,
0010
0000
1000
0000
,
0100
0000
1000
0000
,
0001
0001
0001
0001
,
0001
0000
0100
0000
,
0010
0000
0010
0000
,
0100
0000
0001
0000
,
1000
1000
1000
1000
,
1000
0001
0002
0103
,
0200
0310
0020
1030
,
2000
3100
0200
1300
,
2000
3001
0002
0103
,
0200
0310
0020
1030
,
2000
3001
0002
0103
,
0200
0310
0020
1030
,
2002
0000
0000
0000
,
0000
0000
0000
3003
,
1000
1000
1000
1000
,
0001
0001
0001
0001
,
1000
1000
0001
0001
,
0100
0010
0100
0010
,
1001
0000
0100
0000
,
0010
0000
1000
0000
,
0100
0000
1000
0000
,
0001
0001
0001
0001
,
0001
0000
0100
0000
,
0010
0000
0010
0000
,
0100
0000
0001
0000
,
1000
1000
1000
1000
,
1000
0000
1000
0000
,
0001
0000
0001
0000
,
1000
1000
0001
0001
,
0100
0100
0010
0010
,
1001
0000
0000
0000
;

//---------------dance-single - ----------------
#NOTEDATA:;
#CHARTNAME:;
#STEPSTYPE:dance-single;
#DESCRIPTION:;
#CHARTSTYLE:;
#DIFFICULTY:Beginner;
#METER:2;
#RADARVALUES:0.145254,0.207592,0.021183,0.095323,0.000000,96.000000,94.000000,2.000000,9.000000,0.000000,0.000000,0.000000,0.000000,0.000000,0.145254,0.207592,0.021183,0.095323,0.000000,96.000000,94.000000,2.000000,9.000000,0.000000,0.000000,0.000000,0.000000,0.000000;
#CREDIT:;
#NOTES:
// measure 0
0000
0000
0000
0000
,  // measure 1
0000
0000
0000
0000
,  // measure 2
0000
0000
0000
0000
,  // measure 3
0000
0000
0000
0000
,  // measure 4
2000
0000
3000
0000
,  // measure 5
0200
0000
0300
0000
,  // measure 6
0002
0000
0003
0000
,  // measure 7
0200
0000
0300
0000
,  // measure 8
2000
0000
3000
0000
,  // measure 9
0020
0000
0030
0000
,  // measure 10
2000
0000
3000
0000
,  // measure 11
0002
0000
0003
0000
,  // measure 12
1000
1000
1000
0000
,  // measure 13
0001
0001
0001
0000
,  // measure 14
1000
1000
1000
0000
,  // measure 15
0001
0001
0001
0000
,  // measure 16
1001
0000
0100
0000
,  // measure 17
0010
0000
1000
0000
,  // measure 18
0100
0000
1000
0000
,  // measure 19
0001
0001
0001
0000
,  // measure 20
0001
0000
0100
0000
,  // measure 21
0010
0000
0010
0000
,  // measure 22
0100
0000
0001
0000
,  // measure 23
1000
1000
1000
0000
,  // measure 24
1000
0000
0001
0000
,  // measure 25
0100
0000
0010
0000
,  // measure 26
1000
0000
0100
0000
,  // measure 27
1000
0000
0001
0000
,  // measure 28
0100
0000
0010
0000
,  // measure 29
1000
0000
0001
0000
,  // measure 30
0100
0000
0010
0000
,  // measure 31
2000
0000
0000
0000
,  // measure 32
0000
0000
0000
3000
,  // measure 33
1000
1000
1000
0000
,  // measure 34
0001
0001
0001
0000
,  // measure 35
1000
1000
1000
0000
,  // measure 36
0001
0001
0001
0000
,  // measure 37
0100
0100
0100
0000
,  // measure 38
0010
0010
0010
0000
,  // measure 39
0100
0100
0100
0000
,  // measure 40
0010
0010
0010
0000
,  // measure 41
0001
0000
0100
0000
,  // measure 42
0010
0000
0010
0000
,  // measure 43
0100
0000
0001
0000
,  // measure 44
1000
0000
1000
0000
,  // measure 45
1000
0000
1000
0000
,  // measure 46
0001
0000
0001
0000
,  // measure 47
1000
0000
0001
0000
,  // measure 48
0100
0000
0010
0000
,  // measure 49
1001
0000
0000
0000
;
