#VERSION:0.83;
#TITLE:RUFFNECK;
#SUBTITLE:featuring NAVIGATOR;
#ARTIST:FREESTYLERS;
#TITLETRANSLIT:;
#SUBTITLETRANSLIT:;
#ARTISTTRANSLIT:;
#GENRE:;
#ORIGIN:;
#CREDIT:;
#BANNER:;
#BACKGROUND:RUFFNECK featuring NAVIGATOR-bg.jpg;
#PREVIEWVID:;
#JACKET:RUFFNECK featuring NAVIGATOR-jacket.jpg;
#CDIMAGE:;
#DISCIMAGE:;
#LYRICSPATH:;
#CDTITLE:;
#MUSIC:RUFFNECK featuring NAVIGATOR.ogg;
#OFFSET:-0.176000;
#SAMPLESTART:47.833626;
#SAMPLELENGTH:12.000000;
#SELECTABLE:YES;
#BPMS:0.000=125.898;
#STOPS:;
#DELAYS:;
#WARPS:;
#TIMESIGNATURES:0.000=4=4;
#TICKCOUNTS:0.000=4;
#COMBOS:0.000=1;
#SPEEDS:0.000=1.000=0.000=0;
#SCROLLS:0.000=1.000;
#FAKES:;
#LABELS:0.000=Song Start;
#BGCHANGES:;
#KEYSOUNDS:;
#ATTACKS:
;

//---------------dance-single - nifara----------------
#NOTEDATA:;
#CHARTNAME:nifara;
#STEPSTYPE:dance-single;
#DESCRIPTION:nifara;
#CHARTSTYLE:;
#DIFFICULTY:Hard;
#METER:14;
#RADARVALUES:0.533655,0.675654,0.690271,0.000000,0.117752,460.000000,375.000000,85.000000,0.000000,0.000000,0.000000,0.000000,0.000000,0.000000,0.533655,0.675654,0.690271,0.000000,0.117752,460.000000,375.000000,85.000000,0.000000,0.000000,0.000000,0.000000,0.000000,0.000000;
#CREDIT:nifara;
#NOTES:
0000
0000
0000
0000
,
1001
0000
0110
0000
0100
0010
0100
0000
1100
0000
0011
0000
0000
0000
0000
0000
,
0000
0000
1001
0000
0110
0000
0100
0010
0100
0000
1001
0000
1001
0000
0000
0000
,
1001
0000
0110
0000
0100
0010
0100
0000
1001
0000
1001
0000
0100
0010
0000
0000
,
1100
0011
1100
0011
,
1100
0000
0011
0000
1000
0100
1000
0000
0110
0000
1001
0000
0000
0000
0000
0000
,
0000
0000
1001
0000
0110
0000
0100
0010
0100
0000
0110
0000
0101
0000
0000
0000
,
0110
0000
1001
0000
0010
0100
0010
0000
0011
0000
1010
0000
0000
0000
0000
0000
,
0000
0000
0000
0000
,
0110
1001
0110
0101
,
1010
0110
1001
0110
,
1001
0110
1001
0110
,
1000
0000
0001
0000
0100
0000
0010
0000
0000
1001
0000
0000
,
0101
0110
1010
0110
,
0101
0110
1010
0110
,
0101
0110
1001
0110
,
1001
0000
0100
0000
0010
0100
0010
0000
,
1001
0000
0100
0010
0100
0010
1000
0100
,
0000
0000
0000
0000
0000
1000
0000
0110
,
0000
0100
0001
1000
0100
0001
1000
0001
,
0000
0000
0000
0000
0000
1001
0000
0110
,
0000
0100
0001
0100
0001
1000
1000
0110
,
0000
0000
0000
0000
0000
1000
0000
0000
,
0000
0001
0100
0010
0100
0010
1000
0000
,
1100
0000
1001
0110
,
1001
0110
0000
0000
0100
0010
0100
0000
,
1001
0000
0101
0000
0000
0000
0000
1000
0000
0000
0010
0000
0100
0000
0000
0000
,
0100
0010
0000
0100
0001
1000
0001
0000
,
0100
0000
0010
0000
0100
0001
0100
0001
1100
0000
0011
0000
0110
0000
0000
0000
,
1000
0001
1000
0000
0001
0000
0100
0000
0010
0000
0100
0000
0010
0000
0000
0000
,
1000
0000
0100
0000
0100
0000
0010
0100
0000
0010
0000
0100
0001
0000
0000
0000
,
1000
0001
0100
0000
0100
0000
0010
0000
,
0001
0010
0100
0010
1000
0010
1000
0010
,
1000
0100
0010
0100
0001
0100
0001
0000
,
1000
0001
0100
0010
0100
1000
0100
0000
,
0100
0001
0010
0001
1000
0010
0100
0000
,
0101
1000
0010
0100
0010
0100
0010
0000
,
1000
0001
0100
0010
0100
0001
1001
0000
,
1000
0001
0100
0010
0100
0010
0110
0000
,
1000
0001
0100
0001
0100
0001
0110
0000
,
1000
0001
0100
0010
,
1000
0100
1000
0000
0010
0000
0100
0000
0010
0100
0010
0000
0100
0000
0010
0000
,
0000
0000
0000
0000
0000
0001
0000
0100
,
0000
0000
0010
0000
0100
0000
0010
0000
0100
0010
0100
0000
0010
0000
1000
0000
,
0000
0000
0000
0000
0000
0000
0000
1001
,
0000
0000
0100
0000
0010
0000
0100
0000
0010
0100
0010
0000
1000
0000
0010
0000
,
0000
0000
0000
0000
0000
1001
0000
0000
,
0110
1000
0001
0100
0001
0100
0001
0000
,
0110
0000
0000
0000
,
1001
0110
0000
0000
0100
0010
0100
0000
,
1001
0110
0000
0000
1000
0010
0100
0000
,
1001
1001
0000
0000
0100
0010
0100
0000
,
1000
0000
0001
0000
0100
0010
0100
0010
0100
0000
0001
0000
0100
0000
0000
0000
,
0100
0010
0100
0001
1000
0001
0101
0000
,
0100
0000
0010
0000
0100
0000
0010
1000
0000
0010
0100
0000
0010
0000
0000
0000
,
0100
0000
0001
0000
0100
0001
0000
0001
0000
0100
0010
0000
1000
0000
0000
1000
,
0001
1000
0010
0000
0100
0000
0010
0000
1000
0000
0000
0000
0010
0000
0100
0000
,
0010
0100
0010
0100
0010
0100
0010
1000
,
0001
0100
0001
0100
0010
1000
0001
0100
,
0010
0100
0001
1000
0001
0100
0010
1000
,
0001
0010
0010
1000
0010
0100
0001
0100
,
0001
1000
0001
0100
0010
1000
0001
0010
,
0001
1000
0010
0010
0001
1000
0010
0100
,
0001
0010
0001
1000
0010
0100
0010
0100
,
1001
0000
0000
0000
;

//---------------dance-single - nifara----------------
#NOTEDATA:;
#CHARTNAME:;
#STEPSTYPE:dance-single;
#DESCRIPTION:nifara;
#CHARTSTYLE:;
#DIFFICULTY:Medium;
#METER:10;
#RADARVALUES:0.401401,0.415787,0.446646,0.000000,0.000000,346.000000,291.000000,55.000000,0.000000,0.000000,0.000000,0.000000,0.000000,0.000000,0.401401,0.415787,0.446646,0.000000,0.000000,346.000000,291.000000,55.000000,0.000000,0.000000,0.000000,0.000000,0.000000,0.000000;
#CREDIT:;
#NOTES:
0000
0000
0000
0000
,
1001
0100
1100
0000
,
0000
1001
0000
0100
0000
1001
0000
0000
,
1001
0100
1001
0100
,
1100
0011
1100
0011
,
1100
1000
0110
0000
,
0000
1001
0000
0100
0000
0110
0000
0000
,
0110
0010
1010
0000
,
1001
0100
0100
0100
,
0000
0100
0000
1001
0000
0110
0000
0101
,
0000
0010
0000
0110
0000
1001
0000
0110
,
0000
1000
0000
0110
0000
1001
0000
0101
,
0000
0001
0000
1100
0000
0101
0000
0101
,
0000
0100
0000
1010
0000
0110
0000
0101
,
0000
0010
0000
1010
0000
0110
0000
0101
,
0000
0010
0000
1001
0000
0110
0000
1001
,
0000
0100
0000
0010
0100
0010
0100
0000
,
1001
0000
0100
0000
0100
0000
1000
0100
,
0000
0000
0000
0000
0000
1000
0000
0110
,
0000
0100
0001
0000
0100
0001
1000
0001
,
0000
0000
0000
0000
0000
1001
0000
0110
,
0000
0100
0001
0100
0001
0000
1000
0010
,
0000
0000
0000
0000
0000
1000
0000
0000
,
0000
0001
0100
0010
0100
0010
1000
0000
,
1100
0000
1001
0110
,
0001
0100
0000
0010
1000
0000
0100
0000
,
1000
0100
0000
0000
1000
0010
0100
0000
,
0100
0010
0000
0100
0001
1000
0001
0000
,
0100
0010
0100
0100
0100
0010
0010
0000
,
1000
1000
0001
0100
0010
0100
0010
0000
,
1000
0100
1000
0010
0000
0100
0001
0000
,
1000
0001
0100
0000
0100
0000
1000
0000
,
1000
0010
0100
0010
1000
0010
1000
0000
,
1000
0100
0010
0000
0001
0000
0001
0000
,
1000
0001
0100
0000
0100
0000
0100
0000
,
0100
0001
0010
0000
1000
0000
0100
0000
,
0101
0000
0010
0000
0010
0100
0010
0000
,
1000
0001
0100
0000
0100
0000
1001
0000
,
1000
0001
0100
0000
0100
0000
0110
0000
,
1000
0001
0100
0000
0100
0000
0110
0000
,
1000
0001
0100
0010
,
1000
1000
0010
0000
0010
0010
0100
0010
,
0000
1000
0000
0010
0000
0001
0000
0100
,
0000
0010
0100
0010
0100
0100
0010
1000
,
0000
0100
0000
0010
0000
0001
0000
1001
,
0000
0100
0010
0100
0010
0010
1000
0010
,
0000
1000
0000
0001
0000
1001
0000
0110
,
0000
1000
0000
0100
0000
0001
0000
0010
,
0000
1000
0000
0100
0000
0001
0000
0010
,
1000
0000
0000
0000
0100
0010
0100
0000
,
1001
0000
0000
0000
1000
0010
0100
0000
,
1001
0000
0000
0000
0100
0010
0100
0000
,
1000
0001
0100
0010
1000
0000
0001
0000
,
0100
0010
0100
0001
1000
0000
0001
0000
,
0100
0010
0100
0000
0010
0100
0010
0000
,
0100
0001
0100
0000
0010
1000
0010
0000
,
1000
0010
0100
0000
0001
0100
0010
0000
,
0010
0100
0000
0001
0000
0100
0000
1000
,
0000
0100
0000
0001
0000
1000
0000
0100
,
0000
0001
0000
1000
0000
0100
0000
1000
,
0000
0010
0000
0001
0000
0100
0000
0100
,
0000
0001
0000
0100
0000
1000
0000
0010
,
0000
0001
0000
0010
0000
1000
0000
0100
,
0000
0010
0000
0001
0000
0100
0000
0100
,
1001
0000
0000
0000
;

//---------------dance-single - nifara----------------
#NOTEDATA:;
#CHARTNAME:;
#STEPSTYPE:dance-single;
#DESCRIPTION:nifara;
#CHARTSTYLE:;
#DIFFICULTY:Easy;
#METER:7;
#RADARVALUES:0.330634,0.363814,0.357317,0.000000,0.000000,285.000000,241.000000,44.000000,0.000000,0.000000,0.000000,0.000000,0.000000,0.000000,0.330634,0.363814,0.357317,0.000000,0.000000,285.000000,241.000000,44.000000,0.000000,0.000000,0.000000,0.000000,0.000000,0.000000;
#CREDIT:;
#NOTES:
0000
0000
0000
0000
,
1001
0100
1100
0000
,
1001
0100
1001
0000
,
1001
0100
1001
0000
,
1100
0011
1100
0000
,
1100
1000
0110
0000
,
1001
0100
0110
0000
,
0110
0010
1010
0000
,
1001
0100
0100
0100
,
0100
1001
0100
0101
,
0010
0110
0001
0110
,
1000
0110
0001
0101
,
0001
1100
0100
0101
,
0100
1010
0100
0101
,
0010
1010
0010
0101
,
0010
1001
0010
1001
,
0100
0000
0100
0100
,
1001
0100
0100
1000
,
0100
1000
1000
1000
,
0010
0001
0100
1000
,
0010
0010
0010
0010
,
0100
0001
1000
0010
,
0100
0001
1000
1000
,
0001
0100
0100
1000
,
1100
0000
1001
0110
,
0001
0010
1000
0100
,
1000
0010
0001
0100
,
0100
0100
0001
0001
,
0010
0010
1000
1000
,
1000
0001
0010
0010
,
1000
1000
0010
0001
,
1000
0100
0100
1000
,
1000
0100
1000
1000
,
1000
0010
0001
0001
,
1000
0100
0100
0100
,
0100
0010
1000
0100
,
0101
0010
0010
0010
,
1000
0100
0100
1001
,
1000
0100
0100
0110
,
1000
0100
0100
0110
,
1000
0001
0100
0010
,
1000
0010
0010
0100
,
0010
1000
0010
0001
,
0100
0010
0010
0100
,
1000
0100
0010
0001
,
1001
0100
0100
0010
,
0010
1000
0001
1001
,
0110
1000
0100
0001
,
0010
1000
0100
0001
,
1000
0000
0100
0100
,
1001
0000
1000
0100
,
1001
0000
0100
0100
,
1000
0100
1000
0001
,
0100
0100
1000
0001
,
0100
0100
0010
0010
,
0100
0100
0010
0010
,
1000
0100
0001
0010
,
0100
0001
0100
1000
,
0100
0001
1000
0100
,
0001
1000
0100
1000
,
0010
0001
0100
0100
,
0001
0100
1000
0010
,
0001
0010
1000
0100
,
0010
0001
0100
0100
,
1001
0000
0000
0000
;

//---------------dance-single - nifara----------------
#NOTEDATA:;
#CHARTNAME:;
#STEPSTYPE:dance-single;
#DESCRIPTION:nifara;
#CHARTSTYLE:;
#DIFFICULTY:Beginner;
#METER:3;
#RADARVALUES:0.162417,0.181907,0.024363,0.000000,0.000000,140.000000,137.000000,3.000000,0.000000,0.000000,0.000000,0.000000,0.000000,0.000000,0.162417,0.181907,0.024363,0.000000,0.000000,140.000000,137.000000,3.000000,0.000000,0.000000,0.000000,0.000000,0.000000,0.000000;
#CREDIT:;
#NOTES:
// measure 0
0000
0000
0000
0000
,  // measure 1
0100
0100
0100
0000
,  // measure 2
0010
0010
0010
0000
,  // measure 3
1000
1000
1000
0000
,  // measure 4
0001
0001
0001
0000
,  // measure 5
1000
1000
1000
0000
,  // measure 6
0001
0001
0001
0000
,  // measure 7
0010
0010
0010
0000
,  // measure 8
0100
0100
0100
0000
,  // measure 9
0100
0000
0100
0000
,  // measure 10
0010
0000
0001
0000
,  // measure 11
1000
0000
0001
0000
,  // measure 12
0001
0000
0100
0000
,  // measure 13
0100
0000
0100
0000
,  // measure 14
0010
0000
0010
0000
,  // measure 15
0010
0000
0010
0000
,  // measure 16
0100
0000
0100
0100
,  // measure 17
0100
0000
0100
0000
,  // measure 18
0100
0000
1000
0000
,  // measure 19
0010
0000
0100
0000
,  // measure 20
0010
0010
0010
0000
,  // measure 21
0100
0000
1000
0000
,  // measure 22
0100
0000
1000
0000
,  // measure 23
0001
0000
0100
0000
,  // measure 24
1000
0000
0001
0000
,  // measure 25
0001
0000
1000
0000
,  // measure 26
1000
0000
0001
0000
,  // measure 27
0100
0000
0001
0000
,  // measure 28
0010
0000
1000
0000
,  // measure 29
1000
0000
0010
0000
,  // measure 30
1000
0000
0010
0000
,  // measure 31
1000
0000
0100
0000
,  // measure 32
1000
0000
1000
0000
,  // measure 33
1000
0000
0001
0000
,  // measure 34
1000
0000
0100
0000
,  // measure 35
0100
0000
1000
0000
,  // measure 36
0001
0000
0010
0000
,  // measure 37
1000
0000
0100
0000
,  // measure 38
1000
0000
0100
0000
,  // measure 39
1000
0000
0100
0000
,  // measure 40
1000
0000
0100
0000
,  // measure 41
1000
0000
0010
0000
,  // measure 42
0010
0000
0010
0000
,  // measure 43
0100
0000
0010
0000
,  // measure 44
1000
0000
0010
0000
,  // measure 45
0001
0000
0100
0000
,  // measure 46
0010
0000
0001
0000
,  // measure 47
0100
0000
0100
0000
,  // measure 48
0010
0000
0100
0000
,  // measure 49
1000
0000
0100
0000
,  // measure 50
1001
0000
1000
0000
,  // measure 51
1001
0000
0100
0000
,  // measure 52
1000
0000
1000
0000
,  // measure 53
0100
0000
1000
0000
,  // measure 54
0100
0000
0010
0000
,  // measure 55
0100
0000
0010
0000
,  // measure 56
1000
0000
0001
0000
,  // measure 57
0100
0000
0100
0000
,  // measure 58
0100
0000
1000
0000
,  // measure 59
0001
0000
0100
0000
,  // measure 60
0010
0000
0100
0000
,  // measure 61
0001
0000
1000
0000
,  // measure 62
0001
0000
1000
0000
,  // measure 63
0010
0000
0100
0000
,  // measure 64
1001
0000
0000
0000
;
