#VERSION:0.83;
#TITLE:ROBOT WORLD;
#SUBTITLE:;
#ARTIST:OSCILLATOR X;
#TITLETRANSLIT:;
#SUBTITLETRANSLIT:;
#ARTISTTRANSLIT:;
#GENRE:;
#ORIGIN:;
#CREDIT:;
#BANNER:;
#BACKGROUND:DDR CD-bg.JPG;
#PREVIEWVID:;
#JACKET:Robot World-jacket.jpg;
#CDIMAGE:;
#DISCIMAGE:;
#LYRICSPATH:;
#CDTITLE:;
#MUSIC:Robot World.ogg;
#OFFSET:-0.100000;
#SAMPLESTART:43.599964;
#SAMPLELENGTH:14.999996;
#SELECTABLE:YES;
#BPMS:0.000=130.000;
#STOPS:;
#DELAYS:;
#WARPS:;
#TIMESIGNATURES:0.000=4=4;
#TICKCOUNTS:0.000=4;
#COMBOS:0.000=1;
#SPEEDS:0.000=1.000=0.000=0;
#SCROLLS:0.000=1.000;
#FAKES:;
#LABELS:0.000=Song Start;
#BGCHANGES:;
#KEYSOUNDS:;
#ATTACKS:
;

//---------------dance-single - ----------------
#NOTEDATA:;
#CHARTNAME:;
#STEPSTYPE:dance-single;
#DESCRIPTION:;
#CHARTSTYLE:;
#DIFFICULTY:Hard;
#METER:10;
#RADARVALUES:0.400292,0.476569,0.132380,0.132380,0.011032,254.000000,242.000000,12.000000,12.000000,0.000000,0.000000,0.000000,0.000000,0.000000,0.400292,0.476569,0.132380,0.132380,0.011032,254.000000,242.000000,12.000000,12.000000,0.000000,0.000000,0.000000,0.000000,0.000000;
#CREDIT:;
#NOTES:
0000
0000
0000
0000
,
0000
0000
0000
0000
,
0000
0000
0000
0000
,
0000
0000
0000
0000
,
1000
0010
0100
0010
0001
0010
0100
0010
,
1000
0000
0010
0000
0100
0000
0010
0000
1000
0000
0010
0100
0000
0010
1000
0000
,
0001
0010
0100
0010
0001
0010
0100
0010
,
0001
1000
0001
0100
0010
0100
0010
0100
,
1001
0000
0100
0000
0001
0100
0001
0000
,
1000
0000
0010
0000
1000
0010
1000
0010
,
0100
0010
0100
0000
0001
1000
0100
1000
,
0100
0000
1000
0010
0100
0010
1000
0000
,
0100
1000
0100
1000
,
0010
0100
0001
0100
,
0001
0010
0001
0000
0100
0010
0100
0000
,
0001
1000
0001
1000
0001
1000
0001
0000
,
1002
0100
0100
0103
,
2001
0100
0100
3100
,
1000
0001
1000
0000
0001
1000
0001
0000
,
0100
0010
0100
0000
0010
0100
0010
0000
,
0120
1000
1000
1030
,
0210
0001
0001
0301
,
1000
0001
1000
0001
0100
0010
0100
0010
,
1000
0001
0100
0010
2002
0000
0000
3000
,
0103
0000
0010
0000
0100
0001
0100
0010
,
1000
0000
0100
0000
1000
0010
0100
0001
,
0100
0000
0010
0000
1000
0100
1000
0001
,
0100
0000
0001
0000
0010
0001
0010
0001
,
0100
0000
0010
0000
1000
0001
0100
0001
,
0100
0000
0010
0000
1000
0001
1000
0100
,
1000
0000
0010
0000
0100
0001
0100
0010
,
1000
0000
0100
0000
1000
0010
0100
0001
,
1002
0100
0000
0103
,
2001
0100
0000
3100
,
1002
0100
0000
0103
,
2001
0100
0000
3100
,
1000
1000
1000
0000
0001
0001
0001
0000
,
1000
1000
1000
0000
0001
0001
0001
0000
,
0100
0010
0100
0000
0010
0100
0010
0000
,
2002
0000
0000
0000
3003
0100
0010
0100
,
1001
0000
0100
0000
1000
0100
1000
0000
,
0001
0000
0100
0000
0010
1000
0010
1000
,
0000
0100
0000
0001
0000
0010
0000
1000
,
0000
0100
0000
0001
0000
0010
0000
1000
,
1000
1000
0010
0000
0100
0001
0100
0000
,
0001
0010
0001
0000
1000
0010
1000
0010
,
0000
1000
0000
0100
0000
0001
0000
0010
,
0000
1000
0000
0100
0000
0001
0000
0010
,
0010
0000
0000
0000
;

//---------------dance-single - ----------------
#NOTEDATA:;
#CHARTNAME:;
#STEPSTYPE:dance-single;
#DESCRIPTION:;
#CHARTSTYLE:;
#DIFFICULTY:Medium;
#METER:7;
#RADARVALUES:0.359318,0.370665,0.110317,0.033095,0.000000,228.000000,218.000000,10.000000,3.000000,0.000000,0.000000,0.000000,0.000000,0.000000,0.359318,0.370665,0.110317,0.033095,0.000000,228.000000,218.000000,10.000000,3.000000,0.000000,0.000000,0.000000,0.000000,0.000000;
#CREDIT:;
#NOTES:
0000
0000
0000
0000
,
0000
0000
0000
0000
,
0000
0000
0000
0000
,
0000
0000
0000
0000
,
1000
0000
0001
0000
0100
0000
0001
0010
,
0001
0000
1000
0000
0010
0000
0100
0010
,
0100
0000
0001
0000
1000
0000
0100
1000
,
0100
0000
1000
0000
0010
0001
0010
0000
,
0101
0010
1000
0100
,
1000
0100
1000
0010
,
0100
0001
0010
0001
,
1000
1000
0100
1000
,
0010
0100
0001
0010
,
0001
0001
0100
0010
,
1000
0010
0100
0100
,
0010
1000
0001
0001
,
0100
0000
0010
0000
1000
0010
0100
0001
,
0100
0000
0010
0000
1000
0100
1000
0010
,
0100
0000
0001
0000
0010
0001
0100
0001
,
0010
0000
0001
0000
1000
0010
0100
0010
,
1000
0000
0100
0000
0010
0001
0010
0001
,
0100
0000
0010
0000
0100
0001
0100
0001
,
0010
0001
1000
0100
,
2002
0000
0000
3003
,
0100
0000
0010
0000
0100
0001
0100
0000
,
0010
0000
1000
0000
0100
1000
0100
0000
,
1000
0000
0010
0000
0100
0001
0100
0000
,
0001
0000
0010
0000
0001
0100
0001
0000
,
1000
0000
0010
0000
0100
0010
0100
0000
,
0010
0000
1000
0000
0100
1000
0100
0000
,
1000
0000
0010
0000
0100
0001
0100
0000
,
0001
0000
0010
0000
0001
0100
0001
0100
,
0010
0000
1000
0000
0100
1000
0100
1000
,
0010
0000
0100
0000
0001
0100
0001
0100
,
0010
0000
1000
0000
0100
1000
0100
1000
,
0010
0000
0100
0000
0001
0010
0001
0010
,
0100
0000
1000
0000
0010
0100
0010
0100
,
0001
0000
1000
0000
0010
1000
0010
1000
,
0100
0000
1000
0000
0001
0100
0001
0100
,
0020
0000
0000
0000
0000
0100
0100
0000
,
0130
0101
0001
1000
,
0010
0000
1100
0000
1000
0001
0100
0000
,
0010
1001
0100
0010
,
1000
0000
0101
0000
0001
0010
0001
0000
,
1000
1100
0010
0100
,
0001
0000
0101
0000
0010
1000
0010
1000
,
0100
1100
1000
0010
,
0100
0000
0101
0000
0001
0100
0001
0100
,
0010
0000
0000
0000
;

//---------------dance-single - ----------------
#NOTEDATA:;
#CHARTNAME:;
#STEPSTYPE:dance-single;
#DESCRIPTION:;
#CHARTSTYLE:;
#DIFFICULTY:Easy;
#METER:4;
#RADARVALUES:0.244273,0.264760,0.088253,0.375077,0.000000,155.000000,147.000000,8.000000,34.000000,0.000000,0.000000,0.000000,0.000000,0.000000,0.244273,0.264760,0.088253,0.375077,0.000000,155.000000,147.000000,8.000000,34.000000,0.000000,0.000000,0.000000,0.000000,0.000000;
#CREDIT:;
#NOTES:
0000
0000
0000
0000
,
0000
0000
0000
0000
,
0000
0000
0000
0000
,
0000
0000
0000
0000
,
1000
1000
2000
3001
,
0001
0001
0002
0103
,
0100
0100
0200
0310
,
0010
0010
0020
1030
,
2000
3000
1000
1000
,
0002
0003
0001
0001
,
0100
0100
0100
0100
,
0010
0010
0010
0010
,
0020
0030
0010
1000
,
2000
3000
0001
0001
,
0200
0300
0100
0100
,
0002
0003
0001
1000
,
1002
1000
1000
1000
,
2000
0000
0000
3003
,
2001
0001
0001
0001
,
0002
0000
0000
3003
,
0120
0100
0100
0100
,
0200
0000
0000
0330
,
0210
0010
0010
0010
,
0020
0000
0000
0330
,
1001
0100
0001
0100
,
0001
0100
0010
1000
,
0010
1000
0010
1000
,
0100
1000
0100
1000
,
0100
1000
0001
0010
,
0001
0010
0001
0010
,
0001
0100
0010
1000
,
0100
1000
0010
0100
,
0002
1000
1000
1003
,
2000
0010
0010
3010
,
0020
0100
0100
0130
,
0200
0001
0001
0301
,
2002
0000
0000
3000
,
0200
0000
0000
0003
,
0020
0000
0000
0300
,
2000
0000
0000
3030
,
1001
1000
0100
1000
,
0010
0100
0001
2000
,
3020
0230
0301
1000
,
0010
1000
0002
0103
,
0010
1000
0100
1000
,
0002
0103
0020
1030
,
2000
0001
0001
3001
,
0100
0100
0100
0100
,
1001
0000
0000
0000
;

//---------------dance-single - ----------------
#NOTEDATA:;
#CHARTNAME:;
#STEPSTYPE:dance-single;
#DESCRIPTION:;
#CHARTSTYLE:;
#DIFFICULTY:Beginner;
#METER:2;
#RADARVALUES:0.148140,0.185332,0.011032,0.088253,0.000000,94.000000,93.000000,1.000000,8.000000,0.000000,0.000000,0.000000,0.000000,0.000000,0.148140,0.185332,0.011032,0.088253,0.000000,94.000000,93.000000,1.000000,8.000000,0.000000,0.000000,0.000000,0.000000,0.000000;
#CREDIT:;
#NOTES:
// measure 0
0000
0000
0000
0000
,  // measure 1
0000
0000
0000
0000
,  // measure 2
0000
0000
0000
0000
,  // measure 3
0000
0000
0000
0000
,  // measure 4
1000
1000
1000
0000
,  // measure 5
0001
0001
0001
0000
,  // measure 6
0100
0100
0100
0000
,  // measure 7
0010
0010
0010
0000
,  // measure 8
2000
3000
1000
0000
,  // measure 9
0002
0003
0001
0000
,  // measure 10
0100
0100
0100
0000
,  // measure 11
0010
0010
0010
0000
,  // measure 12
0020
0030
0010
0000
,  // measure 13
2000
3000
1000
0000
,  // measure 14
0200
0300
0100
0000
,  // measure 15
0002
0003
0001
0000
,  // measure 16
1000
1000
1000
1000
,  // measure 17
1000
0000
0000
0000
,  // measure 18
0001
0001
0001
0001
,  // measure 19
0001
0000
0000
0000
,  // measure 20
0100
0100
0100
0100
,  // measure 21
0100
0000
0000
0000
,  // measure 22
0010
0010
0010
0010
,  // measure 23
0010
0000
0000
0000
,  // measure 24
0001
0000
0001
0000
,  // measure 25
0001
0000
0010
0000
,  // measure 26
0010
0000
0010
0000
,  // measure 27
0100
0000
0100
0000
,  // measure 28
0100
0000
1000
0000
,  // measure 29
1000
0000
1000
0000
,  // measure 30
0001
0000
0010
0000
,  // measure 31
1000
0000
1000
0000
,  // measure 32
1000
1000
0000
0000
,  // measure 33
0010
0010
0000
0000
,  // measure 34
0100
0100
0000
0000
,  // measure 35
0001
0001
0000
0000
,  // measure 36
2000
0000
0000
0000
,  // measure 37
3000
0000
0000
0000
,  // measure 38
0002
0000
0000
0000
,  // measure 39
0003
0000
0000
0000
,  // measure 40
1000
0000
0100
0000
,  // measure 41
0010
0000
0001
0000
,  // measure 42
0010
0000
0001
0000
,  // measure 43
0010
0000
0001
0000
,  // measure 44
0010
0000
0100
0000
,  // measure 45
0001
0000
0010
0000
,  // measure 46
1000
0000
0001
0000
,  // measure 47
0100
0000
0010
0000
,  // measure 48
1001
0000
0000
0000
;
