#TITLE:Queen of Love;
#SUBTITLE:;
#ARTIST:WILDSIDE;
#TITLETRANSLIT:;
#SUBTITLETRANSLIT:;
#ARTISTTRANSLIT:;
#GENRE:;
#CREDIT:MANTIS;
#BANNER:Queen Of Love.png;
#BACKGROUND:Queen Of Love-bg.jpg;
#LYRICSPATH:;
#CDTITLE:;
#MUSIC:Queen Of Love.ogg;
#OFFSET:-0.020000;
#SAMPLESTART:40.469997;
#SAMPLELENGTH:11.980000;
#SELECTABLE:YES;
#BPMS:0.000000=165.000000
;
#STOPS:
;
#BGCHANGES:;
#KEYSOUNDS:;
#ATTACKS:;

//---------------dance-single - ----------------
#NOTES:
     dance-single:
     :
     Hard:
     14:
     0.670974,0.614325,0.674457,0.105638,0.000000,578.000000,495.000000,83.000000,13.000000,0.000000,0.000000,0.670974,0.614325,0.674457,0.105638,0.000000,578.000000,495.000000,83.000000,13.000000,0.000000,0.000000:
0000
0000
0000
0000
,
0000
0000
0000
0000
,
0000
0000
0000
0000
,
0000
0000
0000
0000
,
0001
0010
0100
1000
0100
0010
0100
1000
,
0100
0010
0001
0010
0100
1000
0100
0010
,
0100
1000
0100
0010
0001
0010
0100
0010
,
0001
0010
0100
1000
0100
0010
0100
1000
,
0100
0010
0001
0010
0100
1000
0100
0010
,
0100
1000
0100
0010
0001
0010
0100
0010
,
0001
0010
0100
1000
0100
1000
0010
0100
,
0001
1000
0100
1000
0010
0100
0001
0000
,
1002
0000
0103
0000
1000
0100
1000
0010
,
0100
0001
1000
0100
1000
0001
1001
0000
,
2001
0000
3100
0000
1000
0010
0100
0001
,
0100
0010
1000
0100
1000
0001
0100
0000
,
1002
0000
0013
0000
0001
0100
0010
1000
,
0100
1000
0010
0100
0001
1000
0001
0100
,
0001
0010
0100
1000
1000
0100
0010
0001
,
0001
0010
0100
0010
0001
0010
0100
0000
,
1002
0000
0103
0000
1000
0100
1000
0010
,
0100
0001
1000
0100
1000
0001
1001
0000
,
2001
0000
3100
0000
1000
0010
0100
0001
,
0100
0010
1000
0100
1000
0001
0100
0000
,
2001
0000
3010
0000
1000
0100
0010
0100
,
1000
0001
0010
0001
0100
0010
0100
0001
,
1000
0100
0010
0001
0001
0010
0100
1000
,
1000
0100
0010
0100
1000
0100
0010
0100
,
1001
0000
0000
0100
1001
0000
0000
0100
,
1001
0000
0000
0100
1001
0001
0100
0001
,
1001
0000
0000
0010
1001
0000
0000
0010
,
1001
0000
0000
0010
1001
1000
0100
1000
,
1001
0000
0000
0100
1001
0000
0000
0100
,
1001
0000
0000
0100
1001
0100
0010
0100
,
1001
0000
0000
0010
1001
0000
0000
0010
,
1001
0000
0000
0010
1001
1000
0100
0010
,
0001
0000
0101
0000
0001
1000
0100
1000
,
0010
0000
0101
0000
0010
1000
0100
1000
,
0010
0000
1100
0000
0001
0100
0010
0100
,
0001
0000
1001
0000
0001
0010
0100
1000
,
0100
0000
1010
0000
0001
0010
0001
0010
,
0001
0000
0101
0000
0001
1000
0010
0100
,
0001
0000
0101
0000
0001
1000
0010
1000
,
0100
0010
0001
0010
0100
1000
0001
0100
,
2001
0000
0100
0000
0001
0001
3001
0000
,
1002
0000
0100
0000
1000
1000
1003
0000
,
2001
0000
0010
0000
0001
0001
3001
0000
,
1002
0000
0010
0000
1000
1000
1003
0000
,
0100
1001
0100
1001
,
0010
1001
0010
1001
,
1000
0100
0010
0001
1000
0100
0010
0001
,
1000
0001
0100
0010
1000
0001
0100
0010
,
1002
0000
0103
0000
1000
0100
1000
0010
,
0100
0001
1000
0100
1000
0001
1001
0000
,
2001
0000
3100
0000
1000
0010
0100
0001
,
0100
0010
1000
0100
1000
0001
0100
0000
,
2001
0000
3010
0000
1000
0100
0010
0100
,
1000
0001
0010
0001
0100
0010
0100
0001
,
1000
0100
0010
0001
0001
0010
0100
1000
,
1000
0100
0010
0100
1000
0100
0010
0100
,
1001
0000
0000
0100
1001
0000
0000
0100
,
1001
0000
0000
0100
1001
0001
0100
0001
,
1001
0000
0000
0010
1001
0000
0000
0010
,
1001
0000
0000
0010
1001
1000
0100
1000
,
1001
0000
0000
0100
1001
0000
0000
0100
,
1001
0000
0000
0100
1001
0100
0010
0100
,
1001
0000
0000
0010
1001
0000
0000
0010
,
1001
0000
0000
0010
1001
1000
0100
0010
,
1001
0000
0000
0100
1001
0000
0000
0100
,
1001
0000
0000
0100
1001
0001
0100
0001
,
1001
0000
0000
0010
1001
0000
0000
0010
,
1001
0000
0000
0010
1001
1000
0100
1000
,
1001
0000
0000
0100
1001
0000
0000
0100
,
1001
0000
0000
0100
1001
0100
0010
0100
,
1001
0000
0000
0010
1001
0000
0000
0010
,
1001
0000
0000
0010
1001
1000
0100
0010
,
0001
0000
0101
0000
0001
1000
0100
1000
,
0010
0000
0101
0000
0010
1000
0100
1000
,
0010
0000
1100
0000
0001
0100
0010
0100
,
0001
0000
1001
0000
0001
0010
0100
1000
,
0100
0000
1010
0000
0001
0010
0001
0010
,
0001
0000
0101
0000
0001
1000
0010
0100
,
0001
0000
0101
0000
0001
1000
0010
1000
,
0100
0010
0001
0010
0100
1000
0001
0100
,
1001
0000
0000
0000
;

//---------------dance-single - ----------------
#NOTES:
     dance-single:
     :
     Medium:
     11:
     0.475951,0.477808,0.641953,0.105638,0.000000,410.000000,331.000000,79.000000,13.000000,0.000000,0.000000,0.475951,0.477808,0.641953,0.105638,0.000000,410.000000,331.000000,79.000000,13.000000,0.000000,0.000000:
0000
0000
0000
0000
,
0000
0000
0000
0000
,
0000
0000
0000
0000
,
0000
0000
0000
0000
,
1000
0100
1000
1100
,
0001
0100
0001
0101
,
1000
0100
1000
1100
,
0001
0100
0001
0101
,
1000
1100
0001
0101
,
1000
1100
0001
0101
,
1000
0001
1000
0001
,
0100
0010
0100
0110
,
1002
0000
0103
0000
1000
0100
1000
0000
,
0100
1000
1000
1001
,
2001
0000
3100
0000
1000
0010
0100
0000
,
0100
1000
1000
0100
,
1002
0000
0013
0000
0001
0100
0010
0000
,
0100
0010
0001
0001
,
0001
0010
0100
0000
1000
0100
0010
0000
,
0001
0100
0001
0100
,
1002
0000
0103
0000
1000
0100
1000
0000
,
0100
1000
1000
1001
,
2001
0000
3100
0000
1000
0010
0100
0000
,
0100
1000
1000
0100
,
2001
0000
3010
0000
1000
0100
0010
0000
,
1000
0010
0100
0100
,
1000
0100
0010
0000
0001
0010
0100
0000
,
1000
0010
1000
0010
,
1001
0000
1001
0000
,
1001
0000
1001
0100
,
1001
0000
1001
0000
,
1001
0000
1001
0010
,
1001
0000
1001
0000
,
1001
0000
1001
0100
,
1001
0000
1001
0000
,
1001
0000
1001
0010
,
1001
0101
0001
0100
,
0010
0101
0010
0100
,
0010
1100
0001
0010
,
0001
1001
0001
0100
,
0100
1010
1000
0001
,
1000
0101
0001
0010
,
0001
0101
0001
0010
,
0100
1000
0100
0010
,
2001
0000
0100
0000
0001
0001
3001
0000
,
1002
0000
0100
0000
1000
1000
1003
0000
,
2001
0000
0010
0000
0001
0001
3001
0000
,
1002
0000
0010
0000
1000
1000
1003
0000
,
0100
1001
0100
1001
,
0010
1001
0010
1001
,
1000
0100
0010
0000
0001
0100
0010
0000
,
1000
0001
0100
0000
0001
1000
0100
0000
,
1002
0000
0103
0000
1000
0100
1000
0000
,
0100
1000
1000
1001
,
2001
0000
3100
0000
1000
0010
0100
0000
,
0100
1000
1000
0100
,
2001
0000
3010
0000
1000
0100
0010
0000
,
1000
0010
0100
0100
,
1000
0100
0010
0000
0001
0010
0100
0000
,
1000
0010
0001
0100
,
1001
0000
1001
0000
,
1001
0000
1001
0100
,
1001
0000
1001
0000
,
1001
0000
1001
0010
,
1001
0000
1001
0000
,
1001
0000
1001
0100
,
1001
0000
1001
0000
,
1001
0000
1001
0010
,
1001
0100
0001
0100
,
1001
0010
1000
0100
,
1001
0100
0001
0010
,
1001
0100
1000
0010
,
1001
1000
0100
0010
,
1001
0001
0010
0100
,
1001
1000
1001
0001
,
1001
0100
0100
0100
,
1001
0000
0001
0000
0001
1000
0100
0000
,
1000
0000
0001
0000
0010
0001
0100
0000
,
0010
0000
1000
0000
0001
0100
0010
0000
,
1000
0000
1000
0000
0001
0010
0100
0000
,
0100
0000
1000
0000
0001
0010
0001
0000
,
0001
0000
0100
0000
0001
1000
0010
0000
,
1000
0000
0100
0000
1000
0001
0010
0000
,
0001
0010
0001
0010
0100
1000
0100
1000
,
0100
0000
0000
0000
;

//---------------dance-single - ----------------
#NOTES:
     dance-single:
     :
     Easy:
     8:
     0.416747,0.477808,0.503811,0.089386,0.000000,359.000000,297.000000,62.000000,11.000000,0.000000,0.000000,0.416747,0.477808,0.503811,0.089386,0.000000,359.000000,297.000000,62.000000,11.000000,0.000000,0.000000:
0000
0000
0000
0000
,
0000
0000
0000
0000
,
0000
0000
0000
0000
,
0000
0000
0000
0000
,
1000
0100
1000
1100
,
0001
0100
0001
0101
,
1000
0100
1000
1100
,
0001
0100
0001
0101
,
1000
1100
0001
0101
,
1000
1100
0001
0101
,
1000
0001
1000
0001
,
0100
0010
0100
0110
,
1002
0103
1000
1000
,
0100
1000
1000
1001
,
2001
3100
0001
0100
,
0001
1000
1000
0100
,
1002
0013
0001
0010
,
0100
0010
0001
1000
,
0001
0100
1000
0010
,
0001
0001
0001
0001
,
1002
0103
1000
0001
,
0100
0001
1000
1001
,
2001
3100
1000
0100
,
0100
1000
0001
0100
,
1002
0013
0001
0010
,
0001
0010
0100
0100
,
1000
0010
0001
0100
,
1000
0010
0001
0100
,
1001
0000
0100
0000
,
1001
0000
0100
0100
,
1001
0000
0010
0000
,
1001
0000
0010
0010
,
1001
0000
0100
0000
,
1001
0000
0100
0100
,
1001
0000
0010
0000
,
1001
0000
0010
0010
,
1001
0101
0001
0100
,
0010
0101
0010
0100
,
0010
1100
0001
0010
,
0001
1001
0001
0100
,
0100
1010
1000
0001
,
1000
0101
0001
0010
,
0001
0101
0001
0010
,
0100
1000
0100
0010
,
2001
0001
0001
0001
,
0001
0001
0001
3001
,
1002
1000
1000
1000
,
1000
1000
1000
1003
,
0100
1001
0100
1001
,
0010
1001
0010
1001
,
1000
0100
0001
0010
,
1000
0100
0001
0010
,
1002
0103
1000
1000
,
0100
1000
1000
0001
,
1002
0103
0001
0100
,
0001
1000
0001
0001
,
2001
3010
1000
0010
,
1000
0010
0100
0001
,
1000
0010
0001
0100
,
1000
0010
0001
0100
,
1001
0000
0100
0000
,
1001
0000
0100
0100
,
1001
0000
0010
0000
,
1001
0000
0010
0010
,
1001
0000
0100
0000
,
1001
0000
0100
0100
,
1001
0000
0010
0000
,
1001
0000
0010
0010
,
1001
0100
0001
0100
,
1001
0010
1000
0100
,
1001
0100
0001
0010
,
1001
0100
1000
0010
,
1001
1000
0100
0010
,
1001
0001
0010
0100
,
1001
1000
1001
0001
,
1001
0100
0100
0100
,
1001
0001
1000
0100
,
1000
0001
0010
0001
,
0100
0001
1000
0010
,
1000
1000
0001
0100
,
0001
1000
0001
0001
,
0001
0100
0001
0010
,
0001
0100
0001
0010
,
1001
0100
0100
0100
,
1001
0000
0000
0000
;

//---------------dance-single - ----------------
#NOTES:
     dance-single:
     :
     Beginner:
     4:
     0.196185,0.238904,0.000000,0.000000,0.000000,169.000000,169.000000,0.000000,0.000000,0.000000,0.000000,0.196185,0.238904,0.000000,0.000000,0.000000,169.000000,169.000000,0.000000,0.000000,0.000000,0.000000:
// measure 0
0000
0000
0000
0000
,  // measure 1
0000
0000
0000
0000
,  // measure 2
0000
0000
0000
0000
,  // measure 3
0000
0000
0000
0000
,  // measure 4
1000
1000
0000
0000
,  // measure 5
1000
1000
0000
0000
,  // measure 6
0001
0001
0000
0000
,  // measure 7
0001
0001
0000
0000
,  // measure 8
0100
0100
0000
0000
,  // measure 9
0100
0100
0000
0000
,  // measure 10
0010
0010
0000
0000
,  // measure 11
0010
0010
0010
0000
,  // measure 12
1000
0000
1000
0000
,  // measure 13
0100
0000
1000
0000
,  // measure 14
0001
0000
0001
0000
,  // measure 15
0001
0000
1000
0000
,  // measure 16
1000
0000
0001
0000
,  // measure 17
0100
0000
0001
0000
,  // measure 18
0001
0000
1000
0000
,  // measure 19
0001
0001
0001
0000
,  // measure 20
1000
0000
1000
0000
,  // measure 21
0100
0000
1000
0000
,  // measure 22
0001
0000
1000
0000
,  // measure 23
0100
0000
0001
0000
,  // measure 24
1000
0000
0001
0000
,  // measure 25
0001
0000
0100
0000
,  // measure 26
1000
0000
0001
0000
,  // measure 27
1000
0000
0001
0000
,  // measure 28
1000
1000
0000
0000
,  // measure 29
1000
1000
0000
0000
,  // measure 30
0001
0001
0000
0000
,  // measure 31
0001
0001
0000
0000
,  // measure 32
0100
0100
0000
0000
,  // measure 33
0100
0100
0000
0000
,  // measure 34
0010
0010
0000
0000
,  // measure 35
0010
0010
0000
0000
,  // measure 36
1000
0000
0001
0000
,  // measure 37
1000
0000
0010
0000
,  // measure 38
0100
0000
0001
0000
,  // measure 39
1000
0000
0001
0000
,  // measure 40
0100
0000
1000
0000
,  // measure 41
1000
0000
0001
0000
,  // measure 42
0001
0000
0001
0000
,  // measure 43
1000
0000
1000
0000
,  // measure 44
0001
0001
0001
0000
,  // measure 45
0001
0001
0001
0000
,  // measure 46
1000
1000
1000
0000
,  // measure 47
1000
1000
1000
0000
,  // measure 48
0100
0000
0100
0000
,  // measure 49
0010
0000
0010
0000
,  // measure 50
1000
0000
0001
0000
,  // measure 51
1000
0000
0001
0000
,  // measure 52
1000
0000
1000
0000
,  // measure 53
0001
0000
0001
0000
,  // measure 54
1000
0000
1000
0000
,  // measure 55
0001
0000
0001
0000
,  // measure 56
1000
0000
1000
0000
,  // measure 57
0001
0000
0001
0000
,  // measure 58
1000
0000
0001
0000
,  // measure 59
1000
0000
0001
0000
,  // measure 60
1000
1000
0000
0000
,  // measure 61
1000
1000
0000
0000
,  // measure 62
0001
0001
0000
0000
,  // measure 63
0001
0001
0000
0000
,  // measure 64
0100
0100
0000
0000
,  // measure 65
0100
0100
0000
0000
,  // measure 66
0010
0010
0000
0000
,  // measure 67
0010
0010
0000
0000
,  // measure 68
1000
1000
0000
0000
,  // measure 69
0001
0001
0000
0000
,  // measure 70
0100
0100
0000
0000
,  // measure 71
0010
0010
0000
0000
,  // measure 72
1000
1000
0000
0000
,  // measure 73
0001
0001
0000
0000
,  // measure 74
0100
0100
0000
0000
,  // measure 75
0010
0010
0000
0000
,  // measure 76
0001
0000
1000
0000
,  // measure 77
1000
0000
0010
0000
,  // measure 78
0100
0000
0001
0000
,  // measure 79
1000
0000
0001
0000
,  // measure 80
0001
0000
1000
0000
,  // measure 81
0001
0000
0100
0000
,  // measure 82
0100
0000
0001
0000
,  // measure 83
1000
1000
1000
1000
,  // measure 84
1000
0000
0000
0000
;
