#VERSION:0.83;
#TITLE:Queen of Love;
#SUBTITLE:(Dance Version);
#ARTIST:WILDSIDE;
#TITLETRANSLIT:;
#SUBTITLETRANSLIT:;
#ARTISTTRANSLIT:;
#GENRE:;
#ORIGIN:;
#CREDIT:;
#BANNER:Queen of Love (Dance Version).png;
#BACKGROUND:Queen of Love (Dance Version)-bg.png;
#PREVIEWVID:;
#JACKET:Queen of Love (Dance Version)-jacket.png;
#CDIMAGE:;
#DISCIMAGE:;
#LYRICSPATH:;
#CDTITLE:;
#MUSIC:Queen Of Love (Dance Version).ogg;
#OFFSET:-0.100000;
#SAMPLESTART:68.410004;
#SAMPLELENGTH:12.000000;
#SELECTABLE:YES;
#BPMS:0.000=140.000;
#STOPS:;
#DELAYS:;
#WARPS:;
#TIMESIGNATURES:0.000=4=4;
#TICKCOUNTS:0.000=4;
#COMBOS:0.000=1;
#SPEEDS:0.000=1.000=0.000=0;
#SCROLLS:0.000=1.000;
#FAKES:;
#LABELS:0.000=Song Start;
#BGCHANGES:;
#KEYSOUNDS:;
#ATTACKS:
;

//---------------dance-single - ----------------
#NOTEDATA:;
#CHARTNAME:;
#STEPSTYPE:dance-single;
#DESCRIPTION:;
#CHARTSTYLE:;
#DIFFICULTY:Challenge;
#METER:13;
#RADARVALUES:0.592683,0.774439,0.194634,0.020488,0.343171,405.000000,386.000000,19.000000,2.000000,0.000000,0.000000,0.000000,0.000000,0.000000,0.592683,0.774439,0.194634,0.020488,0.343171,405.000000,386.000000,19.000000,2.000000,0.000000,0.000000,0.000000,0.000000,0.000000;
#CREDIT:;
#NOTES:
// measure 0
0000
0000
0000
0000
,  // measure 1
0000
0000
0000
0000
,  // measure 2
0000
0000
0000
0000
,  // measure 3
0000
0000
0000
0000
,  // measure 4
1000
0100
0000
0100
1000
0000
1000
0010
0000
0010
0100
0000
0100
0000
0001
0000
,  // measure 5
0010
0001
0000
0001
0100
0000
0100
0010
0000
0010
1000
0000
1000
0000
0010
0000
,  // measure 6
0100
0001
0000
0001
0010
0000
0010
0100
0000
0100
1000
0000
1000
0000
0010
0000
,  // measure 7
0100
0001
0000
0001
1000
0000
1000
0010
0000
0010
0100
0000
0100
0000
0001
0000
,  // measure 8
1000
0001
1000
0001
0100
0010
0100
0010
,  // measure 9
1000
0001
0100
0010
1000
0100
0010
0001
,  // measure 10
1000
0001
1000
0001
0100
0010
0100
0010
,  // measure 11
1000
0100
0010
0001
0010
0100
1000
0000
,  // measure 12
1001
0110
1001
0110
,  // measure 13
0001
1000
0001
1000
0001
1000
0001
0000
,  // measure 14
0110
1001
0110
1001
,  // measure 15
0100
0010
0100
0010
0100
0010
0100
0000
,  // measure 16
0001
0000
0001
0000
1000
0100
0010
0100
,  // measure 17
1000
0000
0000
1000
0000
0000
2000
0000
0000
0000
0000
0000
3000
0000
0000
0000
,  // measure 18
1000
0000
1000
0000
0010
1000
0010
0100
,  // measure 19
0001
0000
0000
0001
0000
0000
0002
0000
0000
0000
0000
0000
0003
0000
0000
0000
,  // measure 20
1000
0000
0000
1000
0100
0000
0000
0100
0010
0000
0000
0010
0001
0000
0000
0001
,  // measure 21
0100
0010
0100
0010
1000
0001
1000
0001
,  // measure 22
0100
0000
0001
0100
0001
0000
1000
0010
1000
0000
0100
0000
0010
0000
0100
0000
,  // measure 23
1000
0000
0010
0100
0010
0000
1000
0001
1000
0000
0100
0000
0010
0000
0100
0000
,  // measure 24
1000
0000
0110
0000
0001
0010
0100
0010
,  // measure 25
0001
0000
0000
0001
0000
0000
0001
0000
1000
0000
0001
0000
0100
0000
0010
0000
,  // measure 26
1000
0000
1000
0000
0100
1000
0100
1000
,  // measure 27
0010
0000
0000
0100
0000
0000
0001
0000
1000
0000
0001
0000
0100
0000
0000
0000
,  // measure 28
0001
0000
0000
0001
1000
0000
0000
1000
0010
0000
0000
0010
0100
0000
0000
0100
,  // measure 29
0001
1000
0010
0100
0001
1000
0010
0100
,  // measure 30
0001
0000
0100
0010
0100
0000
0010
1000
0010
0000
1000
0000
0100
0000
0010
0000
,  // measure 31
0100
0000
1000
0100
1000
0000
0010
1000
0010
0000
0100
0000
0001
0000
0100
0000
,  // measure 32
0001
0000
0001
0000
1000
0010
0100
0010
,  // measure 33
1000
0000
0000
1000
0000
0000
1000
0000
0100
0000
0010
0000
0001
0000
0000
0000
,  // measure 34
1000
0000
1000
0000
0010
0100
0010
1000
,  // measure 35
0001
0000
0000
0001
0000
0000
0001
0000
0100
0000
0010
0000
0100
0000
0000
0000
,  // measure 36
0100
0000
0000
0100
0010
0000
0000
0010
1000
0000
0000
1000
0100
0000
0000
0100
,  // measure 37
0010
0001
0010
0001
1000
0100
1000
0100
,  // measure 38
1000
0000
0100
1000
0100
0000
1000
0010
1000
0000
0010
0000
0100
0000
0001
0000
,  // measure 39
0001
0100
0001
0100
0010
1000
0010
1000
0001
1000
0001
1000
0010
1000
0010
0000
,  // measure 40
1100
0000
0000
1000
0101
0000
0000
0001
,  // measure 41
1100
0000
0000
1000
0010
0100
0001
0010
,  // measure 42
0001
0000
0000
0001
1100
0000
0000
1000
,  // measure 43
0101
0000
0000
0001
0010
0100
1000
0100
,  // measure 44
0010
0000
0000
0010
1100
0000
0000
1000
,  // measure 45
1001
0000
0000
0001
0100
0010
0100
0001
,  // measure 46
1000
0000
0000
0001
0101
0000
0000
0010
,  // measure 47
1010
0000
0000
1000
0100
0010
0100
1000
,  // measure 48
1000
0100
0000
0100
1000
0000
1000
0010
0000
0010
0100
0000
0100
0000
0001
0000
,  // measure 49
0010
0001
0000
0001
0100
0000
0100
0010
0000
0010
1000
0000
1000
0000
0010
0000
,  // measure 50
0100
0001
0000
0001
0010
0000
0010
0100
0000
0100
1000
0000
1000
0000
0010
0000
,  // measure 51
0100
0001
0000
0001
1000
0000
1000
0010
0000
0010
0100
0000
0100
0000
0001
0000
,  // measure 52
1000
0001
1000
0001
0100
0010
0100
0010
,  // measure 53
1000
0001
0100
0010
1000
0100
0010
0001
,  // measure 54
1000
0001
1000
0001
0100
0010
0100
0010
,  // measure 55
1000
0100
0010
0001
0010
0100
1000
0001
,  // measure 56
1001
0000
0000
0000
;
