#VERSION:0.83;
#TITLE:QQQ;
#SUBTITLE:;
#ARTIST:TaQ;
#TITLETRANSLIT:;
#SUBTITLETRANSLIT:;
#ARTISTTRANSLIT:;
#GENRE:Techno;
#ORIGIN:;
#CREDIT:;
#BANNER:;
#BACKGROUND:QQQ-bg.png;
#PREVIEWVID:;
#JACKET:;
#CDIMAGE:;
#DISCIMAGE:;
#LYRICSPATH:;
#CDTITLE:;
#MUSIC:QQQ.ogg;
#OFFSET:-0.955274;
#SAMPLESTART:62.893120;
#SAMPLELENGTH:12.000000;
#SELECTABLE:YES;
#BPMS:0.000=155.000;
#STOPS:256.000=0.194;
#DELAYS:;
#WARPS:;
#TIMESIGNATURES:0.000=4=4;
#TICKCOUNTS:0.000=4;
#COMBOS:0.000=1;
#SPEEDS:0.000=1.000=0.000=0;
#SCROLLS:0.000=1.000;
#FAKES:;
#LABELS:0.000=Song Start;
#BGCHANGES:;
#KEYSOUNDS:;
#ATTACKS:
;

//---------------dance-single - ----------------
#NOTEDATA:;
#CHARTNAME:;
#STEPSTYPE:dance-single;
#DESCRIPTION:;
#CHARTSTYLE:;
#DIFFICULTY:Hard;
#METER:13;
#RADARVALUES:0.645519,0.690144,0.513884,0.248082,0.141761,510.000000,452.000000,58.000000,28.000000,0.000000,0.000000,0.000000,0.000000,0.000000,0.645519,0.690144,0.513884,0.248082,0.141761,510.000000,452.000000,58.000000,28.000000,0.000000,0.000000,0.000000,0.000000,0.000000;
#CREDIT:;
#NOTES:
0000
0000
0000
0000
,
0000
0000
0000
0000
,
0000
0000
0000
0000
,
0000
0000
0000
0000
0000
0010
1000
0100
,
1000
0001
0001
0010
0100
0010
0001
1000
,
0010
1000
0100
0000
0100
0010
0001
0100
,
0001
1000
1000
0010
0100
0010
1000
0001
,
0010
0001
0100
1001
0000
0010
1000
0100
,
1000
0010
0100
0110
0000
0001
0100
1000
,
0100
0001
1000
1100
0000
0010
0001
0100
,
0001
1000
0010
0110
0000
1000
0100
0001
,
0100
1000
0001
0101
0000
0001
0100
1000
,
0100
0001
1000
1010
0000
1000
0100
0001
,
0100
1000
0001
0011
0000
1000
0010
0100
,
1000
0100
0001
1001
0000
0001
0010
0100
,
0001
0000
0100
0000
1000
0000
1001
0000
0000
0000
0110
0000
0010
0000
0220
0330
,
0000
0000
0000
0000
1001
0000
0000
0001
1000
0000
0100
0000
1000
0000
0001
0000
,
0010
0000
0000
0000
1001
0000
0000
1000
0001
0000
0100
0000
0001
0000
2000
3000
,
0010
0000
0000
0000
0101
0000
0000
0010
1000
0000
0100
0000
0010
0000
0001
0000
,
0100
0000
0000
0000
1100
0000
0000
0010
0001
0000
0100
0000
0010
0000
2000
3000
,
0100
0000
0000
0000
1001
0000
0000
0010
0001
0000
0010
0000
1000
0000
0100
0000
,
0010
0000
0000
0000
1001
0000
0000
0010
1000
0000
0010
0000
0001
0000
0200
0300
,
0010
0000
0000
0000
1100
0000
0000
0010
0001
0000
0100
0000
1000
0000
0100
0000
,
0001
0000
0101
0000
0000
0000
1100
0000
0000
0000
1010
0000
0100
0000
2002
3003
,
0000
0000
1001
0010
0001
0100
0001
0100
,
0001
0000
1000
0000
0001
0000
1000
0000
0010
0000
0100
0000
0010
0000
0200
0300
,
0001
0010
0001
0010
0100
1000
0100
1000
,
0100
0000
0001
0000
0100
0000
0001
0000
0100
0000
1000
0000
0100
0000
2000
3000
,
0100
0000
1001
0010
1000
0100
1000
0100
,
1000
0000
0001
0000
1000
0000
0001
0000
0010
0000
0100
0000
0010
0000
0200
0300
,
1000
0010
1000
0010
0100
0001
0100
0001
,
0100
0000
1100
0000
0000
0000
1100
0000
0000
0000
0101
0000
0010
0000
2002
3003
,
0000
0000
0101
0000
0000
0000
0000
1000
,
0000
0000
1001
0000
0000
0000
0000
0001
,
0000
0000
1100
0000
0000
0000
0000
0010
,
0000
0000
1001
0000
0000
0000
0000
0010
,
0000
0000
0000
0000
0001
0000
0100
0001
0000
0000
0000
0000
0000
0000
1000
0000
,
0000
0000
0000
0000
0100
0000
0010
0100
0000
0000
0000
0000
0000
0000
1000
0000
,
0000
0000
0000
0000
0010
0000
0100
0010
0000
0000
0000
0000
0000
0000
0101
0000
,
0000
0000
0000
0000
0000
0000
0000
1000
,
1001
0010
0001
0100
0010
2000
0100
3001
,
0010
0100
0010
0001
0100
0020
1000
0130
,
0001
1000
0100
0010
0001
0020
0100
0031
,
1000
0100
0010
0001
0100
0020
1000
0130
,
0001
1000
0100
0010
0001
2000
0100
3001
,
0010
0100
1000
0010
0100
0002
0100
1003
,
0010
0100
0010
1000
0100
0020
0001
0130
,
0010
0001
1000
0100
0010
0001
0200
0010
,
0300
0000
0101
0100
0010
1000
0001
1000
,
0000
0000
1100
0100
0010
0001
1000
0010
,
0000
0000
1010
1000
0100
1000
0001
0010
,
0000
0000
0011
0001
0100
0001
1000
0010
,
0000
0000
0100
0100
0100
0100
0100
0100
,
0000
0000
0010
0010
0010
0010
0010
0010
,
0000
0000
0000
0000
1000
0100
1000
0100
1000
0100
1000
0100
1000
0100
1000
0000
,
0000
0000
0001
0000
0000
0010
0000
0000
0100
0000
0000
0000
1001
0000
0000
0000
,
0110
0001
0100
0010
0110
1000
0100
0010
,
0110
0001
1000
0100
0110
1000
0001
0100
,
0110
0001
0100
0010
0110
1000
0100
0010
,
0110
1000
0001
0100
0110
0001
0100
1000
,
0110
0001
1000
0100
0011
0100
0010
1000
,
0101
0010
0100
0001
1010
0100
1000
0001
,
0000
1000
0000
0100
0000
0001
0000
0100
0000
1000
0000
0001
0000
0010
0000
0100
,
0000
1000
0000
0001
0000
0010
0000
0100
0000
0010
0000
0001
0000
1000
0000
0100
,
0010
0000
1001
0000
0001
0000
0100
0000
0001
0000
1000
0000
0020
0030
0100
0000
,
0000
0000
1001
0000
1000
0000
0100
0000
1000
0000
0001
0000
0020
0030
0100
0000
,
0000
0000
0011
0000
1000
0000
0100
0000
1000
0000
0001
0000
0020
0030
1000
0000
,
0000
0000
1010
0000
0001
0000
0100
0000
0001
0000
1000
0000
0020
0030
0001
0000
,
0000
0110
0000
1001
0001
1000
0001
1000
,
0020
0030
1000
0000
0010
0000
0100
0000
0001
0000
0100
0000
0002
0003
0100
0000
,
0010
0000
0100
0000
0010
0000
1000
0000
0100
0000
0010
0000
2002
3003
0000
0000
;

//---------------dance-single - ----------------
#NOTEDATA:;
#CHARTNAME:;
#STEPSTYPE:dance-single;
#DESCRIPTION:;
#CHARTSTYLE:;
#DIFFICULTY:Medium;
#METER:10;
#RADARVALUES:0.427815,0.439570,0.318962,0.248082,0.000000,338.000000,302.000000,36.000000,28.000000,0.000000,0.000000,0.000000,0.000000,0.000000,0.427815,0.439570,0.318962,0.248082,0.000000,338.000000,302.000000,36.000000,28.000000,0.000000,0.000000,0.000000,0.000000,0.000000;
#CREDIT:;
#NOTES:
0000
0000
0000
0000
,
0000
0000
0000
0000
,
0000
0000
0000
0000
,
0000
0000
0000
0000
0000
0001
0100
0001
,
1000
0010
0001
0100
,
1000
0000
0100
0000
0001
0010
0100
1000
,
0001
0010
0001
0100
,
1000
0000
0010
0000
1000
0100
0010
0001
,
1000
0100
0001
0011
,
0100
0000
1000
0000
0001
0100
0010
1000
,
0001
0100
1000
1010
,
0100
0000
0001
0000
0010
0100
1000
0010
,
0100
1000
0010
1001
,
1000
0000
0100
0000
0001
0010
0100
1000
,
0001
0010
0100
1001
,
0100
0000
0010
0000
1000
0100
1000
2002
,
3003
0101
1000
0101
,
0001
0000
1100
0000
0001
0000
1100
0200
,
0300
0011
0100
0011
,
0100
0000
1010
0000
0100
0000
1010
2000
,
3000
0101
0001
0011
,
0100
0000
1100
0000
0001
0000
1001
2000
,
3000
0000
1010
0000
0100
0000
0101
0001
,
0000
0010
0000
1000
0000
0100
0010
0020
,
0030
0000
1000
0100
1000
0000
1000
0001
,
1000
0000
0001
0100
0001
0000
0001
2000
,
3001
0000
0010
0100
0010
0000
0001
1000
,
0001
0000
0100
0010
1000
0000
0100
0020
,
0031
0000
1000
0100
0001
0000
0001
0100
,
1000
0000
0001
0100
1000
0000
1000
0200
,
0301
0000
1000
0010
0100
0000
0100
0001
,
0000
0010
0000
1000
0000
0100
1000
0002
,
0003
1000
0000
0000
,
0000
0001
0000
0000
,
0000
0010
0000
0000
,
0000
0100
0000
0000
,
0000
0000
1000
1000
0000
0000
0000
0000
,
0000
0000
0001
0001
0000
0000
0000
0000
,
0000
0000
0000
0100
0000
0000
0000
0110
,
0000
0000
0000
0000
0000
0000
0000
0002
,
0013
0001
0100
0000
1000
0010
0100
0000
,
0001
1000
0010
0000
1000
0100
0001
0200
,
1300
0001
0100
0000
0010
1000
0001
0000
,
0100
0001
0010
0000
0100
1000
0100
0020
,
0031
0100
0001
0000
1000
0100
1000
0000
,
1000
0010
1000
0000
0001
0100
0010
2000
,
3001
0100
0010
0000
0100
0001
0010
0000
,
0100
1000
0000
0010
0000
0001
0100
0002
,
0003
0000
1000
0000
0100
0000
0010
0002
,
0003
0000
0100
0000
0010
0000
1000
0002
,
0003
0000
0100
0000
0001
0000
0010
0002
,
0003
0000
1000
0000
0100
0000
0010
0200
,
0300
0000
1000
0000
0001
0000
1000
0020
,
0030
0000
0100
0000
0001
0000
0010
0200
,
0300
0000
1000
0100
1000
0000
1000
0001
,
1000
0010
0001
0100
,
1001
0001
0101
1000
,
1100
0001
0011
1000
,
1010
0010
0110
0100
,
0101
0001
0011
0010
,
0110
0001
1001
1000
,
1100
0010
0110
1000
,
0000
0001
0000
1000
0000
0001
0000
1000
,
0000
0001
0000
1000
0000
0001
0000
1000
,
0100
0010
0000
0010
0000
0001
2000
3001
,
0000
1000
0000
1000
0000
0010
0200
0300
,
0000
1000
0000
1000
0000
0010
2000
3010
,
0000
0100
0000
0100
0000
0001
2000
3000
,
0000
1001
0000
0001
0000
0101
0000
1000
,
0200
1300
0000
0011
0000
0001
0200
1300
,
0000
0100
0000
0010
0000
1001
0200
0300
;

//---------------dance-single - ----------------
#NOTEDATA:;
#CHARTNAME:;
#STEPSTYPE:dance-single;
#DESCRIPTION:;
#CHARTSTYLE:;
#DIFFICULTY:Easy;
#METER:6;
#RADARVALUES:0.324025,0.376110,0.168341,0.053160,0.000000,256.000000,237.000000,19.000000,6.000000,0.000000,0.000000,0.000000,0.000000,0.000000,0.324025,0.376110,0.168341,0.053160,0.000000,256.000000,237.000000,19.000000,6.000000,0.000000,0.000000,0.000000,0.000000,0.000000;
#CREDIT:;
#NOTES:
0000
0000
0000
0000
,
0000
0000
0000
0000
,
0000
0000
0000
0000
,
0000
0000
0000
0010
,
0010
1000
0100
1000
,
0010
0100
0001
0010
,
0010
0100
0010
0001
,
1000
0100
0010
0010
,
0100
1000
1001
0001
,
0100
0010
1000
0001
,
1000
0010
1010
0010
,
0100
0001
0010
0010
,
0100
1000
1001
1000
,
0100
0010
0001
0001
,
0100
0010
1010
0100
,
1000
0010
0100
0002
,
0003
1000
0100
1100
,
0000
0001
0100
0101
,
0000
1000
0010
1010
,
0000
0001
0010
0011
,
0000
0100
1000
1001
,
0000
0100
0001
1001
,
0000
1000
0010
0100
,
0001
0001
1000
1000
,
0100
0010
0100
0010
,
0001
1000
0001
1000
,
0010
0100
0010
0100
,
0001
1000
0001
1000
,
0100
0010
0001
0101
,
1000
0010
0100
1010
,
0100
1000
0001
0011
,
0100
1000
0001
0100
,
0020
0000
0000
0030
0000
0000
0000
0000
,
0200
0000
0000
0300
0000
0000
0000
0000
,
2000
0000
0000
3000
0000
0000
0000
0000
,
0002
0000
0000
0003
0000
0000
0000
0000
,
0010
0000
0000
0000
,
1000
0000
0000
0000
,
0100
0000
0000
0000
,
0001
0000
0000
0000
,
1000
1000
1000
1000
,
1000
1000
1000
1000
,
1000
1000
1000
1000
,
1000
1000
1000
1000
,
1000
1000
1000
1000
,
1000
1000
1000
1000
,
1000
1000
1000
1000
,
0001
0100
0010
1000
,
0100
0100
0010
0001
,
1000
1000
0010
0100
,
0001
0001
0010
0100
,
1000
1000
0010
0100
,
0101
0001
0010
0110
,
1000
0010
0100
0110
,
0001
1000
0100
1100
,
1000
0001
0100
0101
,
1000
0010
1000
0010
,
0001
0100
0001
0100
,
1000
0100
1000
0100
,
0001
0010
0001
0010
,
1000
0100
0010
0001
,
0100
0010
1000
0100
,
0000
0010
0000
0001
0000
1000
0000
0100
,
0000
1000
0000
0001
0000
0100
0000
0010
,
0000
1000
0000
1000
0000
1000
0000
1000
,
0000
0001
0000
0001
0000
0001
0000
0001
,
0000
0010
0000
0010
0000
0010
0000
0010
,
0000
0100
0000
0100
0000
0100
0000
1001
,
0000
0100
0000
0010
0000
1000
0000
0100
,
0000
0010
0000
0001
0000
1000
0000
0100
,
0000
1000
0000
0001
0000
0020
0030
0000
;

//---------------dance-single - ----------------
#NOTEDATA:;
#CHARTNAME:;
#STEPSTYPE:dance-single;
#DESCRIPTION:;
#CHARTSTYLE:;
#DIFFICULTY:Beginner;
#METER:3;
#RADARVALUES:0.153153,0.282581,0.150621,0.000000,0.000000,121.000000,104.000000,17.000000,0.000000,0.000000,0.000000,0.000000,0.000000,0.000000,0.153153,0.282581,0.150621,0.000000,0.000000,121.000000,104.000000,17.000000,0.000000,0.000000,0.000000,0.000000,0.000000,0.000000;
#CREDIT:;
#NOTES:
0000
0000
0000
0000
,
0000
0000
0000
0000
,
0000
0000
0000
0000
,
0000
0000
0000
0000
,
0001
0000
0000
0000
,
0001
0000
0000
0000
,
1000
0000
0000
0000
,
1000
0000
0000
0000
,
0110
0000
0000
0000
,
0100
0000
0000
0000
,
1001
0000
0000
0000
,
0100
0000
0000
0000
,
0110
0000
0000
0000
,
0010
0000
0000
0000
,
1001
0000
0000
0000
,
0100
0000
0000
0000
,
0000
0010
0000
0010
,
0000
0001
0000
0001
,
0000
1000
0000
1000
,
0000
0010
0000
0010
,
0000
0100
0000
0100
,
0000
0001
0000
0001
,
0000
1000
0000
1000
,
0000
0100
0000
0000
,
0000
0010
0000
0010
,
0000
0100
0000
0100
,
0000
1000
0000
1000
,
0000
0001
0000
0001
,
0000
0100
0000
0100
,
0000
0010
0000
0010
,
0000
1000
0000
0001
,
0000
0000
0000
0000
,
1001
0000
0000
0000
,
0100
0000
0000
0000
,
0010
0000
0000
0000
,
0001
0000
0000
0000
,
1000
0000
0000
0000
,
0000
0000
0000
0000
,
0000
0000
0000
0000
,
0000
0000
0000
0000
,
0010
0000
0010
0000
,
0010
0000
0010
0000
,
0100
0000
0100
0000
,
0100
0000
0100
0000
,
0001
0000
0001
0000
,
0001
0000
0001
0000
,
1000
0000
1000
0000
,
1000
0000
0010
0000
,
0100
0000
1001
0000
,
0100
0000
1001
0000
,
0010
0000
1001
0000
,
0100
0000
1001
0000
,
0001
0000
0001
0000
,
0010
0000
0010
0000
,
0100
0000
0100
0000
,
1000
0000
1000
0000
,
1001
0000
0110
0000
,
1001
0000
0110
0000
,
1000
0000
0100
0000
,
0001
0000
0010
0000
,
0110
0000
1001
0000
,
0110
0000
1001
0000
,
0000
0000
0000
0000
,
0000
0000
0000
0000
,
0000
0100
0000
0000
0000
0100
0000
0000
,
0000
0010
0000
0000
0000
0010
0000
0000
,
0000
1000
0000
0000
0000
0100
0000
0000
,
0000
0010
0000
0000
0000
0000
0000
0001
,
0000
0000
0000
1000
0000
0000
0000
0001
,
0000
0000
0000
0100
0000
0000
0000
0010
,
0000
0000
0000
1000
0000
0000
0000
0100
;
