#VERSION:0.83;
#TITLE:Power of a Woman;
#SUBTITLE:(Fathers Of Sound Vocal Mix);
#ARTIST:eternal;
#TITLETRANSLIT:;
#SUBTITLETRANSLIT:;
#ARTISTTRANSLIT:;
#GENRE:;
#ORIGIN:;
#CREDIT:;
#BANNER:;
#BACKGROUND:DDR CD-bg.JPG;
#PREVIEWVID:;
#JACKET:Power of a Woman-jacket.JPG;
#CDIMAGE:;
#DISCIMAGE:;
#LYRICSPATH:;
#CDTITLE:;
#MUSIC:11_-_Eternal_-_Power_of_a_Woman_remix.ogg;
#OFFSET:-3.620000;
#SAMPLESTART:84.219856;
#SAMPLELENGTH:14.999995;
#SELECTABLE:YES;
#BPMS:0.000=125.000;
#STOPS:;
#DELAYS:;
#WARPS:;
#TIMESIGNATURES:0.000=4=4;
#TICKCOUNTS:0.000=4;
#COMBOS:0.000=1;
#SPEEDS:0.000=1.000=0.000=0;
#SCROLLS:0.000=1.000;
#FAKES:;
#LABELS:0.000=Song Start;
#BGCHANGES:;
#KEYSOUNDS:;
#ATTACKS:
;

//---------------dance-single - ----------------
#NOTEDATA:;
#CHARTNAME:;
#STEPSTYPE:dance-single;
#DESCRIPTION:;
#CHARTSTYLE:;
#DIFFICULTY:Hard;
#METER:11;
#RADARVALUES:0.440269,0.438350,0.151155,0.159553,0.000000,367.000000,349.000000,18.000000,19.000000,0.000000,0.000000,0.000000,0.000000,0.000000,0.440269,0.438350,0.151155,0.159553,0.000000,367.000000,349.000000,18.000000,19.000000,0.000000,0.000000,0.000000,0.000000,0.000000;
#CREDIT:;
#NOTES:
0000
0000
0000
0000
,
0000
0000
0000
0000
,
2002
0000
3000
0200
0000
0300
1003
0100
,
2000
0000
0002
0000
0000
0000
3003
0001
,
0100
0001
0100
0001
0200
0000
0000
0301
,
1000
0100
1000
0100
2000
0000
3000
0010
,
0201
0000
0000
0320
0000
0000
1030
0100
,
2000
0000
3002
0000
0000
0000
0003
0100
,
0010
0100
0001
0100
0020
0000
0000
1030
,
0001
0100
0010
0100
0002
0000
0000
0003
,
1000
0100
1000
0010
1000
0100
1000
0010
,
0100
0001
0100
0010
0100
0001
0100
0010
,
0100
0001
0010
0001
0010
0100
0010
0100
,
0010
0001
0010
0001
0010
0100
0010
0100
,
0010
0001
1000
0010
1000
0010
0100
0001
,
0100
0001
1000
0100
1000
0001
0100
0001
,
1000
0100
0001
0100
1000
0100
0001
0100
,
1000
0010
0001
0010
1000
0010
0001
0010
,
1000
0000
1100
0000
1000
0010
0100
0001
,
0100
0000
0101
0000
0001
0010
0001
0100
,
0001
0000
1001
0000
1000
0010
0100
0010
,
1000
0000
1100
0000
1000
0010
0100
0001
,
0100
0000
0110
0000
0100
0010
0100
0001
,
1000
0000
1001
0000
1000
0100
1000
0010
,
0100
0000
0101
0000
0001
0010
0001
0100
,
0001
0000
0011
0000
0001
0010
0100
1000
,
0200
1000
0010
0001
,
0010
1000
0010
0310
,
0020
0001
0100
1000
,
0100
0001
0100
0130
,
0200
1000
1000
0001
,
0001
1000
1000
0310
,
0020
0100
0100
0001
,
1000
0001
0100
0130
,
1001
0100
0001
0100
0010
0100
0001
0100
,
0010
1000
0010
0100
0010
1000
0001
1000
,
0001
0100
0010
1000
0100
1000
0001
0100
,
0001
0100
0010
0100
0010
1000
0100
1000
,
0001
0100
0001
0100
0010
0100
0001
0100
,
0010
1000
0100
1000
0001
1000
0100
1000
,
1000
0100
0010
0001
0001
0010
0100
1000
,
1000
0001
0100
2002
0000
0000
3003
0100
,
1001
0000
0100
0001
0000
0100
0001
0100
,
0010
1000
0010
1000
0100
1000
0100
1000
,
0000
1000
0001
0100
0001
0100
0010
0010
,
0000
1000
0010
0100
0001
0100
0001
1000
,
0100
0000
1000
0100
0000
1000
0100
1000
,
0010
0100
0001
0100
0010
1000
0100
1000
,
0000
1000
0001
0100
0001
0100
0010
1000
,
0000
0100
0010
0001
0100
0010
1000
0100
,
1000
0000
1001
0000
1000
0001
1000
0000
,
0001
0000
1001
0000
0001
1000
0001
0000
,
1000
0100
0010
0001
0001
0010
0100
1000
,
1000
0100
0010
0001
0001
0010
0100
1000
,
1000
0101
0010
0100
,
0001
1100
0100
0010
,
1000
0001
0100
0010
0010
0100
0001
1000
,
1000
0001
0100
0010
0010
0100
0001
1000
,
1001
0000
0000
0000
;

//---------------dance-single - ----------------
#NOTEDATA:;
#CHARTNAME:;
#STEPSTYPE:dance-single;
#DESCRIPTION:;
#CHARTSTYLE:;
#DIFFICULTY:Medium;
#METER:7;
#RADARVALUES:0.301111,0.340939,0.277118,0.134360,0.000000,251.000000,218.000000,33.000000,16.000000,0.000000,0.000000,0.000000,0.000000,0.000000,0.301111,0.340939,0.277118,0.134360,0.000000,251.000000,218.000000,33.000000,16.000000,0.000000,0.000000,0.000000,0.000000,0.000000;
#CREDIT:;
#NOTES:
0000
0000
0000
0000
,
0000
0000
0000
0000
,
1002
0000
0100
0100
,
1000
2000
0000
3003
,
2001
0010
0001
0001
,
0001
0010
0001
3001
,
1002
0000
0010
0000
,
1000
0200
0000
0303
,
2001
0010
0002
0003
,
0010
0001
0020
3030
,
1001
0000
0100
0000
0001
0100
0001
0000
,
0100
0001
0100
0000
0010
0000
1000
0000
,
0100
1000
0010
0100
,
0001
0100
0010
1000
,
1001
0000
0001
0000
1000
0100
1000
0000
,
0010
0100
0001
0000
0100
0000
0001
0000
,
1000
0100
1000
0010
,
0100
0010
0100
0010
0100
0010
0100
0000
,
2002
0000
0000
3000
,
0100
0100
0100
0103
,
1000
1001
1000
1001
,
0001
1001
0001
1001
,
2002
0000
0000
0003
,
0100
0100
0100
3100
,
0110
0001
0110
1000
,
0110
0001
0110
1000
,
1001
0100
0000
0100
,
0000
0100
0000
0100
,
0000
0010
0000
0010
,
0000
0010
0000
0010
,
1001
0100
0010
0100
,
0010
0100
0010
0100
,
1001
0010
0100
0010
,
0100
0010
0100
0010
,
1001
0000
1000
0000
0100
0000
1000
1000
,
1000
0000
0001
0000
0100
0000
0001
0001
,
0001
0000
0100
0000
0010
0000
1000
1000
,
1000
0000
0100
0000
0010
0000
0001
0001
,
0001
1000
0100
0001
,
0010
1000
0100
0001
,
0010
1000
1000
0100
,
1000
0001
1000
0001
0100
0001
0100
0000
,
1001
0000
0100
0000
0001
0100
0001
0000
,
0100
0001
0100
0000
0010
0000
1000
0000
,
0100
1000
0010
0100
,
0001
0100
0010
1000
,
1001
0000
0001
0000
1000
0100
1000
0000
,
0010
0100
0001
0000
0100
0000
0001
0000
,
1000
0100
1000
0010
,
0100
0010
0100
0010
0100
0010
0100
0000
,
2002
0000
0000
3000
,
0100
0100
0100
0103
,
1000
1001
1000
1001
,
0001
1001
0001
1001
,
2002
0000
0000
0003
,
0100
0100
0100
3100
,
0110
0001
0110
1000
,
0110
0001
0110
1000
,
1001
0000
0000
0000
;

//---------------dance-single - ----------------
#NOTEDATA:;
#CHARTNAME:;
#STEPSTYPE:dance-single;
#DESCRIPTION:;
#CHARTSTYLE:;
#DIFFICULTY:Easy;
#METER:4;
#RADARVALUES:0.232731,0.267880,0.117565,0.151155,0.000000,194.000000,180.000000,14.000000,18.000000,0.000000,0.000000,0.000000,0.000000,0.000000,0.232731,0.267880,0.117565,0.151155,0.000000,194.000000,180.000000,14.000000,18.000000,0.000000,0.000000,0.000000,0.000000,0.000000;
#CREDIT:;
#NOTES:
0000
0000
0000
0000
,
0000
0000
0000
0000
,
2000
0000
0000
3000
,
0002
0000
0000
0003
,
0100
0100
0100
0000
,
0010
0010
0010
0000
,
0200
0000
0000
0300
,
0020
0000
0000
0030
,
1000
1000
1000
0000
,
0001
0001
0001
0000
,
1001
0100
0001
0100
,
0010
1000
0100
1000
,
0001
0100
0001
0100
,
0010
1000
0100
0010
,
0001
0100
0010
1000
,
0100
0010
0001
0100
,
0010
1000
1000
1000
,
0001
0001
0001
0100
,
1001
0000
0100
0000
,
0010
1000
0100
0001
,
0010
0010
0010
0010
,
0100
0001
0100
1000
,
1001
0000
0000
0000
,
0100
0100
0100
0100
,
0100
0001
0010
1000
,
0100
0100
0010
0010
,
2002
0000
0000
3003
,
0220
0000
0000
0330
,
2002
0000
0000
3003
,
0220
0000
0000
0330
,
1001
1000
1000
1000
,
1000
1000
1000
1000
,
1001
0001
0001
0001
,
0100
0010
0100
0010
,
1000
0100
1000
1000
,
0002
0003
0200
0300
,
0010
1000
0010
1000
,
0020
0030
2000
3000
,
0001
0100
0010
1000
,
1000
0100
0010
0001
,
0001
0010
0100
1000
,
2002
0000
0000
3003
,
1001
0100
0001
0100
,
0010
1000
0100
1000
,
0001
0100
0001
0100
,
0010
1000
0100
0010
,
0001
0100
0010
1000
,
0100
0010
0001
0100
,
0010
1000
1000
1000
,
0001
0001
0001
0100
,
1001
0000
0100
0000
,
0010
1000
0100
0001
,
0010
0010
0010
0010
,
0100
0001
0100
1000
,
1001
0000
0000
0000
,
0100
0100
0100
0100
,
0100
0001
0010
1000
,
0100
0100
0010
0010
,
1001
0000
0000
0000
;

//---------------dance-single - ----------------
#NOTEDATA:;
#CHARTNAME:;
#STEPSTYPE:dance-single;
#DESCRIPTION:;
#CHARTSTYLE:;
#DIFFICULTY:Beginner;
#METER:2;
#RADARVALUES:0.130761,0.170469,0.033590,0.109168,0.000000,109.000000,105.000000,4.000000,13.000000,0.000000,0.000000,0.000000,0.000000,0.000000,0.130761,0.170469,0.033590,0.109168,0.000000,109.000000,105.000000,4.000000,13.000000,0.000000,0.000000,0.000000,0.000000,0.000000;
#CREDIT:;
#NOTES:
// measure 0
0000
0000
0000
0000
,  // measure 1
0000
0000
0000
0000
,  // measure 2
2000
0000
3000
0000
,  // measure 3
0002
0000
0003
0000
,  // measure 4
0200
0000
0300
0000
,  // measure 5
0020
0000
0030
0000
,  // measure 6
0200
0000
0300
0000
,  // measure 7
0020
0000
0030
0000
,  // measure 8
2000
0000
3000
0000
,  // measure 9
0002
0000
0003
0000
,  // measure 10
1001
0000
0001
0000
,  // measure 11
0010
0000
0100
0000
,  // measure 12
0001
0000
0001
0000
,  // measure 13
0010
0000
0100
0000
,  // measure 14
0001
0000
0010
0000
,  // measure 15
0100
0000
0001
0000
,  // measure 16
0010
0000
1000
0000
,  // measure 17
0001
0000
0001
0000
,  // measure 18
1001
0000
0100
0000
,  // measure 19
0010
0000
0100
0000
,  // measure 20
0010
0010
0010
0000
,  // measure 21
0100
0000
0100
0000
,  // measure 22
1001
0000
0000
0000
,  // measure 23
0100
0100
0100
0000
,  // measure 24
0100
0000
0010
0000
,  // measure 25
0100
0100
0000
0000
,  // measure 26
2000
0000
3000
0000
,  // measure 27
0200
0000
0300
0000
,  // measure 28
0002
0000
0003
0000
,  // measure 29
0020
0000
0030
0000
,  // measure 30
1000
1000
1000
0000
,  // measure 31
1000
1000
1000
0000
,  // measure 32
0001
0001
0001
0000
,  // measure 33
0001
0001
0001
0000
,  // measure 34
1000
0000
1000
0000
,  // measure 35
0001
0000
0100
0000
,  // measure 36
0010
0000
0010
0000
,  // measure 37
0010
0000
1000
0000
,  // measure 38
0001
0000
0010
0000
,  // measure 39
1000
0000
0010
0000
,  // measure 40
0001
0000
0100
0000
,  // measure 41
0200
0000
0300
0000
,  // measure 42
0100
0000
0001
0000
,  // measure 43
0010
0000
0100
0000
,  // measure 44
0001
0000
0001
0000
,  // measure 45
0010
0000
0100
0000
,  // measure 46
0001
0000
0010
0000
,  // measure 47
0100
0000
0001
0000
,  // measure 48
0010
0000
1000
0000
,  // measure 49
0001
0000
0001
0000
,  // measure 50
1000
0000
0100
0000
,  // measure 51
0010
0000
0100
0000
,  // measure 52
0010
0000
0010
0000
,  // measure 53
0100
0000
0100
0000
,  // measure 54
0001
0000
0100
0000
,  // measure 55
0100
0000
0100
0000
,  // measure 56
0100
0000
0010
0000
,  // measure 57
0100
0000
0010
0000
,  // measure 58
1001
0000
0000
0000
;
