#VERSION:0.83;
#TITLE:Party People... Friday Night;
#SUBTITLE:;
#ARTIST:911;
#TITLETRANSLIT:;
#SUBTITLETRANSLIT:;
#ARTISTTRANSLIT:;
#GENRE:;
#ORIGIN:;
#CREDIT:;
#BANNER:PARTY PEOPLE FRIDAY NIGHT.PNG;
#BACKGROUND:PARTY PEOPLE... FRIDAY NIGHT-bg.png;
#PREVIEWVID:;
#JACKET:PARTY PEOPLE... FRIDAY NIGHT-jacket.png;
#CDIMAGE:;
#DISCIMAGE:;
#LYRICSPATH:;
#CDTITLE:;
#MUSIC:911 - Party People..Friday Night.ogg;
#OFFSET:-0.081000;
#SAMPLESTART:65.032516;
#SAMPLELENGTH:12.000000;
#SELECTABLE:YES;
#BPMS:0.000=107.121;
#STOPS:;
#DELAYS:;
#WARPS:;
#TIMESIGNATURES:0.000=4=4;
#TICKCOUNTS:0.000=4;
#COMBOS:0.000=1;
#SPEEDS:0.000=1.000=0.000=0;
#SCROLLS:0.000=1.000;
#FAKES:;
#LABELS:0.000=Song Start;
#BGCHANGES:;
#KEYSOUNDS:;
#ATTACKS:
;

//---------------dance-single - ----------------
#NOTEDATA:;
#CHARTNAME:;
#STEPSTYPE:dance-single;
#DESCRIPTION:;
#CHARTSTYLE:;
#DIFFICULTY:Hard;
#METER:9;
#RADARVALUES:0.399405,0.420231,0.224840,0.019551,0.034215,286.000000,263.000000,23.000000,2.000000,0.000000,0.000000,0.000000,0.000000,0.000000,0.399405,0.420231,0.224840,0.019551,0.034215,286.000000,263.000000,23.000000,2.000000,0.000000,0.000000,0.000000,0.000000,0.000000;
#CREDIT:;
#NOTES:
0000
0000
0000
0000
,
0000
0000
0000
0000
,
0000
0000
0000
0000
,
0000
0000
0000
0000
,
0000
1001
0110
1001
,
0010
0100
0001
1000
1001
0000
1000
0001
,
0010
0000
0100
0000
1000
0000
0010
0100
,
0010
0100
0010
0100
0010
0100
0010
0100
,
0110
0000
0001
0000
1000
0000
0100
1000
0010
0000
0100
0000
0001
0000
0010
0000
,
0100
1000
0001
1000
0001
0000
0100
0000
,
0010
1000
0001
0100
,
0000
0101
0101
1010
1010
0000
1000
0100
,
0100
1000
0100
0100
1000
0000
0010
0000
,
0100
0000
0001
0000
1000
0000
0010
0100
,
0001
0000
1000
0000
0100
0000
1000
0010
,
1000
0010
0100
0001
1000
0010
0100
0010
,
1000
0001
0100
0000
0010
0100
0001
1000
,
0100
0010
0001
0100
0000
0000
0010
1000
,
0001
1000
0100
0001
0010
0000
0000
0000
,
0101
0000
1010
0000
0110
0000
1000
0001
,
0010
0100
1000
0100
0010
0000
0100
0000
,
1000
0000
0010
1000
0000
1000
0001
0000
0000
0000
0000
0000
0100
0000
0010
0000
,
1000
0001
0010
0100
0000
0000
1000
0100
,
0001
0000
0100
0000
0010
1000
0001
0100
,
0010
0000
1000
0000
0010
0100
0001
0010
,
0100
0010
0001
1000
0100
0010
0100
2000
,
0000
0000
3001
0001
1000
0010
0100
1000
,
0000
0100
0000
0010
0000
0001
1000
0001
,
1000
0000
0001
0000
1000
0000
0000
0000
0001
0000
0100
0000
0010
1000
0010
0000
,
0010
0100
0010
0100
0010
1000
0001
0010
,
0100
0000
1000
0000
0100
0000
0010
0000
0001
0000
1000
0000
0000
0000
0010
0100
,
0001
0001
0001
0001
0001
0001
0001
0001
,
1001
1001
1001
1001
,
1000
1000
1000
1000
1001
0000
0010
0010
,
0100
0000
0110
0000
0100
0000
0001
1000
,
0100
0010
0001
0010
0100
0010
0001
0100
,
0001
0000
0000
0000
1000
0000
1000
0001
0000
0000
0000
0000
0000
0000
0000
0000
,
1000
0001
0100
0010
0100
0010
0100
0001
,
1000
0100
1000
0010
0100
0010
0100
0010
,
1000
0001
1000
0001
1000
0010
0100
0010
,
0100
1001
0110
1001
,
0010
0100
0001
1000
1001
0000
1000
0001
,
0010
0000
0100
0000
1000
0000
0010
0100
,
0010
0100
0010
0100
0010
0100
0010
0100
,
0110
0000
0001
0000
1000
0000
0100
1000
0010
0000
0100
0000
0001
0000
0010
0000
,
0200
0300
0000
0000
;

//---------------dance-single - ----------------
#NOTEDATA:;
#CHARTNAME:;
#STEPSTYPE:dance-single;
#DESCRIPTION:;
#CHARTSTYLE:;
#DIFFICULTY:Medium;
#METER:7;
#RADARVALUES:0.325389,0.375996,0.283494,0.039103,0.000000,233.000000,204.000000,29.000000,4.000000,0.000000,0.000000,0.000000,0.000000,0.000000,0.325389,0.375996,0.283494,0.039103,0.000000,233.000000,204.000000,29.000000,4.000000,0.000000,0.000000,0.000000,0.000000,0.000000;
#CREDIT:;
#NOTES:
0000
0000
0000
0000
,
0000
0000
0000
0000
,
0000
0000
0000
0000
,
0000
0000
0000
0000
,
0000
0100
1001
0110
,
1001
0100
0001
0100
,
0010
1000
0100
1000
,
0010
1000
0100
1000
,
0001
0000
0100
0001
0100
0001
0010
0001
,
0010
0000
0001
0000
0100
0010
1000
0000
,
0002
1003
2000
3100
,
0100
1000
0100
1000
0010
0100
0001
0100
,
0010
0100
0010
0100
0001
0000
1001
0000
,
0001
0100
0010
1000
,
0100
1000
0100
1000
0100
0000
0100
1000
,
1000
0000
0001
0000
0100
0000
0001
0100
,
0001
1001
0101
0011
,
0001
0000
0001
0001
0001
0000
0100
0000
,
0010
0000
1000
1000
1000
0000
0010
0000
,
0100
0000
0001
0001
0001
0000
0100
0000
,
0010
0000
1000
1000
1000
0000
0010
0000
,
0100
0010
0100
0000
0010
0100
0010
0000
,
1000
0001
0100
0001
,
1000
0100
1000
0001
,
1000
0010
0100
0001
,
1001
0000
0100
0000
0001
0100
0001
0100
,
0001
0000
0100
0000
0010
1000
0010
1000
,
0010
1000
0100
1000
,
1001
0110
1001
0110
,
1001
1000
0001
1000
,
0001
1000
0001
0000
1000
0001
1000
0000
,
0110
0010
0100
0010
,
0100
0010
0100
0000
0010
0100
0010
0000
,
1100
0100
1000
0100
,
1000
0100
1000
0000
0100
1000
0100
0000
,
0011
0001
0010
0001
,
0010
0001
0010
0000
0001
0010
0001
0000
,
0101
0001
0100
0001
,
0100
0001
0100
0000
0001
0100
0001
0000
,
1010
1000
0010
1000
,
0010
1000
0010
0000
1000
0010
1000
0000
,
1001
0110
1001
0110
,
1001
0000
1000
0001
1000
0001
1000
0000
,
0110
1001
0110
1001
,
0110
0000
0100
0010
0100
0010
0100
0000
,
0220
0330
0000
0000
;

//---------------dance-single - ----------------
#NOTEDATA:;
#CHARTNAME:;
#STEPSTYPE:dance-single;
#DESCRIPTION:;
#CHARTSTYLE:;
#DIFFICULTY:Easy;
#METER:4;
#RADARVALUES:0.241598,0.309644,0.234616,0.175962,0.000000,173.000000,149.000000,24.000000,18.000000,0.000000,0.000000,0.000000,0.000000,0.000000,0.241598,0.309644,0.234616,0.175962,0.000000,173.000000,149.000000,24.000000,18.000000,0.000000,0.000000,0.000000,0.000000,0.000000;
#CREDIT:;
#NOTES:
0000
0000
0000
0000
,
0000
0000
0000
0000
,
0000
0000
0000
0000
,
0000
0000
0000
0000
,
0000
0000
0000
0000
,
1000
0110
1000
1000
,
0001
0110
0001
0001
,
1000
0100
0010
0001
,
0100
0010
0100
0010
,
1001
0001
0100
0001
,
2000
3000
0200
0300
,
1000
0010
0100
0010
,
0020
0030
2000
3000
,
0100
1000
0100
1000
,
0020
0030
0200
0300
,
0001
0100
0001
0001
,
0002
0003
0020
0030
,
0100
1000
0100
1000
,
0020
2030
3200
0302
,
0013
1001
0010
0100
,
1001
1100
0101
1100
,
1000
0100
1000
0010
,
0100
0001
0100
0010
,
1000
0100
1000
0001
,
0100
0001
1000
0001
,
1001
0001
0100
0010
,
2000
3000
0002
0003
,
0100
0100
0100
0100
,
1001
0110
1001
0110
,
1001
1000
0100
1000
,
0001
0100
0001
0100
,
1001
0100
0010
1000
,
0100
1000
0010
0100
,
1001
0001
0100
0010
,
0100
0001
0010
0001
,
1001
0010
0100
0010
,
1000
0100
1000
0001
,
1001
0200
0300
0100
,
0010
0100
0001
1000
,
1001
0020
0030
0010
,
1000
0001
0100
0010
,
1000
1000
1000
1000
,
0001
0001
0001
0001
,
1000
0100
0010
0001
,
1001
0110
1001
0110
,
2002
3003
0000
0000
;

//---------------dance-single - ----------------
#NOTEDATA:;
#CHARTNAME:;
#STEPSTYPE:dance-single;
#DESCRIPTION:;
#CHARTSTYLE:;
#DIFFICULTY:Beginner;
#METER:1;
#RADARVALUES:0.122894,0.175962,0.029327,0.000000,0.000000,88.000000,85.000000,3.000000,0.000000,0.000000,0.000000,0.000000,0.000000,0.000000,0.122894,0.175962,0.029327,0.000000,0.000000,88.000000,85.000000,3.000000,0.000000,0.000000,0.000000,0.000000,0.000000,0.000000;
#CREDIT:;
#NOTES:
// measure 0
0000
0000
0000
0000
,  // measure 1
0000
0000
0000
0000
,  // measure 2
0000
0000
0000
0000
,  // measure 3
0000
0000
0000
0000
,  // measure 4
0000
0000
0000
0000
,  // measure 5
1000
1000
1000
0000
,  // measure 6
0001
0001
0001
0000
,  // measure 7
0100
0100
0100
0000
,  // measure 8
0010
0010
0010
0000
,  // measure 9
1001
0000
0000
0000
,  // measure 10
1000
0000
0001
0000
,  // measure 11
0100
0000
0010
0000
,  // measure 12
1000
0000
0100
0000
,  // measure 13
1000
0000
0001
0000
,  // measure 14
0010
0000
0001
0000
,  // measure 15
0100
0000
0010
0000
,  // measure 16
1000
0000
0001
0000
,  // measure 17
0100
0100
0000
0000
,  // measure 18
0010
0010
0000
0000
,  // measure 19
0100
0100
0000
0000
,  // measure 20
0010
0010
0000
0000
,  // measure 21
1000
1000
0000
0000
,  // measure 22
0001
0001
0000
0000
,  // measure 23
1000
1000
0000
0000
,  // measure 24
0001
0001
0000
0000
,  // measure 25
1001
0000
0000
0000
,  // measure 26
1001
0000
0000
0000
,  // measure 27
0100
0000
0100
0000
,  // measure 28
0100
0100
0100
0100
,  // measure 29
0100
0000
0000
0000
,  // measure 30
0010
0010
0000
0000
,  // measure 31
0100
0100
0000
0000
,  // measure 32
0010
0010
0000
0000
,  // measure 33
1000
1000
0000
0000
,  // measure 34
0001
0001
0000
0000
,  // measure 35
1000
1000
0000
0000
,  // measure 36
0001
0001
0000
0000
,  // measure 37
1000
0000
1000
0000
,  // measure 38
0001
0000
0001
0000
,  // measure 39
0100
0000
0100
0000
,  // measure 40
0010
0000
0010
0000
,  // measure 41
1000
0000
0100
0000
,  // measure 42
0010
0000
0001
0000
,  // measure 43
0100
0000
0010
0000
,  // measure 44
0100
0100
0100
0100
,  // measure 45
0100
0000
0000
0000
;
