#VERSION:0.83;
#TITLE:PINK FUZZY BUNNIES;
#SUBTITLE:;
#ARTIST:WONDERBOY;
#TITLETRANSLIT:;
#SUBTITLETRANSLIT:;
#ARTISTTRANSLIT:;
#GENRE:Silly Pop;
#ORIGIN:;
#CREDIT:;
#BANNER:PINK FUZZY BUNNIES.png;
#BACKGROUND:PINK FUZZY BUNNIES-bg.png;
#PREVIEWVID:;
#JACKET:PINK FUZZY BUNNIES-jacket.png;
#CDIMAGE:;
#DISCIMAGE:;
#LYRICSPATH:;
#CDTITLE:;
#MUSIC:Pink Fuzzy Bunnies.ogg;
#OFFSET:-0.167000;
#SAMPLESTART:27.320000;
#SAMPLELENGTH:11.840000;
#SELECTABLE:YES;
#BPMS:0.000=211.000,
160.000=128.000,
192.000=211.000,
297.000=200.000,
297.250=180.000,
297.500=160.000,
297.750=140.000,
298.000=119.500,
299.000=211.000;
#STOPS:;
#DELAYS:;
#WARPS:;
#TIMESIGNATURES:0.000=4=4;
#TICKCOUNTS:0.000=4;
#COMBOS:0.000=1;
#SPEEDS:0.000=1.000=0.000=0;
#SCROLLS:0.000=1.000;
#FAKES:;
#LABELS:0.000=Song Start;
#BGCHANGES:;
#KEYSOUNDS:;
#ATTACKS:
;

//---------------dance-single - ----------------
#NOTEDATA:;
#CHARTNAME:;
#STEPSTYPE:dance-single;
#DESCRIPTION:;
#CHARTSTYLE:;
#DIFFICULTY:Hard;
#METER:16;
#RADARVALUES:0.802783,0.923200,0.406005,0.295276,0.078433,609.000000,565.000000,44.000000,32.000000,0.000000,0.000000,0.000000,0.000000,0.000000,0.802783,0.923200,0.406005,0.295276,0.078433,609.000000,565.000000,44.000000,32.000000,0.000000,0.000000,0.000000,0.000000,0.000000;
#CREDIT:;
#NOTES:
0000
0000
0000
0000
,
0000
0000
0000
0000
,
0000
0000
0000
0000
,
0000
0000
0000
0000
,
1001
0000
1000
0100
0010
0000
1000
0100
,
0010
0100
1000
0100
0010
0000
0011
0000
,
1000
0010
0100
0001
1000
0100
0010
0001
,
1002
0100
0000
1000
0000
0100
0000
1003
,
0100
0001
1000
0100
1000
0010
0100
0001
,
1000
0010
0100
0010
1000
0100
1000
0001
,
0100
0010
1000
0100
0010
0001
0100
0010
,
1000
0100
0010
0100
1000
0010
0100
0010
,
1000
0001
0100
0010
0100
0001
0100
0001
,
0010
0001
0010
0001
1000
0001
0010
0001
,
1000
0010
1000
0100
1000
0100
1000
0010
,
0100
0001
0100
0010
0100
0001
0010
0001
1000
0001
0100
0001
1000
0000
0000
0000
,
1002
0203
0320
2030
,
3100
1000
0100
1000
0010
0100
0001
0100
,
0102
0023
0230
2300
,
3010
0100
0001
0100
0010
1000
0010
0100
,
1020
0230
0302
0023
,
0031
1000
0010
1000
0100
1000
0010
0100
,
1020
0000
0230
0000
0320
1000
2030
0001
,
3002
0100
0000
0010
0000
0100
0000
0013
,
1000
0000
0001
0100
0010
0000
0001
0100
,
0010
0100
0001
0100
0010
0000
1001
0000
,
1000
0010
0100
0010
1000
0100
0010
0100
,
1000
0010
0100
0010
1000
0000
1001
0000
,
0101
0000
0001
0010
1000
0000
0001
0010
,
1000
0010
0001
0010
0001
0000
1001
0000
,
0001
0010
0100
1000
0001
0010
0100
1000
,
2002
0000
0000
3003
,
1000
0000
0001
0000
0100
0000
0000
0010
0000
0010
1000
0000
0100
0000
0000
0000
,
1000
0000
1000
0000
0001
0000
0001
0100
0001
0000
0001
0000
0101
0000
0000
0000
,
0010
0000
1000
0000
0010
0000
0000
0100
0000
0100
0001
0000
1001
0000
0000
0000
,
0100
0000
1000
0000
0100
0000
1000
0010
1000
0000
0010
0000
0100
0000
0000
0000
,
0001
0000
0001
0000
0100
0000
0000
0010
0000
0010
1000
0000
0100
0000
0000
0000
,
1000
0000
0001
0000
0100
0000
0010
0100
0001
0000
0100
0000
0010
0000
0000
0000
,
1001
0110
1001
0110
,
0010
0100
0010
0100
0010
0000
1000
0000
0100
0000
1000
0000
1001
0000
0000
0000
,
1001
0100
1001
0100
0010
1000
0001
1000
,
0100
0010
0001
0100
0010
1000
0001
0100
,
1001
0010
1001
0010
1000
0001
0100
0010
,
0100
0001
0010
0001
1000
0100
1000
0010
,
1001
0100
1001
0100
0001
1000
0010
1000
,
0100
0010
0100
1000
0010
0100
0010
1000
,
1001
0010
1001
0010
1000
0001
0100
0001
,
0100
0010
1000
0010
1000
0100
1000
0001
,
1001
0000
0100
0001
0100
0001
0010
0001
,
1000
0001
1000
0010
1000
0100
1000
0001
,
0100
0001
1000
0010
1000
0100
1000
0001
,
0100
0001
0100
0010
1000
0100
1000
0010
,
0100
0001
0100
0010
1000
0100
0010
0100
,
1000
0010
0100
0010
1000
0001
0100
0010
,
0100
0001
0100
0010
0100
0001
0010
0100
,
0010
0001
0100
0001
0100
0010
1000
0010
,
1000
0000
1001
0000
0001
0100
0010
1000
,
0010
1000
0100
1000
0001
0100
0010
1000
,
0001
0000
1001
0000
0010
1000
0010
0100
,
0010
0001
0010
0100
0010
1000
0010
0100
,
0001
0000
1001
0000
0100
1000
0010
1000
,
0100
1000
0010
0100
0001
0100
0010
0100
,
0001
0000
1001
0000
0010
0100
0010
1000
,
0100
0010
0001
0100
0010
1000
0100
0010
,
1002
0100
1000
0103
,
1000
0001
0100
0010
0100
0001
1000
0010
,
2001
0100
0001
3100
,
1000
0001
0100
0001
0010
0001
1000
0010
,
1002
0100
1000
0103
,
1000
0010
0100
0001
1000
0100
0010
0001
,
2001
0100
0001
3100
,
0001
1000
0010
1000
0001
0100
0010
1000
,
1002
0203
0320
2030
,
3001
0000
0001
0100
0010
0000
1000
0100
,
1000
0001
1000
0002
0000
0000
1003
0000
,
1000
0010
0100
0000
1000
0010
0100
0010
,
1000
0100
1000
0000
1100
0000
0001
0100
,
0010
1000
0010
0100
0001
0100
0001
0100
,
0001
0010
0001
0000
1001
0000
0101
0000
,
0001
1000
0010
0000
0001
1000
0010
1000
,
0001
1000
0010
0000
1001
0000
1000
0100
,
0010
0001
1000
0100
0010
0001
1000
0001
,
0100
0010
1000
0001
0100
0010
1000
0100
,
0010
0001
1000
0100
0010
0001
0200
0000
,
0000
0000
0300
1001
,
1001
0000
1000
0001
1000
0000
0001
1000
,
0001
1000
0001
0000
2002
0000
0000
0000
,
3003
0000
0000
0000
;

//---------------dance-single - ----------------
#NOTEDATA:;
#CHARTNAME:;
#STEPSTYPE:dance-single;
#DESCRIPTION:;
#CHARTSTYLE:;
#DIFFICULTY:Challenge;
#METER:18;
#RADARVALUES:0.962285,1.244314,0.590553,0.332186,0.470597,730.000000,666.000000,64.000000,36.000000,0.000000,0.000000,0.000000,0.000000,0.000000,0.962285,1.244314,0.590553,0.332186,0.470597,730.000000,666.000000,64.000000,36.000000,0.000000,0.000000,0.000000,0.000000,0.000000;
#CREDIT:;
#NOTES:
// measure 0
0000
0000
0000
0000
,  // measure 1
0000
0000
0000
0000
,  // measure 2
0000
0000
0000
0000
,  // measure 3
0000
0000
0000
0000
,  // measure 4
1001
0000
1000
0100
0010
0000
1000
0100
,  // measure 5
0010
0100
1000
0100
0010
0000
0011
0000
,  // measure 6
1000
0010
0100
0001
1000
0100
0010
0001
,  // measure 7
1002
0100
0000
1000
0000
0100
0000
1003
,  // measure 8
1000
0000
0001
0000
0100
0001
1000
0001
0100
0010
1000
0010
0200
0301
0100
0001
,  // measure 9
0100
0010
1000
0100
1000
0010
1000
0001
0100
0010
0100
0001
0100
0010
1000
0001
,  // measure 10
0100
0000
0010
0000
1000
0001
0100
0001
0100
0010
1000
0100
1000
0001
1000
0001
,  // measure 11
0100
0001
0100
0001
0010
0001
0010
0001
1000
0010
1000
0010
1000
0100
1000
0001
,  // measure 12
1000
0000
0010
0000
0100
0001
0100
0001
0100
0001
0100
0010
1000
0010
1000
0010
,  // measure 13
1000
0100
1000
0001
1000
0001
0100
0001
0010
0001
0010
0001
0100
0001
1000
0010
,  // measure 14
1000
0000
0010
0000
1000
0010
1000
0010
0100
0010
0100
0010
0100
0001
0100
0001
,  // measure 15
1000
0001
1000
0001
1000
0001
0100
0001
0100
0010
1000
0010
1000
0010
0100
0000
,  // measure 16
1002
0203
0320
2030
,  // measure 17
3100
0000
1000
0000
0100
0000
1000
0000
0001
0010
0001
0010
0001
0010
0001
0000
,  // measure 18
0102
0023
0230
2300
,  // measure 19
3010
0000
0100
0000
0001
0000
0100
0000
0010
1000
0010
1000
0010
1000
0100
0000
,  // measure 20
1020
0230
0302
0023
,  // measure 21
0031
0000
1000
0000
0010
0000
1000
0000
0100
1000
0010
1000
0010
1000
0100
0000
,  // measure 22
1020
0000
0230
0000
0320
1000
2030
0001
,  // measure 23
3001
0100
0001
0100
0010
0100
0010
0100
0010
0000
0100
0000
2002
0000
3003
0000
,  // measure 24
1000
0000
0001
0100
0010
0000
0001
0100
,  // measure 25
0010
0100
0001
0100
0010
0000
1001
0000
,  // measure 26
1000
0010
0100
0010
1000
0100
0010
0100
,  // measure 27
1000
0010
0100
0010
1000
0000
1001
0000
,  // measure 28
0101
0000
0001
0010
1000
0000
0001
0010
,  // measure 29
1000
0010
0001
0010
0001
0000
1001
0000
,  // measure 30
0001
0010
0100
1000
0001
0010
0100
1000
,  // measure 31
2002
0000
0000
3003
,  // measure 32
1000
0000
0001
0000
0101
0000
0000
0010
0000
0010
1000
0000
0101
0000
0000
0000
,  // measure 33
1000
0000
1000
0000
0110
0000
0001
0100
0001
0000
0001
0000
0101
0000
0000
0000
,  // measure 34
0010
0000
1000
0000
1010
0000
0000
0100
0000
0100
0001
0000
1001
0000
0000
0000
,  // measure 35
0100
0000
1000
0000
1001
0000
1000
0010
1000
0000
0010
0000
0101
0000
0000
0000
,  // measure 36
0001
0000
0001
0000
0110
0000
0000
0010
0000
0010
1000
0000
1100
0000
0000
0000
,  // measure 37
1000
0000
0001
0000
0101
0000
0010
0100
0001
0000
0100
0000
0110
0000
0000
0000
,  // measure 38
1001
0110
1001
0110
,  // measure 39
0010
0100
0010
0100
0010
0000
1000
0000
0100
0000
1000
0000
1001
0000
0000
0000
,  // measure 40
1001
0100
1001
0100
0010
1000
0001
1000
,  // measure 41
0100
0010
0001
0100
0010
1000
0001
0100
,  // measure 42
1001
0010
1001
0010
1000
0001
0100
0010
,  // measure 43
0100
0001
0010
0001
1000
0100
1002
0010
,  // measure 44
1003
0100
1001
0100
0001
1000
0010
1000
,  // measure 45
0100
0010
0100
1000
0010
0100
0010
1000
,  // measure 46
1001
0010
1001
0010
1000
0001
0100
0001
,  // measure 47
0100
0010
1000
0010
1000
0100
1000
0001
,  // measure 48
0101
0001
0100
0001
0100
0001
0010
0001
,  // measure 49
1000
0001
1000
0010
1000
0100
1000
0001
,  // measure 50
0100
0001
1000
0010
1000
0100
1000
0001
,  // measure 51
0100
0001
0100
0010
1000
0100
1000
0010
,  // measure 52
0100
0001
0100
0010
1000
0100
0010
0100
,  // measure 53
1000
0010
0100
0010
1000
0001
0100
0010
,  // measure 54
0100
0001
0100
0010
0100
0001
0010
0100
,  // measure 55
0010
0000
0001
0000
0100
0000
0001
0000
0100
0000
0010
0001
1000
0001
0010
0000
,  // measure 56
1001
0100
0001
0100
0001
0100
0010
1000
,  // measure 57
0010
1000
0100
1000
0001
0100
0010
1000
,  // measure 58
1001
0100
0010
1000
0010
1000
0010
0100
,  // measure 59
0010
0001
0010
0100
0010
1000
0010
0100
,  // measure 60
1010
0100
0010
1000
0100
1000
0010
1000
,  // measure 61
0001
1000
0010
0100
0001
0100
0010
0100
,  // measure 62
0110
1000
0001
0100
0010
0100
0010
1000
,  // measure 63
0100
0000
0010
0000
0001
0000
0100
0000
0010
1000
0010
1000
0001
0100
0001
0000
,  // measure 64
1002
0100
1000
0103
,  // measure 65
1000
0001
0100
0010
0100
0001
1000
0010
,  // measure 66
2001
0100
0001
3100
,  // measure 67
1000
0001
0100
0001
0010
0001
1000
0010
,  // measure 68
1002
0100
1000
0103
,  // measure 69
1000
0010
0100
0001
1000
0100
0010
0001
,  // measure 70
2001
0100
0001
3100
,  // measure 71
0001
1000
0010
1000
0001
0100
0010
1000
,  // measure 72
1002
0203
0320
2030
,  // measure 73
3001
0000
0001
0100
0010
0000
1000
0100
,  // measure 74
1000
0001
1000
0002
0000
0000
1003
0001
,  // measure 75
0101
0000
0000
0010
0000
0010
1000
0000
0101
0000
0000
0000
1000
0000
1000
0000
,  // measure 76
0110
0000
0001
0100
0001
0000
0001
0000
0101
0000
0000
0000
0010
0000
1000
0000
,  // measure 77
1010
0000
0000
0100
0000
0100
0001
0000
1001
0000
0000
0000
1000
0010
0100
0001
,  // measure 78
0100
0010
1000
0100
1000
0000
0001
0000
1001
0000
0000
0000
0001
0000
0001
0000
,  // measure 79
0110
0000
0000
0010
0000
0010
1000
0000
1100
0000
0000
0000
1000
0000
0001
0000
,  // measure 80
0101
0000
0010
0100
0001
0000
0100
0000
0110
0000
0000
0000
1000
0000
0100
0000
,  // measure 81
0010
0000
0001
1000
0001
0000
0100
0000
0010
0000
1000
0000
0001
0000
1000
0000
,  // measure 82
0010
0000
0100
0010
1000
0000
0001
0000
0100
0000
0010
0000
1000
0000
0100
0000
,  // measure 83
0010
0000
0001
0000
1000
0000
0100
0000
0010
0000
0001
0000
0100
0010
0100
0010
,  // measure 84
0100
0010
0100
0010
0100
0000
0010
0000
1001
0000
0000
0000
1001
0000
0000
0000
,  // measure 85
1001
0000
1000
0001
1000
0000
0001
1000
,  // measure 86
0001
0000
1000
0000
2002
0000
0000
3003
2002
0000
0000
0000
0000
0000
0000
0000
,  // measure 87
3003
0000
0000
0000
;

//---------------dance-single - ----------------
#NOTEDATA:;
#CHARTNAME:;
#STEPSTYPE:dance-single;
#DESCRIPTION:;
#CHARTSTYLE:;
#DIFFICULTY:Medium;
#METER:13;
#RADARVALUES:0.619553,0.682366,0.424460,0.119956,0.000000,470.000000,424.000000,46.000000,13.000000,0.000000,0.000000,0.000000,0.000000,0.000000,0.619553,0.682366,0.424460,0.119956,0.000000,470.000000,424.000000,46.000000,13.000000,0.000000,0.000000,0.000000,0.000000,0.000000;
#CREDIT:;
#NOTES:
0000
0000
0000
0000
,
0000
0000
0000
0000
,
0000
0000
0000
0000
,
0000
0000
0000
0000
,
1001
0000
0100
0001
0100
0000
0001
0100
,
0001
0100
0001
0100
0001
0000
0100
0000
,
0010
1000
0010
1000
0010
1000
0100
1000
,
0200
1000
1000
1300
,
1100
1000
0100
0010
,
0011
0001
0010
0100
,
1010
0100
0001
0010
,
0101
0010
1000
0100
,
1001
0100
0001
0100
,
1001
0100
1000
0100
,
0110
0010
0100
0010
,
0110
0100
0010
0100
,
0011
0011
0011
0011
,
0100
0100
0100
0100
,
1010
1010
1010
1010
,
0100
0100
0100
0100
,
1000
1000
0001
0001
,
1000
1000
0001
0001
,
1000
0001
1000
0001
,
0120
0100
0100
0030
,
1000
0000
0100
1000
0100
0000
1000
0100
,
1000
0100
1000
0100
1000
0000
0010
0000
,
0100
0001
0100
0001
0100
0001
0100
0001
,
0100
0001
0100
0001
0200
0000
0310
0000
,
0010
0000
1000
0010
1000
0000
0010
1000
,
0010
1000
0010
1000
0010
0000
1000
0000
,
0100
1000
0100
1000
0001
0100
0001
0100
,
0002
0100
0100
0103
,
1000
0001
1000
0000
0100
0100
0100
0000
,
0001
1000
0001
0000
0100
0100
0100
0000
,
1000
0001
1000
0000
0100
0100
0100
0000
,
0001
1000
0001
0000
0100
0100
0100
0000
,
1000
0101
0001
1100
,
1000
0101
0001
1100
,
1001
0110
1001
0110
,
1000
0001
1000
0001
1000
0001
1000
0000
,
1000
0100
1000
0100
1000
0001
0100
0001
,
1000
0010
0100
0010
1000
0100
0010
0100
,
1000
0010
0100
0001
0100
0010
0100
0001
,
0010
0001
0010
0001
0100
0010
0100
0010
,
1000
0100
1000
0010
0100
0001
0100
0010
,
0100
0001
1000
0001
0100
0010
0100
0001
,
1000
0100
1000
0001
0100
0010
1000
0000
,
2002
0000
0000
3003
,
1001
0100
0100
0100
,
0001
0100
0010
1000
,
0100
1000
1100
1000
,
0001
0100
0101
0001
,
0100
0010
1000
0100
,
1000
0001
0100
0001
,
0010
0001
0011
0001
,
0100
0010
1100
1000
,
0001
1000
0010
1000
,
0100
0000
1000
0000
0001
0100
0001
0000
,
0010
0001
0100
0010
,
1000
0000
0010
0000
0100
0010
0100
0000
,
0010
1000
0100
1000
,
0001
0000
0100
0000
0010
0100
0010
0000
,
0100
0001
0010
0001
,
1000
0000
0100
0000
1000
0100
1000
0000
,
0011
0011
0011
0011
,
0100
0100
0100
0100
,
1010
1010
1010
1010
,
0100
0100
0100
0100
,
1000
1000
0001
0001
,
1000
1000
0001
0001
,
1000
0001
1000
0001
,
0120
0100
0100
0030
,
1002
0100
0010
0103
,
1001
0000
0001
1000
0001
0000
1000
0001
,
1000
0001
1000
0002
0000
0000
1003
0000
,
0100
1000
0100
0000
1000
0100
1000
0100
,
1000
0100
1000
0000
0010
0000
0100
0001
,
0100
0001
0100
0001
0100
0001
0100
0001
,
0100
0001
0200
0000
0310
0000
0010
0000
,
1000
0010
1000
0000
0010
1000
0010
1000
,
0010
1000
0010
0000
1000
0000
0001
1000
,
0001
1000
0001
1000
0001
0000
0100
0010
,
0100
0010
0100
0010
0100
0000
0010
1000
,
0010
1000
0010
1000
0010
1000
0020
0000
,
0100
0100
0130
1001
,
1001
0000
1000
0001
1000
0000
0001
1000
,
0001
1000
0001
0000
2002
0000
0000
0000
,
3003
0000
0000
0000
;

//---------------dance-single - ----------------
#NOTEDATA:;
#CHARTNAME:;
#STEPSTYPE:dance-single;
#DESCRIPTION:;
#CHARTSTYLE:;
#DIFFICULTY:Easy;
#METER:10;
#RADARVALUES:0.504870,0.602087,0.516734,0.156866,0.000000,383.000000,327.000000,56.000000,17.000000,0.000000,0.000000,0.000000,0.000000,0.000000,0.504870,0.602087,0.516734,0.156866,0.000000,383.000000,327.000000,56.000000,17.000000,0.000000,0.000000,0.000000,0.000000,0.000000;
#CREDIT:;
#NOTES:
0000
0000
0000
0000
,
0000
0000
0000
0000
,
0000
0000
0000
0000
,
0000
0000
0000
0000
,
1000
1000
0001
0001
,
1000
0100
0010
0001
,
1000
0100
0001
0010
,
1002
1000
1000
1003
,
1100
1000
0100
0010
,
0011
0001
0010
0100
,
1010
0100
0001
0010
,
0101
0010
1000
0100
,
1001
0100
0001
0100
,
1001
0100
1000
0100
,
0110
0010
0100
0010
,
0110
0100
0010
0100
,
0011
0011
0011
0011
,
0100
0100
0100
0100
,
1010
1010
1010
1010
,
0100
0100
0100
0100
,
1000
1000
0001
0001
,
1000
1000
0001
0001
,
1000
0001
1000
0001
,
0120
0100
0100
0130
,
1001
0100
0001
0100
,
0010
1000
0010
1000
,
0100
1000
0001
0100
,
0010
1000
0002
0103
,
1001
1000
0010
0100
,
0001
0100
0010
1000
,
0100
0010
0001
0100
,
0102
0100
0100
0103
,
1000
0001
1000
0000
0100
0000
0100
0000
,
0001
1000
0001
0000
0100
0000
0100
0000
,
1000
0001
1000
0000
0100
0000
0100
0000
,
0001
1000
0001
0000
0100
0000
0100
0000
,
1000
0101
0001
1000
,
1000
1100
0001
0100
,
1001
0100
0100
0100
,
1001
0110
1001
0000
,
1000
1000
1000
1000
,
0001
1000
0001
2000
0000
0000
3010
0000
,
0001
0001
0001
0001
,
1000
0001
1000
0002
0000
0000
0013
0000
,
1000
1000
1000
1000
,
0001
1000
0001
2000
0000
0000
3010
0000
,
0001
0000
0001
0000
0001
1000
0001
0000
,
2002
0000
0000
3003
,
1001
0100
0100
0100
,
0001
0100
0010
1000
,
0100
1000
1100
1000
,
0001
0100
0101
0001
,
0100
0010
1000
0100
,
1000
0001
0100
0001
,
0010
0001
0011
0001
,
0100
0010
1100
1000
,
0001
1000
0010
1000
,
0100
1000
0001
0001
,
0010
0001
0100
0010
,
1000
0010
0100
0100
,
0010
1000
0100
1000
,
0001
0100
0010
0010
,
0100
0001
0010
0001
,
1000
0100
1000
1000
,
0011
0011
0011
0011
,
0100
0100
0100
0100
,
1010
1010
1010
1010
,
0100
0100
0100
0100
,
1000
1000
0001
0001
,
1000
1000
0001
0001
,
1000
0001
1000
0001
,
0120
0100
0100
0130
,
1002
1000
1000
1003
,
1001
0100
0100
0200
,
0000
0000
0300
1001
,
0100
0001
0100
0010
,
1000
0010
1000
0100
,
1000
0001
0100
0010
,
1000
0002
0103
1001
,
1000
0010
0100
0001
,
0100
0010
1000
1001
,
0100
0100
0100
1001
,
0100
0100
0100
1001
,
0100
0100
0100
1001
,
0110
1001
0110
2002
,
0000
0000
0000
0000
,
3003
0110
2002
0000
,
3003
0000
0000
0000
;

//---------------dance-single - ----------------
#NOTEDATA:;
#CHARTNAME:;
#STEPSTYPE:dance-single;
#DESCRIPTION:;
#CHARTSTYLE:;
#DIFFICULTY:Beginner;
#METER:4;
#RADARVALUES:0.205639,0.279359,0.018455,0.119956,0.000000,156.000000,154.000000,2.000000,13.000000,0.000000,0.000000,0.000000,0.000000,0.000000,0.205639,0.279359,0.018455,0.119956,0.000000,156.000000,154.000000,2.000000,13.000000,0.000000,0.000000,0.000000,0.000000,0.000000;
#CREDIT:;
#NOTES:
0000
0000
0000
0000
,
0000
0000
0000
0000
,
0000
0000
0000
0000
,
0000
0000
0000
0000
,
1000
1000
0000
0000
,
1000
1000
0000
0000
,
0001
0001
0000
0000
,
0002
0000
0000
0003
,
0001
0000
0100
0000
,
0010
0000
1000
0000
,
0100
0000
0010
0000
,
0001
0000
0100
0000
,
0010
0000
1000
0000
,
0010
0000
0100
0000
,
0010
0000
1000
0000
,
0001
0000
0100
0000
,
0002
0000
0000
0003
,
0001
0000
0001
0000
,
2000
0000
0000
3000
,
1000
0000
1000
0000
,
0020
0000
0000
0030
,
0010
0000
0010
0000
,
0200
0000
0000
0300
,
0200
0000
0000
0300
,
0100
0100
0100
0000
,
0100
0100
0100
0000
,
0010
0010
0010
0000
,
0010
0010
0010
0000
,
1000
1000
1000
0000
,
1000
1000
1000
0000
,
0001
0001
0001
0000
,
0002
0000
0000
0003
,
0001
0000
1000
0000
,
0001
0000
1000
0000
,
0010
0000
0100
0000
,
0010
0000
0100
0000
,
0001
0000
1000
0000
,
0001
0000
1000
0000
,
0010
0000
0010
0000
,
0010
0010
0020
0000
,
0030
0000
0000
0000
,
0010
0000
0000
0000
,
0100
0000
0000
0000
,
0001
0000
0000
0000
,
1000
0000
0000
0000
,
0010
0000
0000
0000
,
0100
0000
0000
0000
,
2002
0000
3003
0000
,
1001
0000
0000
0000
,
0100
0000
0100
0000
,
0100
0000
0010
0000
,
0010
0000
1000
0000
,
1000
0000
0001
0000
,
0001
0000
0100
0000
,
0001
0000
1000
0000
,
0100
0000
1000
0000
,
0010
0010
0000
0000
,
1000
1000
0000
0000
,
0001
0001
0000
0000
,
0100
0100
0000
0000
,
0010
0010
0000
0000
,
1000
1000
0000
0000
,
0100
0100
0000
0000
,
0001
0001
0000
0000
,
0010
0000
0100
0000
,
0010
0000
0100
0000
,
0001
0000
1000
0000
,
0001
0000
1000
0000
,
0010
0000
0100
0000
,
0001
0000
1000
0000
,
0010
0000
0010
0000
,
0020
0000
0000
0030
,
0020
0000
0000
0030
,
0010
0000
0010
0000
,
0020
0000
0000
0030
,
0000
0000
0000
0010
,
0000
0010
0000
1000
,
0000
1000
0000
0001
,
0000
0001
0000
0100
,
0000
0100
0000
0001
,
0000
1000
0000
0010
,
0000
0100
0000
0001
,
0000
0100
0000
0010
,
0000
1000
0000
0010
,
0000
1000
0000
0100
,
0000
0100
0000
0100
,
0100
0100
0100
0000
;
