#VERSION:0.83;
#TITLE:PARANOiA MAX -FUNKY BLEEP MIX-;
#SUBTITLE:;
#ARTIST:190 Remixed by DEPROGRAM MAN;
#TITLETRANSLIT:;
#SUBTITLETRANSLIT:;
#ARTISTTRANSLIT:;
#GENRE:;
#ORIGIN:;
#CREDIT:;
#BANNER:;
#BACKGROUND:DDR CD-bg.JPG;
#PREVIEWVID:;
#JACKET:PARANOiA MAX FUNKY BLEEP MIX-jacket.png;
#CDIMAGE:;
#DISCIMAGE:;
#LYRICSPATH:;
#CDTITLE:;
#MUSIC:PARANOiA MAX FUNKY BLEEP MIX.ogg;
#OFFSET:-0.716000;
#SAMPLESTART:0.700000;
#SAMPLELENGTH:14.999998;
#SELECTABLE:YES;
#BPMS:0.000=190.114;
#STOPS:;
#DELAYS:;
#WARPS:;
#TIMESIGNATURES:0.000=4=4;
#TICKCOUNTS:0.000=4;
#COMBOS:0.000=1;
#SPEEDS:0.000=1.000=0.000=0;
#SCROLLS:0.000=1.000;
#FAKES:;
#LABELS:0.000=Song Start;
#BGCHANGES:;
#KEYSOUNDS:;
#ATTACKS:
;

//---------------dance-single - ----------------
#NOTEDATA:;
#CHARTNAME:;
#STEPSTYPE:dance-single;
#DESCRIPTION:;
#CHARTSTYLE:;
#DIFFICULTY:Hard;
#METER:13;
#RADARVALUES:0.664016,0.835905,0.288866,0.000000,0.249475,354.000000,332.000000,22.000000,0.000000,0.000000,0.000000,0.000000,0.000000,0.000000,0.664016,0.835905,0.288866,0.000000,0.249475,354.000000,332.000000,22.000000,0.000000,0.000000,0.000000,0.000000,0.000000,0.000000;
#CREDIT:;
#NOTES:
// measure 0
0000
0000
0000
0000
,  // measure 1
0000
0000
0000
0000
,  // measure 2
0000
0000
0000
0000
,  // measure 3
0000
0000
0000
0000
,  // measure 4
0000
0000
0000
0000
,  // measure 5
0000
0000
0000
0000
,  // measure 6
1001
0000
0000
1000
0100
0010
0100
1000
,  // measure 7
0010
0000
0000
0100
0000
0000
0010
0000
0100
0000
0000
0000
0010
0000
0000
0000
,  // measure 8
0010
0000
1000
0000
0010
0000
0100
0000
0000
0000
0100
0000
0010
0000
0000
1000
,  // measure 9
0000
0000
0000
0000
0000
0001
0000
0100
,  // measure 10
0000
0000
0100
0000
1000
0000
0001
0000
0000
0000
0001
0000
0100
0000
0000
0010
,  // measure 11
0000
0000
0000
0000
0000
1000
0001
0010
,  // measure 12
0000
0000
0010
0000
0001
0000
1000
0000
0000
0000
1000
0000
0010
0000
0000
0100
,  // measure 13
0000
0000
0000
0000
0000
1000
0000
0100
,  // measure 14
0000
0000
1000
0000
0010
0000
1000
0000
0000
0000
1000
0000
0010
0000
0000
1000
,  // measure 15
0000
0000
0000
0000
0000
0000
0000
0000
0100
0000
0000
1000
0000
0000
0010
0000
,  // measure 16
0100
0000
0001
0000
1000
0000
0100
0000
0000
0000
0100
0000
0100
0000
0000
0100
,  // measure 17
0000
0000
0000
0000
1000
1000
1000
1000
,  // measure 18
0000
0000
0001
0000
0001
0000
0001
0000
0000
0000
0100
0000
0010
0000
0000
0100
,  // measure 19
0010
0000
0010
0000
0010
0010
0110
0010
,  // measure 20
0000
0000
1000
0000
0100
0000
1100
0000
0000
0000
1000
0000
0001
0000
0000
0100
,  // measure 21
0001
0000
0101
0000
0011
0001
0010
0001
,  // measure 22
0000
0000
0100
0000
0010
0000
0100
0000
0000
0000
0100
0000
0001
0000
0000
0100
,  // measure 23
0010
0000
0000
0000
1010
0000
0000
0000
1000
0000
0000
1000
0000
0000
1000
0000
,  // measure 24
0000
0001
1000
0010
1000
0100
0001
1000
,  // measure 25
0000
0001
1000
0100
0000
1000
0001
0001
,  // measure 26
0000
0001
1000
0010
1000
0100
0001
1000
,  // measure 27
0000
0001
1000
0100
0000
1000
0001
0001
,  // measure 28
0000
0001
1000
0010
1000
0100
0001
1000
,  // measure 29
0000
0001
1000
0100
0000
1000
0001
0001
,  // measure 30
0000
0001
1000
0010
1000
0100
0001
1000
,  // measure 31
0001
0000
0000
1000
0000
0000
0100
0000
1010
0000
0000
0000
1100
0000
0000
0000
,  // measure 32
0101
0000
0100
0001
0000
0001
0100
0000
,  // measure 33
0100
0100
0100
0100
0010
0010
0010
0010
,  // measure 34
1000
0000
1000
0001
0000
0001
1000
0000
,  // measure 35
1000
0100
1000
0100
0100
0100
1000
1000
,  // measure 36
1000
0000
0100
1000
0000
0010
0100
0000
,  // measure 37
0001
0100
0000
0001
0010
0010
0010
0010
,  // measure 38
0001
0000
0100
0001
0000
0100
0010
0000
,  // measure 39
1000
0000
0010
0000
0000
0000
0010
0000
0010
0100
0010
0100
0010
0100
0010
0100
,  // measure 40
0010
0000
0000
0010
0000
0000
0010
0000
0010
0000
0000
0010
0000
0000
0010
0000
,  // measure 41
0010
0000
0000
0010
0000
0000
0010
0000
0010
0000
0000
0010
0000
0000
0010
0000
,  // measure 42
0010
0000
1100
0000
0001
1000
0001
0000
,  // measure 43
0100
0000
0101
0000
0100
0010
0101
0000
,  // measure 44
1000
0100
1000
0000
1000
0100
1000
0000
,  // measure 45
1000
0100
1000
0000
1000
0100
1000
0000
,  // measure 46
1000
0001
1000
0001
1000
0001
1000
0001
,  // measure 47
1000
0010
1000
0010
1000
0010
1000
0010
,  // measure 48
1000
0100
0000
1100
0000
1000
0000
1000
,  // measure 49
1001
0000
0000
0000
1001
0000
1000
0000
0001
0000
0000
1001
0000
0000
0000
0000
,  // measure 50
0001
0010
0001
0010
0001
0010
0001
0010
0001
0000
0010
0000
0100
0000
1000
0000
,  // measure 51
0001
0010
0100
1000
0001
0010
0100
0000
,  // measure 52
0001
0100
0001
0100
0001
0100
0001
0100
0001
0000
0010
0000
0110
0000
0100
0000
,  // measure 53
1000
1000
0001
0001
1000
0010
0100
0000
,  // measure 54
0100
0010
0100
0010
0100
0010
0100
0010
0100
0000
0001
0000
1000
0000
0010
0000
,  // measure 55
1010
0100
0001
0100
0101
0001
1000
0000
,  // measure 56
0010
1000
0010
1000
0010
1000
0010
1000
0010
0000
0100
0000
0010
0000
0100
0000
,  // measure 57
0001
0000
0100
0000
0010
0000
0000
0000
1001
0000
0000
0110
0000
0000
1001
0000
;

//---------------dance-single - ----------------
#NOTEDATA:;
#CHARTNAME:;
#STEPSTYPE:dance-single;
#DESCRIPTION:;
#CHARTSTYLE:;
#DIFFICULTY:Beginner;
#METER:3;
#RADARVALUES:0.206333,0.264246,0.065651,0.078782,0.000000,110.000000,105.000000,5.000000,6.000000,0.000000,0.000000,0.000000,0.000000,0.000000,0.206333,0.264246,0.065651,0.078782,0.000000,110.000000,105.000000,5.000000,6.000000,0.000000,0.000000,0.000000,0.000000,0.000000;
#CREDIT:;
#NOTES:
// measure 0
0000
0000
0000
0000
,  // measure 1
0000
0000
0000
0000
,  // measure 2
0000
0000
0000
0000
,  // measure 3
0000
0000
0000
0000
,  // measure 4
0000
0000
0000
0000
,  // measure 5
0000
0000
0000
0000
,  // measure 6
0000
0000
0000
0000
,  // measure 7
0000
0000
0000
0000
,  // measure 8
1000
1000
0000
0000
,  // measure 9
1000
1000
0000
0000
,  // measure 10
0001
0001
0000
0000
,  // measure 11
0001
0001
0000
0000
,  // measure 12
0100
0100
0000
0000
,  // measure 13
0100
0100
0000
0000
,  // measure 14
0010
0010
0000
0000
,  // measure 15
0010
0010
0000
0000
,  // measure 16
1001
0000
0000
0000
,  // measure 17
0100
0000
0100
0000
,  // measure 18
1001
0000
0000
0000
,  // measure 19
0010
0000
0010
0000
,  // measure 20
1001
0000
0000
0000
,  // measure 21
0100
0000
0100
0000
,  // measure 22
1001
0000
0000
0000
,  // measure 23
0010
0000
0010
0000
,  // measure 24
0000
0100
0100
0100
,  // measure 25
0000
0100
0100
0100
,  // measure 26
0000
0010
0010
0010
,  // measure 27
0000
0010
0010
0010
,  // measure 28
0000
1000
1000
1000
,  // measure 29
0000
1000
1000
1000
,  // measure 30
0000
0001
0001
0001
,  // measure 31
0000
0001
0001
0001
,  // measure 32
0002
0000
0003
0000
,  // measure 33
0001
0000
1000
0000
,  // measure 34
2000
0000
3000
0000
,  // measure 35
1000
0000
0001
0000
,  // measure 36
0200
0000
0300
0000
,  // measure 37
0100
0000
0010
0000
,  // measure 38
0020
0000
0030
0000
,  // measure 39
0010
0000
0100
0000
,  // measure 40
2002
0000
0000
0000
,  // measure 41
3003
0000
0000
0000
,  // measure 42
1000
1000
0000
0000
,  // measure 43
1000
1000
0000
0000
,  // measure 44
0001
0001
0000
0000
,  // measure 45
0001
0001
0000
0000
,  // measure 46
0100
0100
0000
0000
,  // measure 47
0100
0100
0000
0000
,  // measure 48
0010
0010
0000
0000
,  // measure 49
0010
0010
0000
0000
,  // measure 50
1000
1000
1000
0000
,  // measure 51
1000
1000
1000
0000
,  // measure 52
0001
0001
0001
0000
,  // measure 53
0001
0001
0001
0000
,  // measure 54
0100
0100
0100
0000
,  // measure 55
0100
0100
0100
0000
,  // measure 56
0010
0010
0010
0000
,  // measure 57
0010
0010
0010
0000
;

//---------------dance-single - ----------------
#NOTEDATA:;
#CHARTNAME:;
#STEPSTYPE:dance-single;
#DESCRIPTION:;
#CHARTSTYLE:;
#DIFFICULTY:Medium;
#METER:12;
#RADARVALUES:0.583358,0.645926,0.433298,0.000000,0.059086,311.000000,278.000000,33.000000,0.000000,0.000000,0.000000,0.000000,0.000000,0.000000,0.583358,0.645926,0.433298,0.000000,0.059086,311.000000,278.000000,33.000000,0.000000,0.000000,0.000000,0.000000,0.000000,0.000000;
#CREDIT:;
#NOTES:
// measure 0
0000
0000
0000
0000
,  // measure 1
0000
0000
0000
0000
,  // measure 2
0000
0000
0000
0000
,  // measure 3
0000
0000
0000
0000
,  // measure 4
0000
0000
0000
0000
,  // measure 5
0000
0000
0000
0000
,  // measure 6
0000
0000
0000
1000
0000
0000
1000
0001
,  // measure 7
1000
0000
0000
1000
0000
0000
1000
0000
0001
0000
0000
0000
0100
0000
0000
0000
,  // measure 8
1001
0000
0100
0000
0001
0001
0100
0000
,  // measure 9
0001
0000
1000
0000
0010
1000
0100
0000
,  // measure 10
1000
0000
1100
0000
1000
0010
0100
0000
,  // measure 11
0001
0000
0101
0000
0001
0100
0010
0000
,  // measure 12
1000
1000
1000
0000
1000
1000
1000
0000
,  // measure 13
0100
0100
0100
0100
,  // measure 14
0001
0001
0001
0000
0001
0001
0001
0000
,  // measure 15
0100
0000
0000
0000
0100
0000
0000
0000
0100
0000
0000
0100
0000
0000
0100
0000
,  // measure 16
1001
0000
0100
0000
0001
0100
0001
0000
,  // measure 17
1000
0000
0010
0000
1000
0010
1000
0000
,  // measure 18
0010
0000
1000
0000
0100
1000
0100
0000
,  // measure 19
1000
0000
0010
0000
0100
0001
0100
0000
,  // measure 20
0001
0000
0010
0000
0001
0100
0001
0000
,  // measure 21
1000
0000
0100
0000
1000
0010
1000
0000
,  // measure 22
0010
0110
0010
0110
,  // measure 23
0100
0000
0000
0000
0101
0000
0000
0000
0001
0000
0000
0011
0000
0000
0101
0000
,  // measure 24
0000
1000
0010
0100
0001
1000
0010
0100
,  // measure 25
0000
0001
1000
0010
0000
0100
0001
1000
,  // measure 26
0000
0010
0100
0001
1000
0010
0100
0001
,  // measure 27
0000
1000
0010
0100
0000
0001
1000
0010
,  // measure 28
0000
0100
0001
1000
0010
0100
0001
1000
,  // measure 29
0000
0010
0100
0001
0000
1000
0010
0100
,  // measure 30
0000
0001
1000
0010
0100
0001
1000
0010
,  // measure 31
0100
0000
0000
0010
0000
0000
1000
0000
0001
0000
0000
0000
0101
0000
0000
0000
,  // measure 32
1001
0000
0100
0100
0000
0001
0001
0000
,  // measure 33
1000
1000
0000
0010
0100
0100
0100
0000
,  // measure 34
1001
0000
0100
0100
0000
0001
0001
0000
,  // measure 35
1000
1000
0000
0010
0100
0100
0100
0000
,  // measure 36
1001
0000
0100
0100
0000
0001
0001
0000
,  // measure 37
1000
1000
0000
0010
0100
0100
0100
0000
,  // measure 38
1001
0000
0100
0100
0000
0001
0001
0000
,  // measure 39
1000
1000
0000
0010
0100
0100
0100
0000
,  // measure 40
0010
0000
0000
0010
0000
0000
0010
0000
0010
0000
0000
0010
0000
0000
0010
0000
,  // measure 41
0010
0000
0000
0010
0000
0000
0010
0000
0010
0000
0000
0010
0000
0000
0010
0000
,  // measure 42
1001
0101
0001
0100
,  // measure 43
0010
1000
0100
1000
,  // measure 44
1100
1001
0001
0100
,  // measure 45
0010
1000
0100
1000
,  // measure 46
1100
0011
0001
0100
,  // measure 47
0010
1000
0010
0100
,  // measure 48
0101
1001
0001
1000
,  // measure 49
0100
0010
0001
0100
,  // measure 50
1001
0000
0101
0000
0100
0001
0100
0001
,  // measure 51
0100
0001
0100
0001
0100
0001
0100
0000
,  // measure 52
1001
0000
1010
0000
0010
1000
0010
1000
,  // measure 53
0010
1000
0010
1000
0010
1000
0010
0000
,  // measure 54
1001
0000
1100
0000
1000
0100
0010
0100
,  // measure 55
1000
0100
0010
0100
1000
0100
0010
0000
,  // measure 56
0011
0000
0101
0000
0010
0100
0010
1000
,  // measure 57
0010
0000
0100
0000
0010
0000
0000
0000
1001
0000
0000
0110
0000
0000
1001
0000
;

//---------------dance-single - ----------------
#NOTEDATA:;
#CHARTNAME:;
#STEPSTYPE:dance-single;
#DESCRIPTION:;
#CHARTSTYLE:;
#DIFFICULTY:Easy;
#METER:10;
#RADARVALUES:0.491447,0.569935,0.656513,0.000000,0.026261,262.000000,212.000000,50.000000,0.000000,0.000000,0.000000,0.000000,0.000000,0.000000,0.491447,0.569935,0.656513,0.000000,0.026261,262.000000,212.000000,50.000000,0.000000,0.000000,0.000000,0.000000,0.000000,0.000000;
#CREDIT:;
#NOTES:
// measure 0
0000
0000
0000
0000
,  // measure 1
0000
0000
0000
0000
,  // measure 2
0000
0000
0000
0000
,  // measure 3
0000
0000
0000
0000
,  // measure 4
0000
0000
0000
0000
,  // measure 5
0000
0000
0000
0000
,  // measure 6
0000
0001
0000
0001
,  // measure 7
0000
0100
0000
0100
,  // measure 8
1001
1000
0100
1000
,  // measure 9
0001
0100
0010
1000
,  // measure 10
1100
1000
0001
0100
,  // measure 11
0010
0100
0101
0101
,  // measure 12
0011
0001
0100
0010
,  // measure 13
1000
0100
1000
1001
,  // measure 14
0101
0001
1000
0010
,  // measure 15
1000
0000
0000
0000
0100
0000
0000
0000
1000
0000
0000
1000
0000
0000
1000
0000
,  // measure 16
0001
0100
0001
0100
,  // measure 17
0101
1001
0001
0100
,  // measure 18
0010
1000
0100
1000
,  // measure 19
0010
0100
0101
0011
,  // measure 20
0001
1000
1010
0010
,  // measure 21
1100
1100
1001
1100
,  // measure 22
0001
0100
0001
1010
,  // measure 23
0100
0000
0000
0000
0001
0000
0000
0000
1000
0000
0000
1000
0000
0000
1000
0000
,  // measure 24
0000
1000
0000
0000
1000
0000
0000
1000
,  // measure 25
0000
0000
1000
0000
0000
1000
1000
1000
,  // measure 26
0000
0001
0000
0000
0001
0000
0000
0001
,  // measure 27
0000
0000
0001
0000
0000
0001
0001
0001
,  // measure 28
0000
0100
0000
0000
0100
0000
0000
0100
,  // measure 29
0000
0000
0100
0000
0000
0100
0100
0100
,  // measure 30
0000
0010
0000
0000
0010
0000
0000
0010
,  // measure 31
0000
0010
0010
0010
,  // measure 32
1001
0000
0000
0110
0000
0000
1001
0000
,  // measure 33
1000
0000
1000
0000
1000
1000
1000
0000
,  // measure 34
1001
0000
0000
0110
0000
0000
1001
0000
,  // measure 35
0001
0000
0001
0000
0001
0001
0001
0000
,  // measure 36
1001
0000
0000
0110
0000
0000
1001
0000
,  // measure 37
0100
0000
0100
0000
0100
0100
0100
0000
,  // measure 38
1001
0000
0000
0110
0000
0000
1001
0000
,  // measure 39
0010
0000
0010
0000
0010
0010
0010
0000
,  // measure 40
1001
0100
0100
0100
,  // measure 41
1001
0000
0000
0000
0100
0000
0000
0000
0100
0000
0000
0100
0000
0000
0100
0000
,  // measure 42
1001
0101
0001
0100
,  // measure 43
0010
1000
0100
1000
,  // measure 44
1100
1001
0001
0100
,  // measure 45
0010
1000
0100
1000
,  // measure 46
1100
0011
0001
0100
,  // measure 47
0010
1000
0010
0100
,  // measure 48
0101
1001
0001
1000
,  // measure 49
0100
0010
0001
0100
,  // measure 50
1001
0101
0100
0100
,  // measure 51
0100
0001
0100
0001
0100
0001
0100
0000
,  // measure 52
1001
1010
0010
0010
,  // measure 53
0010
1000
0010
1000
0010
1000
0010
0000
,  // measure 54
1001
1100
1000
0010
,  // measure 55
1000
0100
0010
0100
1000
0100
0010
0000
,  // measure 56
0011
0101
0010
0010
,  // measure 57
0010
0000
0000
0000
0010
0000
0000
0000
1001
0000
0000
0110
0000
0000
1001
0000
;
