#VERSION:0.83;
#TITLE:PARANOiA;
#SUBTITLE:(DARK PSY MIX);
#ARTIST:180;
#TITLETRANSLIT:;
#SUBTITLETRANSLIT:;
#ARTISTTRANSLIT:;
#GENRE:Psy-Trance;
#ORIGIN:;
#CREDIT:Peter;
#BANNER:paranoia (Dark Psy Mix).png;
#BACKGROUND:paranoia (Dark Psy Mix)-bg.png;
#PREVIEWVID:;
#JACKET:paranoia (Dark Psy Mix)-jacket.png;
#CDIMAGE:;
#DISCIMAGE:;
#LYRICSPATH:;
#CDTITLE:;
#MUSIC:180 - PARANOiA (dark psy mix).ogg;
#OFFSET:-0.011211;
#SAMPLESTART:42.800003;
#SAMPLELENGTH:11.900000;
#SELECTABLE:YES;
#BPMS:0.000=185.000;
#STOPS:;
#DELAYS:;
#WARPS:;
#TIMESIGNATURES:0.000=4=4;
#TICKCOUNTS:0.000=4;
#COMBOS:0.000=1;
#SPEEDS:0.000=1.000=0.000=0;
#SCROLLS:0.000=1.000;
#FAKES:;
#LABELS:0.000=Song Start;
#BGCHANGES:;
#KEYSOUNDS:;
#ATTACKS:
;

//---------------dance-single - ----------------
#NOTEDATA:;
#CHARTNAME:;
#STEPSTYPE:dance-single;
#DESCRIPTION:;
#CHARTSTYLE:;
#DIFFICULTY:Challenge;
#METER:19;
#RADARVALUES:1.061601,1.171845,0.918075,0.225188,1.052322,858.000000,752.000000,106.000000,26.000000,0.000000,0.000000,0.000000,0.000000,0.000000,1.061601,1.171845,0.918075,0.225188,1.052322,858.000000,752.000000,106.000000,26.000000,0.000000,0.000000,0.000000,0.000000,0.000000;
#CREDIT:;
#NOTES:
0000
0000
0000
0000
,
0000
0000
0000
0000
,
0000
0000
0000
0000
,
0000
0000
0000
0000
,
0000
0000
0000
0000
,
1000
0000
0100
0000
0010
0000
0100
0000
0001
0000
0100
0000
1000
0000
0001
1000
,
0001
0100
0010
0010
1000
0001
0001
1000
,
1100
1100
0000
0000
0101
0101
1001
1001
,
0000
0000
1010
1100
0101
0011
1001
1010
,
0101
0000
0010
0100
1000
0000
0010
0100
0001
0000
1000
0100
0001
0000
0100
1000
,
0001
0000
0100
0010
1000
0000
0001
0100
1000
0000
0100
0001
0010
0000
0010
0000
,
0010
0000
0100
1000
0001
0000
0100
0010
1000
0000
0001
0010
0100
0000
1000
0100
,
0010
0011
0100
0101
1000
1010
0100
1001
,
1001
0000
0010
1000
0100
0000
0010
0001
0100
0000
0010
1000
0001
0000
0100
0001
,
0010
0000
0100
0001
0100
0000
0100
1000
0100
0000
0100
0010
0100
0000
0100
0000
,
0100
0000
0010
0001
0100
0000
0010
1000
0001
0000
1000
0100
0010
0000
0001
0010
,
0100
0000
1100
0000
0000
0000
0101
0000
2000
0000
3020
0000
2030
0000
3020
0030
,
0101
0000
1000
0100
0010
0000
0001
0100
0010
0000
1000
0001
0100
0000
0010
1000
,
0001
0000
0010
0100
0001
0000
0100
1000
0001
0000
0100
0010
1000
0000
1000
0000
,
1000
0000
0001
0100
0010
0000
1000
0100
0010
0000
0001
0010
0100
0000
0010
0001
,
0100
1010
0100
0011
1000
0101
0001
1100
,
1100
0000
0001
0100
0010
0000
1000
0100
0010
0000
0001
1000
0100
0000
0010
0001
,
1000
0000
0010
0100
1000
0000
0100
0001
1000
0000
0100
0010
0001
0000
0001
0000
,
1001
0101
0000
0000
1001
1100
1010
1001
,
0000
0000
1010
0110
0101
1001
0011
0110
,
1001
0000
0010
0100
0010
0100
0010
0100
0001
0000
0010
0100
0010
0100
0010
0100
,
1000
0000
0001
0100
0001
0100
1000
0100
0001
0000
1000
0100
1000
0000
0110
0000
,
1001
0000
1000
0010
1000
0010
1000
0010
0100
0000
0001
0010
0001
0010
0001
0010
,
0200
0010
0000
0310
0001
1000
0001
0100
,
1001
0000
0010
1000
0100
1000
0001
0010
1000
0000
0010
0001
0100
0001
1000
0010
,
0001
0000
0010
0100
0010
1000
0100
0001
0100
0000
0010
0001
1000
0000
1100
0000
,
0101
0000
0001
0100
0001
0100
0010
1000
0001
0000
1000
0100
1000
0100
0010
0001
,
2000
0100
0000
0001
3001
0000
0110
0000
,
1001
0000
0010
0001
1000
0100
0010
0001
1000
0000
0001
0100
0010
1000
0001
0100
,
0010
0000
1000
0100
0001
1000
0010
0001
0100
0000
0010
1000
0001
0000
0110
0000
,
1001
0000
0000
0000
0000
0000
0000
0000
0000
0000
0000
0000
0000
0000
0000
0000
0000
0000
0000
0000
0000
0000
0000
0000
2000
3000
0000
0000
0000
0000
0000
0000
0000
0000
0000
0000
0000
0000
0000
0000
0000
0000
0000
0000
0000
0000
0000
0000
0020
0030
0000
0000
0000
0000
0000
0000
0000
0000
0000
0000
0000
0000
0000
0000
0000
0000
0000
0000
0000
0000
0000
0000
2000
3000
0000
0000
0000
0000
0000
0000
0000
0000
0000
0000
0000
0000
0000
0000
0000
0000
0000
0000
0000
0000
0000
0000
0200
0300
0000
0000
0000
0000
0000
0000
0000
0000
0000
0000
0000
0000
0000
0000
0000
0000
0000
0000
0000
0000
0000
0000
2000
3000
0000
0000
0000
0000
0000
0000
0000
0000
0000
0000
0000
0000
0000
0000
0000
0000
0000
0000
0000
0000
0000
0000
0002
0003
0000
0000
0000
0000
0000
0000
0000
0000
0000
0000
0000
0000
0000
0000
0000
0000
0000
0000
0000
0000
0000
0000
0010
0000
0000
0000
0000
0000
0000
0000
0000
0000
0000
0000
0000
0000
0000
0000
0000
0000
0000
0000
0000
0000
0000
0000
,
0110
0110
0000
0011
0101
1100
1010
1001
,
0110
0000
0001
0100
0010
1000
0100
0001
0100
0000
1000
0100
0010
0001
0100
1000
,
0100
0000
0010
1000
0010
0100
0001
1000
0100
0000
0010
0001
1000
0100
1000
0000
,
1001
0110
0000
0000
0101
0101
1100
1100
,
0000
0000
0011
1010
1100
0101
1001
1010
,
2002
0000
0000
0000
,
0000
0000
0000
0000
,
0000
0000
0000
0000
,
0000
0000
0000
0000
,
0000
0000
0000
0000
,
0000
0000
0000
0000
,
0000
0000
0000
0000
,
0000
0000
3003
0000
,
1001
0000
1001
0001
0100
0000
0010
1000
0100
0000
0010
0001
0100
0000
0001
1000
,
0010
0000
0100
0001
1000
0000
1100
0000
0001
0000
0101
0000
1100
0000
0000
0000
,
1100
0000
0011
0001
0100
0000
0010
1000
0100
0000
0100
0010
0001
0000
0001
0100
,
1000
0000
1000
0100
0001
0000
0001
0100
0010
0000
0010
1000
0000
0000
0000
0000
,
1001
0000
1001
1000
0100
0000
0010
0001
0100
0000
0010
1000
0100
0000
1000
0001
,
0010
0000
0100
1000
0001
0000
0101
0000
1000
0000
1100
0000
0101
0000
0000
0000
,
0101
0000
1010
1000
0100
0000
0010
0001
0100
0000
0100
0010
1000
0000
1000
0100
,
0001
0000
0000
0100
0010
0100
0010
0000
0000
0001
1000
0001
1000
0000
0100
0000
0010
0000
0000
0000
0000
0000
0000
0000
,
1000
0100
0010
0001
0010
0001
0100
0001
0100
0001
1000
0010
1000
0010
0100
0001
,
0100
0001
1000
0100
0001
0100
1000
0010
0001
0010
1000
0100
0010
0001
1000
0100
,
0010
0001
0010
0001
0010
0001
0010
0001
1000
0100
1000
0100
1000
0100
1000
0100
,
0020
0000
0000
0030
0000
0000
0010
0000
0000
0000
0000
0000
0200
0000
0000
0300
0000
0000
0100
0000
0000
0000
0000
0000
1000
0000
0000
0000
0010
0000
0000
0000
0100
0000
0000
0000
0001
0000
0000
0000
0010
0000
0000
0000
0100
0000
0000
0000
,
1000
0100
0010
0001
0010
0001
0100
0001
0100
0001
1000
0010
1000
0010
0100
0001
,
0100
0001
0010
0100
0001
0100
1000
0100
0010
0001
1000
0010
0100
1000
0100
0001
,
1000
1010
0000
0000
0001
0011
0100
1001
,
0000
0000
0110
1010
1100
0110
0011
0101
,
1000
0100
1000
0100
0010
0001
0010
0001
0100
0001
0100
0001
1000
0010
1000
0010
,
0100
0010
0100
0010
0100
1000
0100
1000
0001
1000
0001
1000
0001
0010
0001
0010
,
1000
0100
1000
0100
0010
0001
0010
0001
0010
1000
0010
1000
0010
0001
0010
0001
,
0100
0010
1000
0100
0010
0001
1000
1000
,
0001
0010
0001
0010
0100
1000
0100
1000
0001
0100
0001
0100
1000
0100
1000
0100
,
0010
0100
0010
0100
0001
1000
0001
1000
0001
0010
0001
0010
1000
0010
1000
0010
,
1000
0001
1000
0001
0100
0001
0100
0001
0100
0010
0100
0010
0001
1000
0001
1000
,
0020
0100
0000
0130
0001
1000
0001
0010
,
0100
1000
0100
0010
0100
0001
0100
1000
0100
0010
0001
0100
1000
0001
0010
1000
,
0001
0100
0001
0100
0010
1000
0010
1000
0001
0100
1000
0100
0001
0000
1001
0000
,
1100
0000
0000
0000
0000
0000
0000
0000
0000
0000
0000
0000
0000
0000
0000
0000
0000
0000
0000
0000
0000
0000
0000
0000
0002
0003
0000
0000
0000
0000
0000
0000
0000
0000
0000
0000
0000
0000
0000
0000
0000
0000
0000
0000
0000
0000
0000
0000
0020
0030
0000
0000
0000
0000
0000
0000
0000
0000
0000
0000
0000
0000
0000
0000
0000
0000
0000
0000
0000
0000
0000
0000
0002
0003
0000
0000
0000
0000
0000
0000
0000
0000
0000
0000
0000
0000
0000
0000
0000
0000
0000
0000
0000
0000
0000
0000
0200
0300
0000
0000
0000
0000
0000
0000
0000
0000
0000
0000
0000
0000
0000
0000
0000
0000
0000
0000
0000
0000
0000
0000
0002
0003
0000
0000
0000
0000
0000
0000
0000
0000
0000
0000
0000
0000
0000
0000
0000
0000
0000
0000
0000
0000
0000
0000
2000
3000
0000
0000
0000
0000
0000
0000
0000
0000
0000
0000
0000
0000
0000
0000
0000
0000
0000
0000
0000
0000
0000
0000
0010
0000
0000
0000
0000
0000
0000
0000
0000
0000
0000
0000
0000
0000
0000
0000
0000
0000
0000
0000
0000
0000
0000
0000
,
0200
0010
0000
0301
1000
0001
0010
0100
,
1000
0100
0010
0001
0100
1000
0100
0010
1000
0010
0100
0001
0010
1000
0010
0001
,
0100
0001
1000
0100
0001
0100
1000
0100
0010
0001
1000
0100
1000
0010
0100
0001
,
1000
0101
0000
0000
1100
0011
0101
1010
,
0000
0000
0110
1001
0110
1001
0110
1001
,
0220
0000
0000
0000
,
0330
0000
0000
0000
;

//---------------dance-single - ----------------
#NOTEDATA:;
#CHARTNAME:;
#STEPSTYPE:dance-single;
#DESCRIPTION:;
#CHARTSTYLE:;
#DIFFICULTY:Hard;
#METER:15;
#RADARVALUES:0.643395,0.710209,0.242510,0.181883,0.030314,520.000000,492.000000,28.000000,21.000000,0.000000,0.000000,0.000000,0.000000,0.000000,0.643395,0.710209,0.242510,0.181883,0.030314,520.000000,492.000000,28.000000,21.000000,0.000000,0.000000,0.000000,0.000000,0.000000;
#CREDIT:;
#NOTES:
0000
0000
0000
0000
,
0000
0000
0000
0000
,
0000
0000
0000
0000
,
0000
0000
0000
0000
,
0000
0000
0000
0000
,
0001
0000
0100
0000
0010
0000
0100
0000
1000
0000
0100
0000
0001
0000
1000
0001
,
1000
0100
0010
0001
1000
0010
0100
0001
,
0010
0010
0000
0000
0100
0100
0100
0100
,
0000
0000
0010
0010
0100
0100
0010
0010
,
0001
0100
0010
1000
0010
0100
0001
1000
,
0100
0001
0100
1000
0001
0100
0010
0010
,
0010
1000
0010
0100
0001
1000
0100
0010
,
0001
0100
0001
0100
0001
0100
0001
0100
,
0010
0000
1000
0100
0010
0001
0010
0100
,
1000
0010
0100
1000
0100
0001
0100
0100
,
0100
0010
1000
0010
0100
0001
1000
0100
,
0010
1001
0000
1000
0100
1000
0001
1000
,
0010
0000
0101
0001
0010
0000
1100
1000
,
0010
0000
1001
0010
0100
0000
1000
1000
,
1000
0000
0110
0001
0100
0000
0110
1000
,
0100
0001
0100
0010
0100
1000
0100
0010
,
0001
0000
1010
0100
0001
0000
0011
0100
,
1000
0000
1001
0100
0010
0000
0001
0001
,
0100
0100
0000
0000
0010
0010
0010
0010
,
0000
0000
0100
0100
0010
0010
0100
0100
,
0010
0000
1010
1000
0100
0010
1000
0010
,
0001
0100
1000
0100
0001
0010
0001
0001
,
0001
0010
1000
0010
0001
0100
0010
1000
,
0001
0100
0000
0100
1000
0100
0001
0010
,
0100
1000
0100
0010
0001
0100
0001
1000
,
0010
0001
1000
0100
0001
0010
0100
0100
,
0100
1000
0100
0010
0001
1000
0010
0100
,
0001
1000
0000
1000
0001
0000
0110
0000
,
1001
0000
0110
0100
0001
0010
0100
0001
,
0100
1000
0100
0010
0001
1000
0100
0100
,
0100
0002
0203
2300
3200
0302
0203
2300
,
3100
0010
0000
0010
0100
1000
0001
0100
,
0010
0000
0101
0100
0010
1000
0100
1000
,
0001
0010
0100
1000
0001
0100
0010
0010
,
1000
1000
0000
0000
0001
0001
0001
0001
,
0000
0000
1000
1000
0001
0001
0010
0010
,
0220
0000
0000
0000
,
0000
0000
0000
0000
,
0000
0000
0000
0000
,
0000
0000
0000
0000
,
0000
0000
0000
0000
,
0000
0000
0000
0000
,
0000
0000
0000
0000
,
0000
0000
0330
0000
,
1001
1000
0010
0001
0010
1000
0100
0001
,
0100
0010
0001
1000
0100
1000
0001
0000
,
1001
0001
0010
1000
0010
0001
0100
1000
,
0100
0010
1000
0001
0100
0002
0003
0000
,
0110
0010
0100
0001
0100
1000
0100
0010
,
1000
0100
0001
0100
1000
0010
0100
0000
,
0011
0010
0100
0001
0100
1000
0100
0010
,
0001
0000
0000
0001
0000
0000
1000
0000
0000
1000
0000
0000
0010
0000
0100
0000
0010
0000
0000
0000
0000
0000
0000
0000
,
1001
1000
0010
1000
1001
1000
0100
0000
,
1001
0001
0010
0001
0101
0001
1000
0000
,
0110
1000
0100
0010
0110
0100
0010
0000
,
0002
0000
0000
2003
0000
0000
3001
0010
0100
1000
0001
0010
,
0100
0100
0010
0100
1000
0100
1000
0100
,
0010
0001
0100
0010
1000
0001
0100
1000
,
0100
0001
0000
0000
1000
0010
1000
0100
,
0000
0000
0010
0001
1000
0100
0010
0001
,
1000
0100
1000
0100
0001
0100
0001
0100
,
1000
0010
0001
0010
1000
0001
0100
0010
,
1000
0100
0001
1000
0010
0001
0100
1000
,
0001
0010
0000
1000
0001
0000
1001
0000
,
0001
0100
0001
0100
1000
0100
1000
0100
,
0001
0010
1000
0001
0100
0010
0001
0100
,
0010
1000
0010
0100
1000
0100
0001
1000
,
0010
0100
0000
0001
0100
0000
0110
0000
,
1000
0100
0001
1000
0010
0001
1000
0100
,
0001
1000
0010
0001
1000
0100
1000
1000
,
1000
0020
0230
0320
0032
0023
0230
0320
,
1030
0001
0000
0001
1000
0100
1000
1000
,
0001
0010
1000
0001
0100
1000
0001
0010
,
1000
0001
0100
1000
0001
0100
0010
1000
,
0001
0001
0000
0000
1000
1000
1000
1000
,
0000
0000
0001
0010
1000
0100
0001
0010
,
2002
0000
0000
0000
,
3003
0000
0000
0000
;

//---------------dance-single - ----------------
#NOTEDATA:;
#CHARTNAME:;
#STEPSTYPE:dance-single;
#DESCRIPTION:;
#CHARTSTYLE:;
#DIFFICULTY:Medium;
#METER:9;
#RADARVALUES:0.386037,0.526161,0.112594,0.060628,0.000000,312.000000,299.000000,13.000000,7.000000,0.000000,0.000000,0.000000,0.000000,0.000000,0.386037,0.526161,0.112594,0.060628,0.000000,312.000000,299.000000,13.000000,7.000000,0.000000,0.000000,0.000000,0.000000,0.000000;
#CREDIT:;
#NOTES:
0000
0000
0000
0000
,
0000
0000
0000
0000
,
0000
0000
0000
0000
,
0000
0000
0000
0000
,
0000
0000
0000
0000
,
1000
0001
0010
0100
,
1000
0010
0100
0001
,
1000
1000
0000
0000
0001
0001
0001
0000
,
0000
0000
1000
0100
0010
0000
0001
0000
,
0100
1000
0010
0001
,
0100
0000
1000
0000
0010
0000
1000
0001
,
1000
0100
0010
0001
,
0100
0100
0100
0100
,
1001
0010
1000
0100
,
0010
0000
0001
0000
1000
0000
0100
0010
,
0100
1000
0001
0010
,
0001
0100
0000
1000
0001
0000
1000
0000
,
0010
1010
0100
1100
,
0001
0000
0011
0000
0100
0000
0001
1000
,
0001
0100
0010
1000
,
0100
0010
0001
0001
,
1000
1100
0001
0011
,
0100
0000
0101
0000
1000
0000
0010
1000
,
0100
0000
0010
0010
,
0000
0000
0100
1000
0001
0000
1000
0000
,
0100
0100
0010
0010
,
0001
0000
0001
0000
1000
0000
0010
0100
,
0001
0010
0100
1000
,
0020
0000
0000
0030
,
1000
1000
0001
0001
,
0010
0000
0100
0000
1000
0000
1000
0001
,
0100
0010
1000
0001
,
0020
0000
0000
0030
,
0100
0100
0010
0010
,
0001
0001
0100
0010
,
1000
0001
1000
0001
1000
0002
0000
0000
,
0000
0000
0000
0003
,
0000
1001
1000
0100
,
0010
0001
0100
0010
,
1000
0100
1000
0000
0001
0100
0001
0000
,
0000
1000
1000
0001
,
2002
0000
0000
0000
,
0000
0000
0000
0000
,
0000
0000
0000
0000
,
0000
0000
0000
0000
,
0000
0000
0000
0000
,
0000
0000
0000
0000
,
0000
0000
0000
0000
,
3003
0000
0000
0000
,
1000
0100
0010
0000
0001
0000
0100
0000
,
0010
1000
0100
0100
,
0001
0010
0100
0000
1000
0000
0010
0000
,
0100
0000
0001
0000
1000
1000
0000
0000
,
0001
0100
0010
0100
,
0001
0010
0100
1000
,
0010
0100
0001
0010
,
0100
1000
0010
0100
0001
1000
0001
0000
,
1000
0100
1000
0000
0001
0100
0001
0000
,
1000
0100
1000
0000
0001
0001
0001
0000
,
1000
0100
1000
0000
0001
0100
0001
0000
,
0010
0010
0100
0100
,
1000
0010
1000
0000
0001
0010
0001
0000
,
1000
0010
1000
0000
0001
0100
0010
0000
,
0100
0100
0000
0000
0010
0010
0010
0000
,
0000
0000
0100
0010
0100
0010
0100
0010
,
1000
1000
0001
0001
,
0010
0010
0100
0100
,
1000
1000
0001
0001
,
0200
0000
0000
0300
,
0010
1000
0100
0010
,
0001
1000
0100
0010
,
0100
1000
0001
0100
,
0020
0000
0000
0030
,
0100
0001
0100
0000
0010
1000
0010
0000
,
1000
0100
1000
0000
0001
0010
0001
0000
,
0010
0100
0010
0100
0010
0100
0010
0100
,
0010
0010
0010
0010
,
0001
0101
1000
1010
,
0100
1100
0001
0011
,
1000
0100
0001
0000
1000
0100
0001
0100
,
1000
0000
1000
0100
0001
0100
1000
0100
,
0001
0000
0000
0000
;

//---------------dance-single - ----------------
#NOTEDATA:;
#CHARTNAME:;
#STEPSTYPE:dance-single;
#DESCRIPTION:;
#CHARTSTYLE:;
#DIFFICULTY:Easy;
#METER:6;
#RADARVALUES:0.329121,0.491083,0.225188,0.095272,0.000000,266.000000,240.000000,26.000000,11.000000,0.000000,0.000000,0.000000,0.000000,0.000000,0.329121,0.491083,0.225188,0.095272,0.000000,266.000000,240.000000,26.000000,11.000000,0.000000,0.000000,0.000000,0.000000,0.000000;
#CREDIT:;
#NOTES:
0000
0000
0000
0000
,
0000
0000
0000
0000
,
0000
0000
0000
0000
,
0000
0000
0000
0000
,
0000
0000
0000
0000
,
1000
0100
0001
0010
,
1000
0100
0001
0010
,
1000
0000
0001
0001
,
0000
1000
0100
0010
,
0110
0001
0100
0010
,
1000
0001
0100
0010
,
0010
0100
0001
0010
,
0200
0000
0000
0300
,
1000
1000
0100
0010
,
0001
1000
0100
0010
,
0010
0100
1000
0001
,
1000
0000
0001
0000
,
0110
1000
0001
1000
,
0110
0001
1000
0001
,
0001
0010
0100
1000
,
0001
0001
1000
1000
,
0100
0010
0001
0100
,
0010
1000
0001
1000
,
1000
0000
0001
0001
,
0000
1000
0100
0010
,
1100
0001
0100
0010
,
1000
0100
1000
0010
,
0100
0001
0010
0100
,
0020
0000
0030
0000
,
0001
0100
0010
1000
,
0100
1000
0001
0001
,
1000
0100
0010
0001
,
2000
3000
0002
0003
,
0100
0001
1000
1000
,
0100
1000
0001
0001
,
0010
0110
0100
0110
,
2000
0000
3000
0000
,
0001
0010
0100
1000
,
0001
0010
0100
1000
,
0001
0000
1000
1000
,
0000
0001
1000
0001
,
2002
0000
0000
0000
,
0000
0000
0000
0000
,
0000
0000
0000
0000
,
0000
0000
0000
0000
,
3003
0000
0000
0000
,
0000
0000
0000
0000
,
0000
0000
0000
0000
,
0000
0000
0000
0000
,
0010
1001
0100
1001
,
0010
0101
1000
1100
,
0010
0001
1000
0100
,
0010
0010
0200
0300
,
1001
1000
0010
1000
,
1001
0001
0010
0001
,
1000
0100
1000
0001
,
0100
0100
0100
0000
,
0010
1000
0100
0000
,
0010
0001
0100
0000
,
0001
1000
0001
0000
,
0010
0010
0100
0100
,
1001
0100
0001
0100
,
1001
0100
1000
0100
,
0010
0000
0100
0010
,
0010
0100
0010
0100
,
1001
1000
0100
1000
,
1001
0001
0100
0001
,
0010
0010
0100
1000
,
0020
0000
0030
0000
,
0101
1000
0100
0010
,
1100
0001
0100
0010
,
1000
1000
0001
0100
,
0020
0000
0030
0000
,
1000
0100
0001
0010
,
1000
0100
0001
0010
,
1000
0100
1000
0100
,
0001
0010
0200
0300
,
1000
0010
1000
0001
,
0100
0010
1000
0100
,
0110
0000
1001
0110
,
0000
0110
1001
0110
,
1001
0000
0000
0000
;

//---------------dance-single - ----------------
#NOTEDATA:;
#CHARTNAME:;
#STEPSTYPE:dance-single;
#DESCRIPTION:;
#CHARTSTYLE:;
#DIFFICULTY:Beginner;
#METER:4;
#RADARVALUES:0.184357,0.280619,0.077950,0.051966,0.000000,149.000000,140.000000,9.000000,6.000000,0.000000,0.000000,0.000000,0.000000,0.000000,0.184357,0.280619,0.077950,0.051966,0.000000,149.000000,140.000000,9.000000,6.000000,0.000000,0.000000,0.000000,0.000000,0.000000;
#CREDIT:;
#NOTES:
// measure 0
0000
0000
0000
0000
,  // measure 1
0000
0000
0000
0000
,  // measure 2
0000
0000
0000
0000
,  // measure 3
0000
0000
0000
0000
,  // measure 4
0000
0000
0000
0000
,  // measure 5
0001
0000
0000
0000
,  // measure 6
1000
0000
0000
0000
,  // measure 7
0100
0000
0010
0010
,  // measure 8
0000
0100
0100
0100
,  // measure 9
0100
0000
1000
0000
,  // measure 10
0010
0000
0001
0000
,  // measure 11
0100
0000
1000
0000
,  // measure 12
0010
0010
0010
0010
,  // measure 13
1000
0000
0100
0000
,  // measure 14
0001
0000
0010
0000
,  // measure 15
1000
0000
0100
0000
,  // measure 16
0010
0000
0100
0000
,  // measure 17
0110
0000
1000
0000
,  // measure 18
1001
0000
0010
0000
,  // measure 19
0110
0000
0001
0000
,  // measure 20
1001
0000
0000
0000
,  // measure 21
0010
0100
0010
0000
,  // measure 22
0000
0000
0000
0000
,  // measure 23
0010
0000
0010
0010
,  // measure 24
0000
0100
0100
0100
,  // measure 25
0100
0000
1000
0000
,  // measure 26
0010
0000
0100
0000
,  // measure 27
0001
0000
0010
0000
,  // measure 28
0100
0000
0000
0000
,  // measure 29
1000
0000
0001
0000
,  // measure 30
1000
0000
0010
0000
,  // measure 31
0100
0000
0001
0000
,  // measure 32
0020
0000
0030
0000
,  // measure 33
0100
0100
0100
0000
,  // measure 34
0000
0000
0000
0000
,  // measure 35
0010
0010
0010
0000
,  // measure 36
0000
0000
0000
0000
,  // measure 37
0001
0001
0001
0000
,  // measure 38
0000
0000
0000
0000
,  // measure 39
1000
0000
0001
0001
,  // measure 40
0000
1000
1000
1000
,  // measure 41
2000
0000
0000
0000
,  // measure 42
0000
0000
0000
0000
,  // measure 43
0000
0000
0000
0000
,  // measure 44
0000
0000
0000
0000
,  // measure 45
3000
0000
0000
0000
,  // measure 46
0000
0000
0000
0000
,  // measure 47
0000
0000
0000
0000
,  // measure 48
0000
0000
0000
0000
,  // measure 49
0110
0000
0000
0000
,  // measure 50
0000
0000
0010
0010
,  // measure 51
0110
0000
0000
0000
,  // measure 52
0000
0000
0000
0000
,  // measure 53
1001
0000
0000
0000
,  // measure 54
0000
0000
0001
0001
,  // measure 55
1001
0000
0000
0000
,  // measure 56
0020
0030
0200
0300
,  // measure 57
0010
0010
0010
0000
,  // measure 58
0100
0100
0100
0000
,  // measure 59
0010
0010
0010
0000
,  // measure 60
0100
0100
0100
0000
,  // measure 61
1000
1000
1000
0000
,  // measure 62
0001
0001
0001
0000
,  // measure 63
0100
0000
0100
0100
,  // measure 64
0000
0010
0010
0010
,  // measure 65
0010
0000
1000
0000
,  // measure 66
0100
0000
0001
0000
,  // measure 67
0010
0000
1000
0000
,  // measure 68
0200
0000
0300
0000
,  // measure 69
1000
0000
0010
0000
,  // measure 70
0001
0000
0100
0000
,  // measure 71
1000
0000
0010
0000
,  // measure 72
0200
0000
0300
0000
,  // measure 73
0001
0001
0000
0000
,  // measure 74
1000
1000
0000
0000
,  // measure 75
0100
0100
0100
0100
,  // measure 76
0100
0000
0000
0000
,  // measure 77
0010
0010
0000
0000
,  // measure 78
0001
0001
0000
0000
,  // measure 79
1000
0000
0001
0001
,  // measure 80
0000
1000
0001
1000
,  // measure 81
1001
0000
0000
0000
;
